osu file format v12

[General]
AudioFilename: Wonder Tale.mp3
AudioLeadIn: 0
PreviewTime: 61347
Countdown: 0
SampleSet: Soft
StackLeniency: 0.7
Mode: 0
LetterboxInBreaks: 1
WidescreenStoryboard: 0

[Editor]
DistanceSpacing: 0.8
BeatDivisor: 2
GridSize: 4

[Metadata]
Title:W:Wonder Tale (TV Size)
TitleUnicode:W:Wonder Tale (TV Size)
Artist:Tamura Yukari
ArtistUnicode:田村ゆかり
Creator:615915887
Version:Chiwa Harusaki
Source:Ore no Kanojo to Osananajimi ga Shuraba Sugiru
Tags:俺の彼女と幼なじみが修羅場すぎる 俺修羅 oreshura Yukari
BeatmapID:265863
BeatmapSetID:100146

[Difficulty]
HPDrainRate:1
CircleSize:3
OverallDifficulty:1
ApproachRate:2
SliderMultiplier:0.8
SliderTickRate:1

[Events]
//Background and Video events
Video,2480,"ED.avi"
0,0,"BG1.jpg",0,0
//Break Periods
//Storyboard Layer 0 (Background)
//Storyboard Layer 1 (Fail)
//Storyboard Layer 2 (Pass)
//Storyboard Layer 3 (Foreground)
//Storyboard Sound Samples
//Background Colour Transformations
3,100,163,162,255

[TimingPoints]
2628,378.548895899054,4,2,0,60,1,0
2628,-200,4,2,1,60,0,0
9545,327.868852459016,4,2,0,60,1,0
10200,327.868852459016,4,2,0,85,1,0
10200,-100,4,2,1,85,0,0
19380,-100,4,2,1,75,0,0
30527,-100,4,2,1,85,0,0
61347,-100,4,2,1,85,0,1
82331,-100,4,2,1,85,0,0
87740,-100,4,2,1,35,0,0

[Colours]
Combo1 : 255,0,255
Combo2 : 255,132,9
Combo3 : 162,251,255
Combo4 : 128,255,0

[HitObjects]
184,84,2628,2,0,P|172:124|180:168,1,80,2|0,0:0|0:0,0:0:0:0:
261,207,4142,2,0,P|273:167|265:123,1,80,2|0,0:0|0:0,0:0:0:0:
180,169,5656,6,0,L|181:260,1,80,2|0,0:0|0:0,0:0:0:0:
178,344,7170,2,0,B|253:341|273:262|273:262|307:261,1,160,2|2,0:0|0:0,0:0:0:0:
119,121,10200,6,0,P|184:78|269:90,2,160,6|0|2,0:0|0:0|0:0,0:0:0:0:
215,205,12167,1,0,0:0:0:0:
163,321,12822,2,0,P|241:329|306:286,1,160,2|0,0:0|0:0,0:0:0:0:
422,232,14134,2,0,B|462:212|468:171,2,80,2|0|0,0:0|0:0|0:0,0:0:0:0:
352,124,15445,5,2,0:0:0:0:
226,107,16101,1,0,0:0:0:0:
289,217,16757,2,0,B|256:293|256:293|174:293,1,160,2|0,0:0|0:0,0:0:0:0:
56,252,18068,1,2,0:0:0:0:
253,193,19380,5,6,0:0:0:0:
330,90,20036,2,0,P|370:155|361:240,1,160,0|2,0:0|0:0,0:0:0:0:
417,351,21347,2,0,P|460:284|474:206,1,160,0|2,0:0|0:0,0:0:0:0:
351,168,22659,2,0,B|303:104|303:104|219:104,1,160,0|2,0:0|0:0,0:0:0:0:
118,178,23970,2,0,B|166:246|166:246|242:246,1,160,0|2,0:0|0:0,0:0:0:0:
164,347,25281,5,0,0:0:0:0:
66,264,25937,2,0,P|90:188|154:143,1,160,2|0,0:0|0:0,0:0:0:0:
264,79,27249,2,0,B|284:119|264:159|244:199|264:243,2,160,2|0|2,0:0|0:0|0:0,0:0:0:0:
493,193,29872,5,6,0:0:0:0:
391,270,30527,1,0,0:0:0:0:
270,312,31183,2,0,L|222:159,1,160,2|0,0:0|0:0,0:0:0:0:
92,159,32495,2,0,L|36:315,1,160,2|0,0:0|0:0,0:0:0:0:
166,317,33806,2,0,B|135:286|191:232|145:186,2,120,2|0|8,0:0|0:0|0:0,0:0:0:0:
223,288,35118,6,0,P|297:312|364:268,1,160,2|0,0:0|0:0,0:0:0:0:
276,175,36429,2,0,P|202:158|132:206,1,160,2|0,0:0|0:0,0:0:0:0:
226,291,37740,2,0,L|387:291,2,160,2|0|2,0:0|0:0|0:0,0:0:0:0:
237,35,40363,5,6,0:0:0:0:
365,36,41019,2,0,B|403:106|403:106|367:185,1,160,0|2,0:0|0:0,0:0:0:0:
261,248,42331,2,0,B|221:176|221:176|259:105,1,160,0|2,0:0|0:0,0:0:0:0:
139,57,43642,5,0,0:0:0:0:
83,172,44298,1,2,0:0:0:0:
38,292,44954,1,0,0:0:0:0:
163,269,45609,6,0,P|240:295|316:270,1,160,2|8,0:0|0:0,0:0:0:0:
390,170,46921,2,0,P|319:142|236:169,1,160,2|8,0:0|0:0,0:0:0:0:
316,61,48232,2,0,P|239:37|160:57,1,160,2|8,0:0|0:0,0:0:0:0:
105,169,49544,2,0,P|128:244|196:284,1,160,2|8,0:0|0:0,0:0:0:0:
234,162,50855,6,0,L|317:162,2,80
169,162,51839,2,0,P|127:169|94:193,1,80
178,288,52822,1,0,0:0:0:0:
306,288,53478,6,0,L|388:288,2,80
241,285,54462,1,0,0:0:0:0:
238,221,54790,2,0,B|288:178|348:202|348:202|396:202,1,160
448,88,56101,6,0,P|382:42|302:46,2,160,2|0|2,0:0|0:0|0:0,0:0:0:0:
347,167,58068,1,0,0:0:0:0:
253,254,58724,6,0,P|174:257|103:221,1,160,2|0,0:0|0:0,0:0:0:0:
132,96,60036,1,2,0:0:0:0:
253,55,60691,1,0,0:0:0:0:
373,97,61347,6,0,P|411:167|395:246,1,160,6|0,0:0|0:0,0:0:0:0:
307,334,62659,2,0,P|269:264|285:185,1,160,2|0,0:0|0:0,0:0:0:0:
178,114,63970,1,2,0:0:0:0:
213,237,64626,2,0,L|212:317,2,80,0|0|2,0:0|0:0|0:0,0:0:0:0:
87,238,65937,6,0,P|65:206|63:163,1,80
92,108,66593,6,0,P|159:63|238:62,1,160,6|0,0:0|0:0,0:0:0:0:
341,134,67904,2,0,B|315:190|256:196|256:196|225:242,1,160
236,364,69216,2,0,B|167:371|125:312|125:312|94:295,1,160
167,189,70527,1,2,0:0:0:0:
257,280,71183,1,0,0:0:0:0:
132,306,71839,6,0,P|94:236|110:157,1,160,6|0,0:0|0:0,0:0:0:0:
198,69,73151,2,0,P|236:139|220:218,1,160,2|0,0:0|0:0,0:0:0:0:
319,299,74462,1,2,0:0:0:0:
290,175,75118,2,0,L|239:110,2,80,0|0|2,0:0|0:0|0:0,0:0:0:0:
418,165,76429,2,0,P|440:197|442:240,1,80
413,295,77085,6,0,P|346:340|267:341,1,160,6|0,0:0|0:0,0:0:0:0:
158,275,78396,2,0,B|184:219|243:213|243:213|274:167,1,160
263,45,79708,2,0,B|332:38|374:97|374:97|405:114,1,160
383,238,81019,1,2,0:0:0:0:
274,166,81675,1,0,0:0:0:0:
165,94,82331,6,0,P|135:168|161:242,1,160,2|0,0:0|0:0,0:0:0:0:
287,248,83642,2,0,P|317:174|289:102,1,160,2|0,0:0|0:0,0:0:0:0:
186,179,84954,6,0,L|243:333,1,160,2|0,0:0|0:0,0:0:0:0:
369,329,86265,2,0,L|426:177,2,160,2|0|6,0:0|0:0|0:0,0:0:0:0:
256,192,88068,12,6,90036,0:0:0:0:
