osu file format v14

[General]
AudioFilename: xdd.mp3
AudioLeadIn: 0
PreviewTime: 44770
Countdown: 0
SampleSet: Soft
StackLeniency: 0.7
Mode: 0
LetterboxInBreaks: 0
WidescreenStoryboard: 0

[Editor]
Bookmarks: 12906,21540,32617,40001,44924,64617,74463,83693,86770,88796
DistanceSpacing: 0.95
BeatDivisor: 2
GridSize: 32
TimelineZoom: 1.099999

[Metadata]
Title:Pleasure treasure
TitleUnicode:Pleasure treasure
Artist:Tamura Yukari
ArtistUnicode:田村ゆかり
Creator:Milan-
Version:normal
Source:Magical Girl Lyrical Nanoha ViVid
Tags:魔法少女リリカルなのは ending mahou shoujo ヴィヴィッド lolicon
BeatmapID:867319
BeatmapSetID:372075

[Difficulty]
HPDrainRate:4
CircleSize:3.5
OverallDifficulty:4
ApproachRate:5
SliderMultiplier:1.1
SliderTickRate:1

[Events]
//Background and Video events
0,0,"lolis.jpg",0,0
//Break Periods
//Storyboard Layer 0 (Background)
//Storyboard Layer 1 (Fail)
//Storyboard Layer 2 (Pass)
//Storyboard Layer 3 (Foreground)
//Storyboard Sound Samples

[TimingPoints]
617,307.692307692308,4,2,0,75,1,0
12924,-125,4,2,0,60,0,0
21540,-100,4,2,0,65,0,0
32617,-125,4,2,0,55,0,0
35078,-100,4,2,0,65,0,0
37540,-125,4,2,0,55,0,0
39386,-125,4,2,0,60,0,0
40001,-100,4,2,0,65,0,0
44924,-100,4,2,0,80,0,1
53386,-100,4,2,0,65,0,0
53693,-100,4,2,0,70,0,0
54001,-100,4,2,0,75,0,0
54309,-100,4,2,0,80,0,0
54770,-100,4,2,0,80,0,1
64617,-100,4,2,0,65,0,0
73232,-125,4,2,0,55,0,0
73847,-125,4,2,0,65,0,0
74463,-100,4,2,0,75,0,0
83693,-100,4,2,0,75,0,0
86155,-100,4,2,0,65,0,0
86463,-100,4,2,0,70,0,0
86770,-100,4,2,0,75,0,0
88540,-100,4,2,0,40,0,0

[Colours]
Combo1 : 219,77,101
Combo2 : 198,204,149
Combo3 : 118,108,236
Combo4 : 105,209,159

[HitObjects]
375,289,617,6,0,L|380:343,2,55,6|0|0,0:1|0:0|1:0,0:0:0:0:
342,247,1078,2,0,P|288:235|233:231,1,110,2|0,0:1|0:1,0:0:0:0:
187,256,1540,1,0,1:0:0:0:
84,273,1847,1,0,0:0:0:0:
34,181,2155,1,2,1:0:0:0:
98,98,2463,2,0,P|151:86|206:82,1,110,2|0,0:1|1:0,0:0:0:0:
308,106,3078,6,0,L|373:89,2,55,2|0|0,0:1|0:0|1:0,0:0:0:0:
277,148,3540,2,0,P|271:197|308:247,1,110,2|0,0:1|0:0,0:0:0:0:
353,263,4001,1,0,1:0:0:0:
453,293,4309,1,0,0:0:0:0:
377,365,4617,1,2,1:0:0:0:
277,333,4924,2,0,P|246:333|216:340,2,55,2|0|0,0:1|0:0|1:0,0:0:0:0:
353,263,5540,6,2,P|373:212|364:158,1,110,6|0,0:1|1:0,0:1:0:0:
320,130,6001,2,2,P|311:76|331:25,1,110,2|0,0:1|0:0,0:1:0:0:
380,7,6463,1,2,1:0:0:0:
468,61,6770,2,0,P|476:114|456:165,1,110,2|2,0:1|1:0,0:0:0:0:
445,216,7232,2,0,L|326:221,1,110,2|0,0:1|0:0,0:0:0:0:
287,241,7693,1,0,1:0:0:0:
214,165,8001,6,0,L|209:98,2,55,2|2|0,0:1|0:1|1:0,0:0:0:0:
178,204,8463,2,0,L|155:140,2,55,2|2|0,0:1|0:1|0:0,0:0:0:0:
142,242,8924,1,2,1:0:0:0:
142,242,9078,2,0,P|87:233|28:255,1,110,2|2,0:1|0:1,0:0:0:0:
8,294,9540,1,2,1:1:0:0:
99,344,9847,1,2,1:0:0:0:
202,330,10155,1,2,1:0:0:0:
298,372,10463,6,0,P|352:373|398:344,1,110,2|0,1:0|0:0,0:0:0:0:
435,307,10924,2,0,L|428:189,1,110,2|0,1:0|0:0,0:0:0:0:
379,177,11386,2,0,L|386:59,1,110,2|0,1:0|0:0,0:0:0:0:
414,23,11847,1,2,1:0:0:0:
286,114,12309,1,2,1:0:0:0:
301,217,12617,1,2,1:0:0:0:
204,178,12924,5,6,0:0:0:0:
204,178,13232,2,0,L|84:171,1,88,0|0,0:0|0:0,0:0:0:0:
130,255,13847,2,0,L|10:248,2,88,0|2|0,0:0|0:0|0:0,0:0:0:0:
189,313,14770,2,0,L|276:307,1,88,2|0,0:0|1:0,0:0:0:0:
355,338,15386,2,0,P|408:324|383:229,2,176,2|0|2,0:0|0:0|0:0,0:0:0:0:
276,307,16924,1,2,0:0:0:0:
298,226,17232,2,0,L|289:157,1,44,2|0,0:0|1:0,0:0:0:0:
260,154,17540,2,0,L|258:100,1,44,4|0,0:3|0:0,0:0:0:0:
271,70,17847,5,6,0:0:0:0:
213,9,18155,2,0,L|99:15,1,88,0|0,0:0|0:0,0:0:0:0:
135,96,18770,2,0,L|21:90,2,88,0|2|0,0:0|0:0|0:0,0:0:0:0:
197,152,19693,2,0,P|206:194|195:236,1,88,2|0,0:0|1:0,0:0:0:0:
141,300,20309,2,0,P|155:361|262:329,1,176,2|2,0:0|0:0,0:0:0:0:
296,283,21232,1,2,0:0:0:0:
296,283,21540,6,0,L|369:280,2,55,2|8|2,1:1|0:3|1:0,0:0:0:0:
247,262,22001,2,0,P|221:214|229:160,1,110,2|2,0:1|1:0,0:0:0:0:
265,121,22463,1,2,1:0:0:0:
358,167,22770,5,6,0:0:0:0:
447,113,23078,2,0,L|468:5,2,110,0|0|0,1:0|0:0|1:0,0:0:0:0:
358,167,24001,2,0,L|379:275,1,110,2|0,0:0|1:0,0:0:0:0:
455,347,24617,2,0,P|482:350|509:347,2,55,0|0|0,0:0|0:0|1:0,0:0:0:0:
353,373,25232,6,0,P|303:350|248:352,1,110,2|0,0:0|1:0,0:0:0:0:
200,372,25693,1,0,0:0:0:0:
200,372,25847,2,0,P|145:373|95:351,1,110,0|0,0:0|1:0,0:0:0:0:
44,259,26463,1,2,0:0:0:0:
117,185,26770,1,2,1:2:0:0:
38,116,27078,1,2,0:0:0:0:
111,42,27386,1,2,1:2:0:0:
191,109,27693,6,0,L|258:104,2,55,2|0|0,0:0|0:0|1:0,0:0:0:0:
153,146,28155,1,0,0:0:0:0:
117,185,28309,2,0,L|50:180,2,55,2|0|0,0:0|0:0|1:0,0:0:0:0:
195,253,28924,2,0,L|317:246,1,110,2|0,0:0|1:0,0:0:0:0:
302,351,29540,2,0,L|192:344,1,110,0|0,0:0|1:0,0:0:0:0:
92,312,30155,6,0,P|76:337|63:372,2,55,2|2|0,0:0|0:1|1:0,0:0:0:0:
127,274,30617,2,0,P|135:220|107:173,1,110,2|8,0:1|0:3,0:0:0:0:
72,135,31078,1,0,1:0:0:0:
72,135,31232,2,0,L|191:118,1,110,6|2,0:1|0:1,0:0:0:0:
233,119,31693,1,0,1:0:0:0:
330,153,32001,2,0,L|364:215,1,55,2|0,1:0|1:0,0:0:0:0:
409,200,32309,2,0,L|443:262,1,55,2|0,1:0|1:0,0:0:0:0:
482,276,32617,5,8,0:3:0:0:
315,321,33232,1,8,0:3:0:0:
204,195,33847,1,8,0:3:0:0:
363,244,34463,1,8,0:3:0:0:
178,341,35078,6,0,L|26:335,1,110,4|0,0:0|1:0,0:0:0:0:
12,248,35693,2,0,L|164:242,1,110,0|0,0:0|1:0,0:0:0:0:
215,197,36309,2,0,P|224:170|226:143,2,55,2|0|2,0:0|0:0|1:2,0:0:0:0:
208,248,36770,2,0,P|225:301|286:324,1,110,6|0,0:0|0:0,0:0:0:0:
321,310,37232,1,2,1:2:0:0:
426,288,37540,5,8,0:3:0:0:
368,131,38155,1,8,0:3:0:0:
228,223,38770,1,8,0:3:0:0:
394,211,39386,2,0,P|443:167|445:93,1,132,0|4,1:0|0:3,0:0:0:0:
412,66,40001,6,0,L|283:71,1,110,4|0,0:0|1:0,0:0:0:0:
261,103,40463,2,0,L|151:98,1,110,0|0,0:0|0:0,0:0:0:0:
102,80,40924,1,0,1:0:0:0:
41,165,41232,2,0,P|25:217|38:270,1,110,2|0,0:0|1:0,0:0:0:0:
127,324,41847,2,0,P|142:271|130:219,1,110,0|0,0:0|1:0,0:0:0:0:
136,114,42463,6,0,L|268:73,1,110,6|0,0:0|1:0,0:0:0:0:
286,55,42924,2,0,L|154:14,1,110,6|8,0:0|0:3,0:0:0:0:
128,24,43386,2,0,L|75:40,1,55,2|2,1:2|1:2,0:0:0:0:
24,131,43847,1,2,1:0:0:0:
24,131,44001,2,0,L|27:266,1,110,2|2,1:0|1:0,0:0:0:0:
70,336,44617,1,4,0:1:0:0:
148,266,44924,6,0,P|199:249|253:257,1,110,6|2,0:0|1:2,0:0:0:0:
329,329,45540,2,0,L|313:381,2,55,2|2|0,0:2|0:2|1:2,0:0:0:0:
366,292,46001,2,0,L|363:153,1,110,2|0,0:0|0:0,0:0:0:0:
357,129,46463,1,0,1:0:0:0:
357,129,46617,2,0,P|318:109|243:91,1,110,0|2,0:0|0:1,0:0:0:0:
202,100,47078,1,2,1:0:0:0:
140,184,47386,6,0,L|137:293,1,110,2|2,0:0|1:2,0:0:0:0:
240,275,48001,2,0,L|241:220,2,55,2|2|0,0:0|0:0|1:0,0:0:0:0:
261,322,48463,2,0,P|322:347|388:329,1,110,2|0,0:0|0:0,0:0:0:0:
406,309,48924,1,0,1:0:0:0:
406,309,49078,2,0,P|420:256|462:222,1,110,0|2,0:0|0:1,0:0:0:0:
512,240,49540,1,2,1:0:0:0:
504,135,49847,6,0,P|455:110|400:113,1,110,6|2,0:0|1:2,0:0:0:0:
303,151,50463,2,0,L|241:147,2,55,2|2|0,0:0|0:0|1:2,0:0:0:0:
337,190,50924,2,0,L|348:306,1,110,2|0,0:0|0:0,0:0:0:0:
374,344,51386,1,0,1:0:0:0:
374,344,51540,2,0,P|314:318|263:324,1,110,2|2,0:0|0:1,0:0:0:0:
230,354,52001,1,2,1:0:0:0:
126,369,52309,6,0,P|63:357|41:300,1,110,2|0,0:0|1:0,0:0:0:0:
62,272,52770,2,0,L|50:160,1,110,0|2,0:0|0:0,0:0:0:0:
70,114,53232,1,0,1:0:0:0:
103,73,53386,1,6,0:1:0:0:
179,143,53693,1,2,0:1:0:0:
283,147,54001,2,0,P|349:124|437:173,1,165,6|0,0:1|1:0,0:0:0:0:
396,262,54770,6,0,P|341:270|291:249,1,110,6|2,0:0|1:2,0:0:0:0:
194,211,55386,2,0,P|185:242|192:286,2,55,2|2|0,0:0|0:0|1:0,0:0:0:0:
192,158,55847,2,0,P|166:110|116:91,1,110,2|0,0:0|0:0,0:0:0:0:
66,109,56309,1,0,1:0:0:0:
66,109,56463,2,0,P|72:164|51:214,1,110,0|2,0:0|0:1,0:0:0:0:
7,243,56924,1,2,1:0:0:0:
81,316,57232,6,0,L|239:326,1,110,2|2,0:0|1:2,0:0:0:0:
271,256,57847,2,0,L|277:202,2,55,2|2|0,0:0|0:0|1:0,0:0:0:0:
295,302,58309,2,0,P|356:329|406:317,1,110,2|0,0:0|0:0,0:0:0:0:
444,299,58770,1,0,1:0:0:0:
444,299,58924,2,0,L|438:179,1,110,0|2,0:0|0:1,0:0:0:0:
430,137,59386,1,2,1:0:0:0:
389,40,59693,6,0,P|340:15|285:18,1,110,6|0,0:0|1:0,0:0:0:0:
213,93,60309,2,0,L|151:89,2,55,0|2|2,0:0|0:1|1:1,0:0:0:0:
252,127,60770,2,0,L|263:243,1,110,6|0,0:0|0:0,0:0:0:0:
255,288,61232,1,0,1:0:0:0:
255,288,61386,2,0,P|315:262|366:268,1,110,6|2,0:0|0:1,0:0:0:0:
405,288,61847,1,2,1:0:0:0:
457,378,62155,6,0,L|528:361,2,55,6|0|0,0:0|0:0|1:0,0:0:0:0:
404,378,62617,1,6,0:0:0:0:
300,366,62924,1,4,0:0:0:0:
197,346,63232,2,0,L|71:349,1,110,6|2,0:1|0:1,0:0:0:0:
35,355,63693,1,2,1:0:0:0:
27,250,64001,1,2,1:0:0:0:
21,145,64309,1,2,1:0:0:0:
14,40,64617,5,6,0:0:0:0:
107,86,64924,2,0,B|152:82|152:82|229:58,2,110,0|0|0,1:0|1:0|1:0,0:0:0:0:
21,145,65847,1,0,1:0:0:0:
113,191,66155,2,0,B|158:187|158:187|235:163,2,110,0|2|2,1:0|1:0|1:0,0:0:0:0:
27,250,67078,5,0,1:0:0:0:
121,294,67386,2,0,B|166:290|166:290|243:266,1,110,0|0,1:0|1:0,0:0:0:0:
322,227,68001,1,0,1:0:0:0:
423,253,68309,1,0,1:0:0:0:
480,165,68617,2,0,L|466:107,1,55,2|0,1:0|0:0,0:0:0:0:
415,102,68924,2,0,L|419:23,1,55,2|0,1:0|0:0,0:0:0:0:
392,0,69232,2,0,P|323:20|270:10,1,110,2|2,1:0|1:0,0:0:0:0:
206,82,69847,6,0,B|166:57|166:57|104:42,2,110,0|0|0,1:0|1:0|1:0,0:0:0:0:
251,176,70770,1,0,1:0:0:0:
146,169,71078,2,0,B|106:144|106:144|44:129,2,110,0|2|2,1:0|1:0|1:0,0:0:0:0:
191,263,72001,1,0,1:0:0:0:
251,176,72309,2,0,B|291:151|291:151|352:136,1,110,0|0,1:0|1:0,0:0:0:0:
456,135,72924,1,0,1:0:0:0:
456,135,73232,6,0,P|399:124|446:27,1,176,6|0,1:2|1:0,0:0:0:0:
216,90,74463,6,0,P|216:120|221:144,2,55,6|0|0,0:1|0:0|1:0,0:0:0:0:
238,42,74924,2,0,L|116:65,1,110,2|0,0:1|0:0,0:0:0:0:
85,91,75386,1,0,1:0:0:0:
34,182,75693,1,0,0:0:0:0:
84,273,76001,1,2,1:1:0:0:
186,292,76309,2,0,L|294:271,1,110,2|0,0:1|1:0,0:0:0:0:
394,243,76924,6,0,P|398:222|394:182,2,55,2|0|0,0:1|0:0|1:1,0:0:0:0:
384,294,77386,2,0,P|415:350|471:356,1,110,2|0,0:1|0:0,0:0:0:0:
506,345,77847,1,0,1:0:0:0:
500,240,78155,1,0,0:0:0:0:
489,135,78463,1,2,1:0:0:0:
408,69,78770,2,0,P|377:69|347:76,2,55,2|0|0,0:1|0:0|1:0,0:0:0:0:
387,172,79386,6,2,P|343:204|289:205,1,110,6|0,0:1|1:0,0:1:0:0:
240,186,79847,2,2,P|185:187|142:219,1,110,2|0,0:1|0:0,0:1:0:0:
125,269,80309,1,2,1:1:0:0:
210,329,80617,2,0,P|264:327|307:295,1,110,2|2,0:1|1:0,0:0:0:0:
333,249,81078,2,0,L|319:133,1,110,2|0,0:1|0:0,0:0:0:0:
300,91,81540,1,0,1:0:0:0:
201,126,81847,6,0,P|195:97|197:65,2,55,2|2|0,0:1|0:1|1:0,0:0:0:0:
179,174,82309,2,0,P|207:179|239:177,2,55,2|2|0,0:1|0:1|0:0,0:0:0:0:
128,180,82770,2,0,P|99:174|67:176,1,55,2|2,1:0|0:1,0:0:0:0:
12,261,83232,2,0,P|40:266|72:264,1,55,2|2,0:1|1:1,0:0:0:0:
170,276,83693,1,2,1:0:0:0:
270,305,84001,1,2,1:0:0:0:
348,373,84309,6,0,P|402:374|448:345,1,110,6|0,1:0|1:0,0:0:0:0:
477,301,84770,2,0,L|447:192,1,110,2|0,1:0|1:0,0:0:0:0:
448,142,85232,2,0,P|394:141|348:170,1,110,2|0,1:0|1:0,0:0:0:0:
318,213,85693,1,2,1:0:0:0:
257,68,86155,1,6,0:0:0:0:
155,91,86463,1,6,0:0:0:0:
225,167,86770,5,4,0:1:0:0:
256,192,86847,12,12,89232,0:3:0:0:
