osu file format v14

[General]
AudioFilename: xdd.mp3
AudioLeadIn: 0
PreviewTime: 44770
Countdown: 0
SampleSet: Soft
StackLeniency: 0.7
Mode: 0
LetterboxInBreaks: 0
WidescreenStoryboard: 0

[Editor]
Bookmarks: 12906,21540,32617,40001,44924,64617,74463,83693,86770,88770,88790,88809
DistanceSpacing: 1.2
BeatDivisor: 4
GridSize: 32
TimelineZoom: 3.099999

[Metadata]
Title:Pleasure treasure
TitleUnicode:Pleasure treasure
Artist:Tamura Yukari
ArtistUnicode:田村ゆかり
Creator:Milan-
Version:hard
Source:Magical Girl Lyrical Nanoha ViVid
Tags:魔法少女リリカルなのは ending mahou shoujo ヴィヴィッド lolicon
BeatmapID:867320
BeatmapSetID:372075

[Difficulty]
HPDrainRate:6
CircleSize:4
OverallDifficulty:6
ApproachRate:8
SliderMultiplier:1.4
SliderTickRate:1

[Events]
//Background and Video events
0,0,"lolis.jpg",0,0
//Break Periods
//Storyboard Layer 0 (Background)
//Storyboard Layer 1 (Fail)
//Storyboard Layer 2 (Pass)
//Storyboard Layer 3 (Foreground)
//Storyboard Sound Samples

[TimingPoints]
617,307.692307692308,4,2,0,75,1,0
12924,-125,4,2,0,60,0,0
21540,-100,4,2,0,65,0,0
32617,-125,4,2,0,55,0,0
35078,-100,4,2,0,65,0,0
37540,-125,4,2,0,55,0,0
39386,-125,4,2,0,60,0,0
40001,-100,4,2,0,65,0,0
44924,-100,4,2,0,80,0,1
53386,-90.9090909090909,4,2,0,65,0,0
53693,-83.3333333333333,4,2,0,70,0,0
54001,-76.9230769230769,4,2,0,75,0,0
54309,-100,4,2,0,80,0,0
54770,-100,4,2,0,80,0,1
64617,-100,4,2,0,65,0,0
73232,-125,4,2,0,55,0,0
73847,-125,4,2,0,65,0,0
74463,-100,4,2,0,75,0,0
83693,-125,4,2,0,75,0,0
86155,-90.9090909090909,4,2,0,65,0,0
86463,-90.9090909090909,4,2,0,70,0,0
86770,-90.9090909090909,4,2,0,75,0,0
88540,-90.9090909090909,4,2,0,40,0,0

[Colours]
Combo1 : 219,77,101
Combo2 : 198,204,149
Combo3 : 118,108,236
Combo4 : 105,209,159

[HitObjects]
121,86,617,6,0,L|127:155,1,70,6|0,0:1|0:0,0:0:0:0:
153,235,924,1,0,1:0:0:0:
226,195,1078,2,0,P|294:178|363:188,1,140,2|0,0:1|0:1,0:0:0:0:
438,313,1540,2,0,P|408:295|389:267,1,70,0|2,1:0|0:1,0:0:0:0:
468,162,1847,2,0,L|465:232,2,70,0|0|2,0:0|0:0|1:0,0:0:0:0:
304,120,2463,2,0,L|313:276,1,140,2|0,0:1|1:0,0:0:0:0:
394,100,3078,6,0,L|397:30,1,70,2|0,0:1|0:0,0:0:0:0:
313,13,3386,1,0,1:0:0:0:
242,58,3540,2,0,P|221:141|254:194,1,140,2|0,0:1|0:0,0:0:0:0:
343,244,4001,2,0,P|308:246|277:262,1,70,0|2,1:0|0:1,0:0:0:0:
221,370,4309,1,0,0:0:0:0:
199,288,4463,1,0,0:0:0:0:
138,347,4617,2,0,P|104:347|69:339,1,70,2|0,1:0|0:0,0:0:0:0:
71,219,4924,2,0,P|36:226|1:226,2,70,2|0|0,0:1|0:0|1:0,0:0:0:0:
274,212,5540,6,2,P|214:179|145:179,1,140,6|0,0:1|1:0,0:1:0:0:
253,298,6001,2,2,P|322:297|382:264,1,140,2|0,0:1|0:0,0:1:0:0:
422,189,6463,1,2,1:0:0:0:
422,189,6770,6,0,P|450:210|466:241,1,70,2|0,0:1|0:0,0:0:0:0:
382,264,7078,1,2,1:0:0:0:
315,212,7232,2,0,P|249:190|183:210,1,140,2|0,0:1|0:0,0:0:0:0:
123,269,7693,1,0,1:0:0:0:
77,77,8001,6,0,L|59:163,1,70,2|2,0:1|0:1,0:0:0:0:
43,228,8309,1,0,1:0:0:0:
183,210,8463,6,0,L|165:124,1,70,2|2,0:1|0:1,0:0:0:0:
149,59,8770,1,0,0:0:0:0:
293,95,8924,6,0,L|275:181,1,70,2|2,1:0|0:1,0:0:0:0:
259,246,9232,1,0,0:0:0:0:
339,222,9386,1,2,0:1:0:0:
410,265,9540,1,2,1:1:0:0:
410,265,9847,6,0,L|416:346,1,70,2|0,1:0|0:0,0:0:0:0:
253,315,10155,2,0,L|258:245,1,70,2|0,1:0|0:0,0:0:0:0:
397,97,10463,6,0,L|403:178,1,70,2|0,1:0|0:0,0:0:0:0:
339,222,10770,1,0,0:0:0:0:
254,125,10924,6,0,L|200:186,1,70,2|0,1:0|0:0,0:0:0:0:
124,172,11232,1,0,0:0:0:0:
11,92,11386,6,0,L|92:98,1,70,2|0,1:0|0:0,0:0:0:0:
137,33,11693,1,0,0:0:0:0:
208,178,11847,2,0,L|56:190,1,140,2|0,1:0|0:0,0:0:0:0:
7,106,12309,6,0,L|88:112,1,70,2|0,1:0|0:0,0:0:0:0:
204,192,12617,2,0,L|52:204,1,140,2|6,1:0|0:0,0:0:0:0:
291,140,13232,6,0,P|301:165|304:193,1,56,0|0,0:0|0:0,0:0:0:0:
310,272,13540,2,0,P|335:223|384:197,1,112,0|0,0:0|0:0,0:0:0:0:
462,203,14001,1,0,0:0:0:0:
475,280,14155,2,0,P|449:328|400:354,1,112,2|0,0:0|0:0,0:0:0:0:
247,211,14770,2,0,L|267:95,1,112,2|0,0:0|1:0,0:0:0:0:
189,359,15386,6,0,L|169:243,1,112,2|0,0:0|0:0,0:0:0:0:
117,190,15847,1,0,0:0:0:0:
117,190,16001,2,0,L|48:181,1,56,0|0,0:0|0:0,0:0:0:0:
169,248,16309,2,0,L|238:239,1,56,0|0,0:0|0:0,0:0:0:0:
324,158,16617,6,0,L|295:206,1,56,2|0,0:0|0:0,0:0:0:0:
298,339,16924,2,0,L|291:284,1,56,2|0,0:0|0:0,0:0:0:0:
317,147,17232,2,0,L|287:194,1,56,2|0,0:0|1:0,0:0:0:0:
169,248,17540,1,4,0:3:0:0:
140,175,17693,1,0,0:0:0:0:
216,79,17847,5,6,0:0:0:0:
204,322,18155,2,0,L|128:334,1,56,0|0,0:0|0:0,0:0:0:0:
77,364,18463,2,0,P|95:313|73:263,1,112,0|0,0:0|0:0,0:0:0:0:
10,216,18924,1,0,0:0:0:0:
81,183,19078,2,0,P|102:132|84:81,1,112,2|0,0:0|0:0,0:0:0:0:
270,9,19693,2,0,P|251:60|273:110,1,112,2|0,0:0|1:0,0:0:0:0:
167,271,20309,6,0,P|217:249|269:268,1,112,2|0,0:0|0:0,0:0:0:0:
324,323,20770,1,0,0:0:0:0:
297,194,20924,2,0,L|397:140,1,112,2|2,0:0|0:0,0:0:0:0:
395,140,21540,5,2,1:1:0:0:
330,87,21693,1,8,0:3:0:0:
262,36,21847,1,2,1:0:0:0:
162,172,22001,2,0,L|22:156,1,140,2|2,0:1|1:0,0:0:0:0:
211,103,22463,1,2,1:0:0:0:
211,103,22770,6,0,P|242:152|211:240,1,140,6|0,0:0|1:0,0:0:0:0:
157,281,23232,1,0,0:0:0:0:
293,273,23386,2,0,L|364:270,1,70,0|0,0:0|0:0,0:0:0:0:
458,356,23693,2,0,L|387:353,1,70,0|0,1:0|0:0,0:0:0:0:
244,366,24001,6,0,L|89:359,1,140,2|0,0:0|1:0,0:0:0:0:
51,199,24617,1,0,0:0:0:0:
114,253,24770,1,0,0:0:0:0:
178,199,24924,2,0,P|211:186|246:181,1,70,0|0,1:0|0:0,0:0:0:0:
387,218,25232,6,0,P|319:231|257:200,1,140,2|0,0:0|1:0,0:0:0:0:
331,145,25693,1,0,0:0:0:0:
331,145,25847,2,0,L|336:74,2,70,0|0|0,0:0|0:0|1:0,0:0:0:0:
257,200,26309,1,0,0:0:0:0:
157,117,26463,6,0,L|73:126,1,70,2|0,0:0|0:0,0:0:0:0:
167,208,26770,2,0,L|95:252,1,70,2|0,1:2|0:0,0:0:0:0:
214,286,27078,2,0,L|156:347,1,70,2|0,0:0|0:0,0:0:0:0:
300,320,27386,2,0,L|260:394,1,70,2|0,1:2|0:0,0:0:0:0:
96,383,27693,6,0,P|84:350|86:315,2,70,2|0|0,0:0|0:0|1:0,0:0:0:0:
166,337,28155,1,0,0:0:0:0:
228,280,28309,2,0,P|239:247|237:212,2,70,2|0|0,0:0|0:0|1:0,0:0:0:0:
158,234,28770,1,0,0:0:0:0:
257,132,28924,6,0,L|404:126,1,140,2|0,0:0|1:0,0:0:0:0:
472,277,29540,2,0,L|332:271,1,140,0|0,0:0|1:0,0:0:0:0:
249,124,30155,6,0,L|348:121,1,70,2|2,0:0|0:1,0:0:0:0:
397,152,30463,1,0,1:0:0:0:
310,215,30617,2,0,L|170:209,1,140,2|8,0:1|0:3,0:0:0:0:
92,176,31078,1,0,1:0:0:0:
95,299,31232,6,0,L|242:293,1,140,6|2,0:1|0:1,0:0:0:0:
314,320,31693,2,0,L|383:317,1,70,0|0,1:0|1:0,0:0:0:0:
409,333,31924,1,0,1:0:0:0:
409,333,32001,1,2,1:0:0:0:
452,261,32155,1,0,1:0:0:0:
441,177,32309,1,2,1:0:0:0:
392,108,32463,1,0,1:0:0:0:
392,108,32617,6,0,L|328:104,1,56,8|4,0:3|0:3,0:0:0:0:
120,108,33232,2,0,L|184:104,1,56,8|4,0:3|0:3,0:0:0:0:
392,114,33847,6,0,L|328:110,1,56,8|4,0:3|0:3,0:0:0:0:
120,114,34463,2,0,L|184:110,1,56,8|4,0:3|0:3,0:0:0:0:
260,219,34924,5,4,0:3:0:0:
260,219,35001,1,0,0:0:0:0:
260,219,35078,2,0,P|277:282|227:366,1,140,4|0,0:0|1:0,0:0:0:0:
164,356,35540,1,0,0:0:0:0:
164,356,35693,2,0,L|-5:355,1,140,0|0,0:0|1:0,0:0:0:0:
57,123,36309,6,0,L|67:209,1,70,2|0,0:0|0:0,0:0:0:0:
46,275,36617,1,2,1:2:0:0:
149,197,36770,2,0,P|218:190|287:201,1,140,6|0,0:0|0:0,0:0:0:0:
361,307,37232,2,0,P|327:302|297:285,1,70,2|0,1:2|0:0,0:0:0:0:
382,171,37540,6,0,P|385:198|382:226,1,56,8|4,0:3|0:3,0:0:0:0:
258,99,38155,2,0,P|254:71|257:43,1,56,8|4,0:3|0:3,0:0:0:0:
388,177,38770,6,0,P|391:204|388:232,1,56,8|4,0:3|0:3,0:0:0:0:
264,105,39386,6,0,P|260:77|263:62,2,28,0|0|0,1:0|1:0|1:0,0:0:0:0:
229,198,39693,2,0,P|232:225|230:241,2,28,8|0|4,0:3|0:0|0:3,0:0:0:0:
148,139,40001,6,0,P|86:125|3:144,1,140,4|0,0:0|1:0,0:0:0:0:
7,232,40463,2,0,P|69:246|152:227,1,140
229,198,40924,2,0,P|262:189|297:190,1,70,0|0,1:0|0:0,0:0:0:0:
443,273,41232,6,0,P|376:288|308:274,1,140,2|0,0:0|1:0,0:0:0:0:
224,280,41693,1,0,0:0:0:0:
224,280,41847,2,0,L|233:351,1,70,0|0,0:0|0:0,0:0:0:0:
135,263,42155,2,0,L|143:193,1,70,0|0,1:0|0:0,0:0:0:0:
57,90,42463,6,0,L|66:160,1,70,6|8,0:0|0:3,0:0:0:0:
138,117,42770,1,0,1:0:0:0:
229,198,42924,2,0,L|395:183,1,140,6|8,0:0|0:3,0:0:0:0:
486,133,43386,1,2,1:2:0:0:
418,82,43540,1,2,1:2:0:0:
344,291,43847,5,2,1:0:0:0:
344,291,44001,1,2,1:0:0:0:
336,81,44309,1,2,1:0:0:0:
433,293,44617,6,0,P|441:262|460:306,1,105,4|0,0:1|0:0,0:0:0:0:
482,311,44924,6,0,L|325:288,1,140,6|2,0:0|1:2,0:0:0:0:
263,319,45386,1,0,0:0:0:0:
182,217,45540,2,0,L|185:287,2,70,2|2|0,0:2|0:2|1:2,0:0:0:0:
274,103,46001,2,0,L|269:242,1,140,2|0,0:0|0:0,0:0:0:0:
182,217,46463,1,0,1:0:0:0:
182,217,46617,2,0,L|103:215,1,70,0|0,0:0|0:0,0:0:0:0:
269,242,46924,1,2,0:1:0:0:
269,242,47078,2,0,L|348:240,1,70,2|0,1:0|0:0,0:0:0:0:
444,317,47386,6,0,L|375:316,1,70,2|0,0:0|0:0,0:0:0:0:
247,378,47693,2,0,L|317:377,1,70,2|0,1:2|0:0,0:0:0:0:
204,305,48001,2,0,L|134:306,2,70,2|2|0,0:0|0:0|1:0,0:0:0:0:
268,242,48463,2,0,P|263:173|216:123,1,140,2|0,0:0|0:0,0:0:0:0:
135,102,48924,1,0,1:0:0:0:
211,135,49078,2,0,L|359:126,1,140,0|2,0:0|0:1,0:0:0:0:
431,151,49540,1,2,1:0:0:0:
494,96,49693,1,0,0:0:0:0:
465,226,49847,6,0,L|482:373,2,140,6|2|2,0:0|1:2|0:0,0:0:0:0:
431,151,50617,1,2,0:0:0:0:
494,96,50770,1,0,1:2:0:0:
350,126,50924,2,0,L|210:117,1,140,2|0,0:0|0:0,0:0:0:0:
125,152,51386,1,0,1:0:0:0:
221,107,51540,2,0,P|228:175|195:236,1,140,2|2,0:0|0:1,0:0:0:0:
98,328,52001,2,0,P|131:316|166:315,1,70,2|0,1:0|0:0,0:0:0:0:
286,367,52309,6,0,P|218:374|167:329,1,140,2|0,0:0|1:0,0:0:0:0:
147,230,52770,2,0,L|161:161,1,70,0|2,0:0|0:0,0:0:0:0:
225,60,53078,2,0,L|239:129,1,70,2|0,0:0|1:0,0:0:0:0:
297,250,53386,6,0,P|312:215|316:177,1,77.0000023498536,6|0,0:1|0:1,0:0:0:0:
165,181,53693,6,0,P|169:222|190:258,1,83.9999974365235,2|0,0:1|1:0,0:0:0:0:
238,128,54001,6,0,P|157:93|84:140,1,181.999991668702,6|8,0:1|0:3,0:0:0:0:
64,222,54463,1,0,1:0:0:0:
69,235,54540,1,0,1:0:0:0:
73,248,54617,1,0,1:0:0:0:
77,260,54693,1,0,1:0:0:0:
81,272,54770,6,0,L|234:281,1,140,6|2,0:0|1:2,0:0:0:0:
301,304,55232,1,0,0:0:0:0:
195,361,55386,2,0,L|117:356,2,70,2|2|0,0:0|0:0|1:0,0:0:0:0:
301,304,55847,2,0,L|296:164,1,140,2|0,0:0|0:0,0:0:0:0:
373,52,56309,1,0,1:0:0:0:
373,52,56463,2,0,L|369:122,1,70,0|0,0:0|0:0,0:0:0:0:
269,72,56770,1,2,0:1:0:0:
269,72,56924,2,0,L|264:2,1,70,2|0,1:0|0:0,0:0:0:0:
187,123,57232,6,0,L|182:192,1,70,2|0,0:0|0:0,0:0:0:0:
111,300,57540,2,0,L|106:230,1,70,2|0,1:2|0:0,0:0:0:0:
28,313,57847,2,0,L|23:382,2,70,2|2|0,0:0|0:0|1:0,0:0:0:0:
136,382,58309,2,0,P|188:338|191:270,1,140,2|0,0:0|0:0,0:0:0:0:
143,200,58770,1,0,1:0:0:0:
207,279,58924,2,0,L|355:270,1,140,0|2,0:0|0:1,0:0:0:0:
430,285,59386,1,2,1:0:0:0:
510,306,59540,1,0,0:0:0:0:
428,201,59693,6,0,L|411:61,2,140,6|0|0,0:0|1:0|0:0,0:0:0:0:
430,285,60463,1,2,0:1:0:0:
363,335,60617,1,2,1:1:0:0:
260,233,60770,2,0,L|120:224,1,140,6|0,0:0|0:0,0:0:0:0:
85,301,61232,1,0,1:0:0:0:
223,343,61386,2,0,L|363:334,1,140,6|2,0:0|0:1,0:0:0:0:
430,285,61847,2,0,L|440:208,1,70,2|0,1:0|0:0,0:0:0:0:
346,160,62155,6,0,L|355:229,2,70,6|0|0,0:0|0:0|1:0,0:0:0:0:
278,52,62617,2,0,L|269:122,1,70,6|0,0:0|0:0,0:0:0:0:
422,125,62924,2,0,L|412:55,1,70,4|0,0:0|0:0,0:0:0:0:
346,160,63232,2,0,P|293:204|225:197,1,140,6|2,0:1|0:1,0:0:0:0:
150,158,63693,2,0,L|58:172,1,70,2|0,1:0|1:0,0:0:0:0:
58,188,63924,1,0,1:0:0:0:
58,188,64001,1,2,1:0:0:0:
31,267,64155,1,0,1:0:0:0:
6,347,64309,2,0,L|75:336,1,70,2|0,1:0|1:0,0:0:0:0:
216,336,64617,5,6,0:0:0:0:
216,336,64924,1,0,1:0:0:0:
272,144,65232,2,0,P|280:179|277:213,1,70,0|0,1:0|0:0,0:0:0:0:
193,116,65540,2,0,P|190:81|197:47,1,70,0|0,1:0|0:0,0:0:0:0:
322,79,65847,5,0,1:0:0:0:
322,79,66155,1,0,1:0:0:0:
152,192,66463,2,0,L|59:182,1,70,2|2,1:0|0:1,0:0:0:0:
12,279,66770,2,0,L|105:269,1,70,2|0,1:0|0:0,0:0:0:0:
203,300,67078,5,0,1:0:0:0:
203,300,67386,1,0,1:0:0:0:
203,300,67693,2,0,L|290:303,1,70,0|0,1:0|0:0,0:0:0:0:
346,260,68001,2,0,L|415:257,1,70,0|0,1:0|0:0,0:0:0:0:
489,299,68309,5,0,1:0:0:0:
489,299,68617,2,0,P|495:261|487:212,1,70,2|0,1:0|0:0,0:0:0:0:
435,167,68924,1,2,1:0:0:0:
435,167,69078,1,0,0:0:0:0:
420,84,69232,6,0,P|376:63|275:82,2,140,2|2|0,1:0|1:0|1:0,0:0:0:0:
211,43,70155,2,0,P|203:76|209:111,1,70,0|0,1:0|0:0,0:0:0:0:
260,244,70463,2,0,P|268:210|262:176,1,70,0|0,1:0|0:0,0:0:0:0:
204,307,70770,1,0,1:0:0:0:
204,307,71078,1,0,1:0:0:0:
345,165,71386,2,0,L|433:162,1,70,2|2,1:0|0:1,0:0:0:0:
262,176,71693,2,0,L|174:173,1,70,2|0,1:0|0:0,0:0:0:0:
294,100,72001,5,0,1:0:0:0:
319,307,72309,1,0,1:0:0:0:
128,225,72617,1,0,1:0:0:0:
294,100,72924,1,0,1:0:0:0:
319,307,73232,6,0,L|182:321,1,112,6|0,1:2|0:0,0:0:0:0:
155,228,73847,2,0,L|128:225,3,28,0|0|0|0,1:0|1:0|1:0|1:0,0:0:0:0:
103,218,74155,2,0,L|92:138,1,56,8|8,0:3|0:3,0:0:0:0:
168,34,74463,6,0,L|160:103,1,70,6|0,0:1|0:0,0:0:0:0:
214,167,74770,1,0,1:0:0:0:
214,167,74924,2,0,P|280:184|351:160,1,140,2|0,0:1|0:0,0:0:0:0:
440,62,75386,2,0,L|434:132,1,70,0|2,1:0|0:1,0:0:0:0:
314,74,75693,2,0,L|307:4,2,70,0|0|2,0:0|0:0|1:1,0:0:0:0:
418,279,76309,2,0,P|427:245|424:210,1,70,2|0,0:1|0:0,0:0:0:0:
344,241,76617,1,0,1:0:0:0:
193,167,76924,6,0,P|183:200|186:235,1,70,2|0,0:1|0:0,0:0:0:0:
267,205,77232,1,0,1:1:0:0:
194,78,77386,2,0,L|44:67,1,140,2|0,0:1|0:0,0:0:0:0:
1,154,77847,2,0,L|71:150,1,70,0|2,1:0|0:1,0:0:0:0:
193,167,78155,1,0,0:0:0:0:
159,244,78309,1,0,0:0:0:0:
242,234,78463,2,0,P|270:233|311:238,1,70,2|0,1:0|0:0,0:0:0:0:
434,298,78770,2,0,P|399:303|365:303,2,70,2|0|0,0:1|0:0|1:0,0:0:0:0:
338,101,79386,6,2,L|306:264,1,140,6|0,0:1|1:0,0:1:0:0:
251,374,79847,2,2,L|219:211,1,140,2|0,0:1|0:0,0:1:0:0:
146,323,80309,1,2,1:1:0:0:
146,323,80617,6,0,P|122:297|91:281,1,70,2|0,0:1|0:0,0:0:0:0:
72,363,80924,1,2,1:0:0:0:
11,304,81078,2,0,P|23:237|81:200,1,140,2|0,0:1|0:0,0:0:0:0:
165,208,81540,1,0,1:0:0:0:
165,208,81847,6,0,L|252:202,1,70,2|2,0:1|0:1,0:0:0:0:
319,206,82155,1,0,1:0:0:0:
185,290,82309,6,0,L|272:284,1,70,2|2,0:1|0:1,0:0:0:0:
339,288,82617,1,0,0:0:0:0:
203,372,82770,6,0,L|290:366,1,70,2|2,1:0|0:1,0:0:0:0:
357,370,83078,1,0,0:0:0:0:
339,288,83232,1,2,0:1:0:0:
319,206,83386,1,2,1:1:0:0:
319,206,83693,6,0,L|279:197,3,28,2|0|0|0,1:0|1:0|1:0|1:0,0:0:0:0:
257,197,84001,2,0,L|217:188,3,28,2|0|0|0,1:0|1:0|1:0|1:0,0:0:0:0:
195,190,84309,6,0,P|130:197|81:215,1,112,6|0,1:0|1:0,0:0:0:0:
43,91,84770,2,0,P|108:98|157:116,1,112,2|0,1:0|1:0,0:0:0:0:
293,24,85232,2,0,P|257:66|232:116,1,112,2|0,1:0|1:0,0:0:0:0:
195,190,85693,1,2,1:0:0:0:
195,190,85770,1,0,1:0:0:0:
195,190,85847,2,0,L|204:225,3,28,0|0|0|0,1:0|1:0|1:0|1:0,0:0:0:0:
195,247,86155,6,0,L|346:271,2,154.000004699707,6|6|4,0:0|0:0|0:1,0:0:0:0:
256,192,86847,12,12,89232,0:3:0:0:
