osu file format v12

[General]
AudioFilename: no-rin.mp3
AudioLeadIn: 0
PreviewTime: 54131
Countdown: 0
SampleSet: Soft
StackLeniency: 0.7
Mode: 3
LetterboxInBreaks: 0
SpecialStyle: 0
WidescreenStoryboard: 0

[Editor]
DistanceSpacing: 1.3
BeatDivisor: 4
GridSize: 4

[Metadata]
Title:Himitsu no Door kara Ai ni Kite (TV Size)
TitleUnicode:秘密の扉から会いにきて (TV Size)
Artist:Tamura Yukari
ArtistUnicode:田村ゆかり
Creator:victorica_db
Version:Lv.6
Source:No-Rin
Tags:no-rin nourin opening のうりん
BeatmapID:359583
BeatmapSetID:144699

[Difficulty]
HPDrainRate:7
CircleSize:4
OverallDifficulty:7
ApproachRate:5
SliderMultiplier:1.4
SliderTickRate:1

[Events]
//Background and Video events
0,0,"221943wnnt0en6rjrntarn.png",0,0
Video,0,"nourin.avi"
//Break Periods
//Storyboard Layer 0 (Background)
//Storyboard Layer 1 (Fail)
//Storyboard Layer 2 (Pass)
//Storyboard Layer 3 (Foreground)
//Storyboard Sound Samples
//Background Colour Transformations
3,100,163,162,255

[TimingPoints]
-651,326.086956521739,4,2,0,30,1,0
54131,-100,4,2,0,30,0,1
74838,-100,4,2,0,30,0,0
76305,-100,4,2,0,30,0,1
81522,-100,4,2,0,30,0,0

[HitObjects]
64,192,327,1,0,0:0:0:40:snare.wav
448,192,327,1,0,0:0:0:0:
320,192,653,1,0,0:0:0:40:bassdrum.wav
192,192,1957,1,0,0:0:0:40:bassdrum.wav
64,192,3262,1,0,0:0:0:0:
320,192,3588,1,0,0:0:0:0:
64,192,3914,1,0,0:0:0:0:
192,192,4240,1,0,0:0:0:0:
64,192,4566,1,0,0:0:0:0:
64,192,4729,1,0,0:0:0:0:
448,192,4892,1,0,0:0:0:0:
320,192,5055,1,0,0:0:0:0:
320,192,5381,1,0,0:0:0:0:
192,192,5544,1,0,0:0:0:0:
64,192,5707,1,0,0:0:0:0:
320,192,5870,1,0,0:0:0:0:
192,192,6196,1,0,0:0:0:0:
64,192,6522,1,0,0:0:0:0:
448,192,6685,1,0,0:0:0:0:
192,192,6848,1,0,0:0:0:0:
448,192,7175,1,0,0:0:0:0:
320,192,7338,1,0,0:0:0:0:
64,192,7501,1,0,0:0:0:0:
320,192,7664,1,0,0:0:0:0:
192,192,7990,1,0,0:0:0:0:
320,192,8153,1,0,0:0:0:0:
448,192,8316,1,0,0:0:0:0:
192,192,8479,1,0,0:0:0:0:
320,192,8805,1,0,0:0:0:0:
64,192,9131,1,0,0:0:0:0:
320,192,9457,1,0,0:0:0:0:
448,192,9783,128,0,9946:0:0:0:0:
64,192,9946,1,0,0:0:0:0:
448,192,10109,128,0,10272:0:0:0:0:
64,192,10272,1,0,0:0:0:0:
192,192,10435,1,0,0:0:0:0:
192,192,10598,1,0,0:0:0:0:
448,192,10762,1,0,0:0:0:0:
192,192,10925,128,0,12392:0:0:0:0:
448,192,12392,1,0,0:0:0:70:bassdrum.wav
192,192,12718,1,0,0:0:0:40:snare.wav
64,192,12718,1,0,0:0:0:0:
320,192,13044,1,0,0:0:0:40:bassdrum.wav
64,192,13370,1,0,0:0:0:40:snare.wav
448,192,13370,1,0,0:0:0:0:
64,192,13696,1,0,0:0:0:40:bassdrum.wav
448,192,14022,1,0,0:0:0:40:snare.wav
192,192,14022,1,0,0:0:0:0:
448,192,14348,1,0,0:0:0:40:bassdrum.wav
64,192,14675,1,0,0:0:0:40:snare.wav
320,192,14675,1,0,0:0:0:0:
448,192,15001,1,0,0:0:0:40:bassdrum.wav
192,192,15327,1,0,0:0:0:40:snare.wav
64,192,15327,1,0,0:0:0:0:
448,192,15653,1,0,0:0:0:40:bassdrum.wav
192,192,15979,1,0,0:0:0:40:snare.wav
64,192,15979,1,0,0:0:0:0:
192,192,16305,1,0,0:0:0:40:bassdrum.wav
320,192,16468,1,0,0:0:0:40:bassdrum.wav
192,192,16631,1,0,0:0:0:40:snare.wav
320,192,16794,1,0,0:0:0:40:bassdrum.wav
192,192,16957,1,0,0:0:0:40:bassdrum.wav
320,192,17120,128,0,17609:0:0:0:40:snare.wav
64,192,17609,1,0,0:0:0:40:bassdrum.wav
320,192,17935,1,0,0:0:0:40:snare.wav
448,192,17935,1,0,0:0:0:0:
192,192,18262,1,0,0:0:0:40:bassdrum.wav
320,192,18588,1,0,0:0:0:40:snare.wav
64,192,18588,1,0,0:0:0:0:
448,192,18914,1,0,0:0:0:40:bassdrum.wav
320,192,19240,1,0,0:0:0:40:snare.wav
192,192,19240,1,0,0:0:0:0:
320,192,19566,1,0,0:0:0:40:bassdrum.wav
192,192,19892,1,0,0:0:0:40:snare.wav
64,192,19892,1,0,0:0:0:0:
448,192,20218,1,0,0:0:0:40:bassdrum.wav
192,192,20544,128,0,20870:0:0:0:70:cymbol.wav
448,192,20870,1,0,0:0:0:40:bassdrum.wav
192,192,21196,128,0,21522:0:0:0:70:cymbol.wav
448,192,21522,1,0,0:0:0:40:bassdrum.wav
320,192,21685,1,0,0:0:0:40:snare.wav
192,192,21848,1,0,0:0:0:40:snare.wav
64,192,22012,128,0,22827:0:0:0:40:bassdrum.wav
320,192,22827,128,0,23153:0:0:0:40:bassdrum.wav
64,192,23316,1,0,0:0:0:40:bassdrum.wav
320,192,23479,128,0,23805:0:0:0:40:bassdrum.wav
64,192,23968,1,0,0:0:0:40:bassdrum.wav
64,192,24294,1,0,0:0:0:40:bassdrum.wav
448,192,24620,1,0,0:0:0:40:bassdrum.wav
320,192,24783,128,0,25109:0:0:0:0:
192,192,25109,128,0,25435:0:0:0:0:
448,192,25435,128,0,25762:0:0:0:0:
64,192,25925,1,0,0:0:0:40:bassdrum.wav
320,192,26088,128,0,26414:0:0:0:0:
64,192,26577,1,0,0:0:0:40:bassdrum.wav
448,192,26740,128,0,27066:0:0:0:0:
320,192,27066,128,0,27392:0:0:0:0:
192,192,27392,128,0,27718:0:0:0:0:
64,192,27718,128,0,28044:0:0:0:0:
320,192,28044,128,0,28370:0:0:0:0:
64,192,28533,1,0,0:0:0:40:bassdrum.wav
320,192,28696,128,0,29022:0:0:0:0:
64,192,29185,1,0,0:0:0:40:bassdrum.wav
64,192,29512,1,0,0:0:0:40:bassdrum.wav
64,192,29838,1,0,0:0:0:40:bassdrum.wav
320,192,30001,128,0,30327:0:0:0:0:
192,192,30327,128,0,30653:0:0:0:0:
448,192,30653,1,0,0:0:0:40:bassdrum.wav
320,192,31142,1,0,0:0:0:40:bassdrum.wav
64,192,31305,1,0,0:0:0:40:bassdrum.wav
192,192,31468,1,0,0:0:0:40:snare.wav
320,192,31631,1,0,0:0:0:40:snare.wav
448,192,31794,128,0,33262:0:0:0:40:snare.wav
64,192,33262,1,0,0:0:0:0:
320,192,33425,1,0,0:0:0:0:
64,192,33588,1,0,0:0:0:0:
320,192,33751,1,0,0:0:0:0:
64,192,33914,1,0,0:0:0:0:
320,192,34077,1,0,0:0:0:0:
64,192,34240,1,0,0:0:0:0:
320,192,34403,1,0,0:0:0:0:
448,192,34566,1,0,0:0:0:0:
192,192,34729,1,0,0:0:0:0:
448,192,34892,1,0,0:0:0:0:
192,192,35055,1,0,0:0:0:0:
448,192,35218,1,0,0:0:0:0:
192,192,35381,1,0,0:0:0:0:
448,192,35544,1,0,0:0:0:0:
192,192,35707,1,0,0:0:0:0:
64,192,35870,1,0,0:0:0:0:
448,192,36033,1,0,0:0:0:0:
64,192,36196,1,0,0:0:0:0:
448,192,36359,1,0,0:0:0:0:
64,192,36522,1,0,0:0:0:0:
448,192,36685,1,0,0:0:0:0:
64,192,36848,1,0,0:0:0:0:
448,192,37012,1,0,0:0:0:0:
64,192,37175,128,0,37501:0:0:0:0:
192,192,37501,128,0,37827:0:0:0:0:
320,192,37827,128,0,38153:0:0:0:0:
448,192,38153,128,0,38479:0:0:0:0:
192,192,38479,1,0,0:0:0:40:bassdrum.wav
320,192,38805,1,0,0:0:0:40:snare.wav
64,192,38805,1,0,0:0:0:0:
192,192,39131,1,0,0:0:0:40:bassdrum.wav
320,192,39457,1,0,0:0:0:40:snare.wav
448,192,39457,1,0,0:0:0:0:
64,192,39783,1,0,0:0:0:40:bassdrum.wav
192,192,40109,1,0,0:0:0:40:snare.wav
448,192,40109,1,0,0:0:0:0:
320,192,40435,1,0,0:0:0:40:bassdrum.wav
64,192,40762,1,0,0:0:0:40:snare.wav
448,192,40762,1,0,0:0:0:0:
64,192,41088,1,0,0:0:0:40:bassdrum.wav
320,192,41414,1,0,0:0:0:40:snare.wav
64,192,41740,1,0,0:0:0:40:bassdrum.wav
192,192,41903,1,0,0:0:0:40:snare.wav
320,192,42066,1,0,0:0:0:40:snare.wav
192,192,42229,1,0,0:0:0:40:snare.wav
64,192,42392,1,0,0:0:0:40:bassdrum.wav
64,192,42555,1,0,0:0:0:40:snare.wav
448,192,42718,1,0,0:0:0:40:bassdrum.wav
320,192,42881,1,0,0:0:0:40:snare.wav
192,192,43044,1,0,0:0:0:40:bassdrum.wav
64,192,43696,1,0,0:0:0:70:bassdrum.wav
448,192,43696,1,0,0:0:0:70:cymbol.wav
320,192,44185,1,0,0:0:0:40:bassdrum.wav
192,192,44348,1,0,0:0:0:40:snare.wav
64,192,44348,1,0,0:0:0:0:
320,192,44838,1,0,0:0:0:40:bassdrum.wav
320,192,45164,1,0,0:0:0:40:bassdrum.wav
320,192,45490,1,0,0:0:0:40:bassdrum.wav
192,192,45653,1,0,0:0:0:40:snare.wav
64,192,45653,1,0,0:0:0:0:
448,192,45816,1,0,0:0:0:40:bassdrum.wav
192,192,45979,1,0,0:0:0:0:
320,192,46142,1,0,0:0:0:40:bassdrum.wav
64,192,46305,1,0,0:0:0:40:bassdrum.wav
448,192,46305,1,0,0:0:0:0:
448,192,46794,1,0,0:0:0:40:bassdrum.wav
64,192,46957,1,0,0:0:0:40:snare.wav
320,192,46957,1,0,0:0:0:0:
320,192,47446,1,0,0:0:0:40:bassdrum.wav
64,192,47609,1,0,0:0:0:70:cymbol.wav
64,192,47772,1,0,0:0:0:40:bassdrum.wav
192,192,47935,1,0,0:0:0:40:snare.wav
320,192,48098,1,0,0:0:0:40:snare.wav
64,192,48914,1,0,0:0:0:40:bassdrum.wav
320,192,49240,1,0,0:0:0:40:snare.wav
448,192,49240,1,0,0:0:0:0:
64,192,49566,1,0,0:0:0:40:bassdrum.wav
192,192,49729,1,0,0:0:0:40:bassdrum.wav
320,192,49892,1,0,0:0:0:40:snare.wav
448,192,49892,1,0,0:0:0:0:
64,192,50055,1,0,0:0:0:40:bassdrum.wav
448,192,50218,128,0,50544:0:0:0:0:
320,192,50544,128,0,50870:0:0:0:0:
192,192,50870,128,0,51196:0:0:0:0:
64,192,51196,128,0,51522:0:0:0:0:
320,192,51522,128,0,52012:0:0:0:0:
192,192,52012,1,0,0:0:0:0:
64,192,52175,128,0,53316:0:0:0:0:
448,192,52827,1,0,0:0:0:40:snare.wav
448,192,52990,1,0,0:0:0:40:bassdrum.wav
192,192,53153,1,0,0:0:0:0:
320,192,53316,1,0,0:0:0:40:bassdrum.wav
64,192,53805,1,0,0:0:0:40:snare.wav
448,192,53805,1,0,0:0:0:0:
64,192,54131,1,0,0:0:0:40:bassdrum.wav
320,192,54457,1,0,0:0:0:40:snare.wav
448,192,54457,1,0,0:0:0:0:
448,192,54783,1,0,0:0:0:40:bassdrum.wav
320,192,55109,1,0,0:0:0:40:snare.wav
192,192,55109,1,0,0:0:0:0:
64,192,55435,1,0,0:0:0:40:bassdrum.wav
320,192,55762,1,0,0:0:0:40:snare.wav
192,192,55762,1,0,0:0:0:0:
448,192,56088,1,0,0:0:0:40:bassdrum.wav
192,192,56414,1,0,0:0:0:40:snare.wav
448,192,56414,1,0,0:0:0:0:
64,192,56740,1,0,0:0:0:40:bassdrum.wav
320,192,57066,1,0,0:0:0:40:snare.wav
192,192,57392,1,0,0:0:0:40:bassdrum.wav
320,192,57718,1,0,0:0:0:40:snare.wav
64,192,58044,1,0,0:0:0:40:bassdrum.wav
320,192,58207,1,0,0:0:0:40:snare.wav
192,192,58370,1,0,0:0:0:40:snare.wav
448,192,58533,1,0,0:0:0:40:snare.wav
448,192,58859,1,0,0:0:0:40:snare.wav
320,192,59022,1,0,0:0:0:40:bassdrum.wav
192,192,59185,1,0,0:0:0:40:bassdrum.wav
64,192,59348,1,0,0:0:0:40:bassdrum.wav
320,192,59675,1,0,0:0:0:40:snare.wav
192,192,59675,1,0,0:0:0:0:
192,192,60001,1,0,0:0:0:40:bassdrum.wav
64,192,60327,1,0,0:0:0:40:snare.wav
320,192,60327,1,0,0:0:0:0:
448,192,60653,1,0,0:0:0:40:bassdrum.wav
64,192,60979,1,0,0:0:0:40:snare.wav
192,192,60979,1,0,0:0:0:0:
320,192,61305,1,0,0:0:0:40:bassdrum.wav
192,192,61631,1,0,0:0:0:40:snare.wav
448,192,61631,1,0,0:0:0:0:
64,192,61957,1,0,0:0:0:40:bassdrum.wav
320,192,62283,128,0,62609:0:0:0:70:cymbol.wav
64,192,62609,1,0,0:0:0:40:bassdrum.wav
320,192,62935,128,0,63262:0:0:0:70:cymbol.wav
64,192,63262,1,0,0:0:0:40:bassdrum.wav
320,192,63425,1,0,0:0:0:40:snare.wav
448,192,63588,1,0,0:0:0:40:snare.wav
192,192,63751,128,0,64077:0:0:0:40:bassdrum.wav
448,192,64077,1,0,0:0:0:40:snare.wav
320,192,64240,1,0,0:0:0:40:snare.wav
192,192,64403,1,0,0:0:0:40:snare.wav
448,192,64566,1,0,0:0:0:40:bassdrum.wav
320,192,64892,1,0,0:0:0:40:snare.wav
64,192,64892,1,0,0:0:0:0:
192,192,65218,1,0,0:0:0:40:bassdrum.wav
320,192,65544,1,0,0:0:0:40:snare.wav
448,192,65544,1,0,0:0:0:0:
192,192,65870,1,0,0:0:0:40:bassdrum.wav
320,192,66196,1,0,0:0:0:40:snare.wav
448,192,66196,1,0,0:0:0:0:
192,192,66522,1,0,0:0:0:40:bassdrum.wav
64,192,66848,1,0,0:0:0:40:snare.wav
448,192,66848,1,0,0:0:0:0:
192,192,67175,1,0,0:0:0:0:
448,192,67501,1,0,0:0:0:0:
64,192,67827,1,0,0:0:0:0:
320,192,68153,1,0,0:0:0:0:
64,192,68479,1,0,0:0:0:40:bassdrum.wav
64,192,68642,1,0,0:0:0:40:snare.wav
192,192,68805,1,0,0:0:0:40:snare.wav
320,192,68968,1,0,0:0:0:40:snare.wav
448,192,69294,1,0,0:0:0:30:bassdrum.wav
320,192,69457,1,0,0:0:0:30:bassdrum.wav
192,192,69620,1,0,0:0:0:30:bassdrum.wav
64,192,69783,1,0,0:0:0:30:bassdrum.wav
320,192,70109,1,0,0:0:0:40:snare.wav
448,192,70109,1,0,0:0:0:0:
64,192,70435,1,0,0:0:0:40:bassdrum.wav
192,192,70762,1,0,0:0:0:40:snare.wav
448,192,70762,1,0,0:0:0:0:
320,192,71088,1,0,0:0:0:40:bassdrum.wav
192,192,71414,1,0,0:0:0:40:snare.wav
64,192,71414,1,0,0:0:0:0:
320,192,71740,1,0,0:0:0:40:bassdrum.wav
192,192,72066,1,0,0:0:0:40:snare.wav
448,192,72066,1,0,0:0:0:0:
320,192,72392,1,0,0:0:0:40:bassdrum.wav
64,192,72718,128,0,73044:0:0:0:40:cymbol.wav
320,192,73044,1,0,0:0:0:40:bassdrum.wav
64,192,73370,128,0,73696:0:0:0:40:cymbol.wav
320,192,73696,1,0,0:0:0:40:bassdrum.wav
448,192,73859,1,0,0:0:0:40:bassdrum.wav
64,192,74022,1,0,0:0:0:40:snare.wav
192,192,74185,1,0,0:0:0:40:bassdrum.wav
320,192,74512,128,0,75001:0:0:0:40:bassdrum.wav
64,192,75979,1,0,0:0:0:40:snare.wav
448,192,75979,1,0,0:0:0:0:
192,192,76305,1,0,0:0:0:0:
320,192,76468,1,0,0:0:0:0:
64,192,76631,1,0,0:0:0:0:
320,192,76794,1,0,0:0:0:0:
448,192,76957,1,0,0:0:0:0:
320,192,77120,1,0,0:0:0:0:
192,192,77283,1,0,0:0:0:0:
64,192,77446,1,0,0:0:0:0:
192,192,77609,1,0,0:0:0:0:
320,192,77772,1,0,0:0:0:0:
64,192,77935,1,0,0:0:0:0:
320,192,78098,1,0,0:0:0:0:
448,192,78262,1,0,0:0:0:0:
320,192,78425,1,0,0:0:0:0:
192,192,78588,1,0,0:0:0:0:
64,192,78751,1,0,0:0:0:0:
192,192,78914,1,0,0:0:0:0:
320,192,79077,1,0,0:0:0:0:
64,192,79240,128,0,79566:0:0:0:0:
320,192,79566,1,0,0:0:0:0:
448,192,79729,1,0,0:0:0:0:
64,192,79892,128,0,80218:0:0:0:0:
448,192,80218,1,0,0:0:0:0:
320,192,80381,1,0,0:0:0:0:
192,192,80544,1,0,0:0:0:0:
64,192,80707,128,0,81522:0:0:0:0:
64,192,82664,1,0,0:0:0:40:bassdrum.wav
448,192,82664,1,0,0:0:0:70:cymbol.wav
