osu file format v13

[General]
AudioFilename: Tamura Yukari - Himitsu no Door kara Ai ni Kite (TV Size).mp3
AudioLeadIn: 1500
PreviewTime: 23479
Countdown: 0
SampleSet: Soft
StackLeniency: 0.7
Mode: 0
LetterboxInBreaks: 0
WidescreenStoryboard: 1

[Editor]
Bookmarks: 37500
DistanceSpacing: 1.1
BeatDivisor: 4
GridSize: 8
TimelineZoom: 1

[Metadata]
Title:Himitsu no Door kara Ai ni Kite (TV Size)
TitleUnicode:秘密の扉から会いにきて
Artist:Tamura Yukari
ArtistUnicode:田村ゆかり
Creator:ts8zs
Version:Hard
Source:のうりん
Tags:Norin! No-rin!
BeatmapID:369100
BeatmapSetID:146882

[Difficulty]
HPDrainRate:6
CircleSize:4
OverallDifficulty:6
ApproachRate:8
SliderMultiplier:1.4
SliderTickRate:2

[Events]
//Background and Video events
0,0,"41312304.jpg",0,0
//Break Periods
//Storyboard Layer 0 (Background)
//Storyboard Layer 1 (Fail)
//Storyboard Layer 2 (Pass)
//Storyboard Layer 3 (Foreground)
//Storyboard Sound Samples
//Background Colour Transformations
3,100,163,162,255

[TimingPoints]
653,326.086956521739,4,2,1,50,1,0
653,-200,4,2,1,50,0,0
5707,-100,4,2,1,50,0,0
10924,-100,4,2,1,50,0,1
12066,-100,4,2,1,50,0,0
54131,-100,4,2,1,50,0,1
61957,-100,4,2,1,50,0,0
64566,-100,4,2,1,50,0,1
72392,-100,4,2,1,50,0,0
74837,-100,4,2,1,50,0,1
75979,-100,4,2,1,50,0,0
82663,-100,4,2,1,50,0,1
86739,-100,4,2,1,50,0,0

[Colours]
Combo1 : 255,255,55
Combo2 : 155,55,255
Combo3 : 0,217,217
Combo4 : 255,81,255

[HitObjects]
328,24,163,5,8,0:0:0:0:
328,24,245,1,8,0:0:0:0:
328,24,326,1,6,1:2:0:0:
256,64,653,6,0,P|248:104|256:136,1,70,8|0,0:0|0:0,0:0:0:0:
320,168,1305,2,0,P|328:128|320:96,2,70,0|0|8,0:0|0:0|0:0,0:0:0:0:
256,208,2283,2,0,P|249:242|257:275,1,70,0|0,0:0|0:0,0:0:0:0:
328,240,2935,6,0,P|362:246|395:238,2,70,0|8|0,0:0|0:0|0:0,0:0:0:0:
256,208,3913,2,0,P|221:201|188:209,2,70,0|0|8,0:0|0:0|0:0,0:0:0:0:
320,168,4892,2,0,L|344:128,1,35,0|8,0:0|0:0,0:0:0:0:
416,56,5707,5,8,0:0:0:0:
416,56,5788,1,8,0:0:0:0:
416,56,5870,2,0,P|424:96|416:128,1,70,10|0,0:0|0:0,0:0:0:0:
392,192,6196,2,0,P|385:226|393:259,1,70,10|0,0:0|0:0,0:0:0:0:
464,296,6522,2,0,P|470:261|462:228,2,70,10|2|10,0:0|0:0|0:0,0:0:0:0:
344,344,7174,6,0,L|272:336,1,70,10|2,0:0|0:0,0:0:0:0:
200,304,7500,2,0,L|128:296,1,70,10|2,0:0|0:0,0:0:0:0:
65,332,7826,6,0,P|57:298|64:264,1,70,8|0,0:0|0:0,0:0:0:0:
88,184,8152,2,0,P|94:149|86:116,1,70,8|8,0:0|0:0,0:0:0:0:
10,152,8479,6,0,P|11:220|64:264,1,140,12|8,0:0|0:0,0:0:0:0:
88,184,8968,1,8,0:0:0:0:
160,160,9131,6,0,P|200:152|232:160,1,70,12|0,0:0|0:0,0:0:0:0:
288,208,9457,2,0,P|321:216|360:208,1,70,8|8,0:0|0:0,0:0:0:0:
424,176,9783,5,8,0:0:0:0:
424,176,9946,1,8,0:0:0:0:
368,128,10109,1,8,0:0:0:0:
368,128,10272,1,8,0:0:0:0:
440,104,10435,2,0,P|464:112|496:152,2,70,0|0|8,0:0|0:0|0:0,0:0:0:0:
256,192,10924,12,12,12066,1:2:0:0:
112,192,12392,6,0,L|40:176,2,70,10|2|8,0:0|0:0|0:0,0:0:0:0:
112,192,12881,1,2,0:0:0:0:
264,216,13207,5,2,0:0:0:0:
200,264,13370,1,10,0:0:0:0:
192,184,13533,1,2,0:0:0:0:
136,232,13696,2,0,P|128:272|136:304,1,70
264,216,14185,6,0,P|304:240|384:208,1,140,2|2,0:0|0:0,0:0:0:0:
392,128,14674,1,10,0:0:0:0:
320,160,14837,1,10,0:0:0:0:
384,208,15000,6,0,P|432:200|472:112,1,140,14|8,0:0|0:0,0:0:0:0:
328,80,15652,2,0,P|280:88|240:176,1,140,14|8,0:0|0:0,0:0:0:0:
384,208,16305,6,0,L|416:271,1,70,12|8,0:0|0:0,0:0:0:0:
352,240,16631,2,0,L|384:303,1,70,12|8,0:0|0:0,0:0:0:0:
320,272,16957,2,0,L|352:335,1,70,12|8,0:0|0:0,0:0:0:0:
184,296,17609,6,0,L|112:304,2,70,8|2|8,0:0|0:0|0:0,0:0:0:0:
184,296,18098,1,2,0:0:0:0:
224,144,18424,6,0,L|296:136,2,70,2|10|2,0:0|0:0|0:0,0:0:0:0:
152,112,18913,2,0,L|80:120,1,70
216,64,19402,1,2,0:0:0:0:
288,184,19729,6,8,L|336:176,4,35
224,144,20218,6,0,L|199:169,4,35,10|8|10|8|14,0:0|0:0|0:0|0:0|1:2,0:0:0:0:
296,264,20870,6,0,L|271:289,4,35,10|8|10|8|14,0:0|0:0|0:0|0:0|1:2,0:0:0:0:
368,280,21359,5,0,0:0:0:0:
432,240,21522,2,0,L|440:168,1,70,10|10,0:0|0:0,0:0:0:0:
376,128,21848,2,0,L|384:59,1,70,10|14,0:0|0:0,0:0:0:0:
432,240,22826,6,0,P|367:260|312:221,1,140,12|0,0:0|0:0,0:0:0:0:
288,144,23316,1,8,0:0:0:0:
240,208,23479,2,0,L|168:224,1,70,8|0,0:0|0:0,0:0:0:0:
120,280,23805,2,0,L|48:296,2,70,0|8|0,0:0|0:0|0:0,0:0:0:0:
240,208,24294,2,0,L|312:224,1,70,8|0,0:0|0:0,0:0:0:0:
344,288,24620,2,0,L|416:304,1,70,8|8,0:0|0:0,0:0:0:0:
488,184,25109,6,0,P|488:120|424:120,1,140,0|8,0:0|0:0,0:0:0:0:
288,144,25761,2,0,L|216:128,2,70,0|8|8,0:0|0:0|0:0,0:0:0:0:
184,232,26413,1,0,0:0:0:0:
152,296,26576,6,0,P|192:304|232:288,1,70,10|2,0:0|0:0,0:0:0:0:
264,240,26902,2,0,L|352:248,1,70,8|2,0:0|0:0,0:0:0:0:
400,280,27229,2,0,P|408:240|392:192,1,70,8|10,0:0|0:0,0:0:0:0:
344,168,27555,2,0,L|352:80,1,70,8|2,0:0|0:0,0:0:0:0:
472,24,28044,6,0,B|464:96|464:96|480:136|464:168,1,140,14|0,0:0|0:0,0:0:0:0:
405,203,28533,2,0,P|394:170|400:136,1,70,8|8,0:0|0:0,0:0:0:0:
488,312,29022,6,0,L|416:328,1,70,0|10,0:0|0:0,0:0:0:0:
352,304,29348,2,0,P|336:280|304:256,1,70,0|8,0:0|0:0,0:0:0:0:
240,288,29674,2,0,P|224:328|200:344,1,70,8|8,0:0|0:0,0:0:0:0:
168,280,30000,2,0,B|184:248|176:216|176:216|152:176|184:120,1,140,8|0,0:0|0:0,0:0:0:0:
240,176,30489,1,8,0:0:0:0:
304,208,30652,2,0,B|324:175|300:135|300:135|296:104|308:71,1,140,12|0,0:0|0:0,0:0:0:0:
360,24,31142,1,8,0:0:0:0:
376,96,31305,2,0,P|400:120|432:136,2,70,8|0|0,0:0|0:0|0:0,0:0:0:0:
304,80,31794,6,0,L|216:104,1,70,2|10,0:0|0:0,0:0:0:0:
176,136,32120,2,0,L|96:144,1,70,2|2,0:0|0:0,0:0:0:0:
40,120,32446,1,2,0:0:0:0:
176,136,32772,6,0,P|208:152|232:176,1,70,12|8,0:0|0:0,0:0:0:0:
168,216,33098,2,0,P|192:240|223:255,1,70,8|8,0:0|0:0,0:0:0:0:
296,224,33424,1,0,0:0:0:0:
304,144,33587,2,0,L|376:128,1,70,8|0,0:0|0:0,0:0:0:0:
424,72,33913,6,0,P|448:128|408:200,2,140,8|8|8,0:0|0:0|0:0,0:0:0:0:
352,56,34729,1,0,0:0:0:0:
304,144,34892,2,0,L|232:160,1,70,8|0,0:0|0:0,0:0:0:0:
160,176,35218,1,8,0:0:0:0:
88,144,35381,2,0,P|112:112|144:96,1,70,0|8,0:0|0:0,0:0:0:0:
216,120,35707,1,0,0:0:0:0:
232,192,35870,6,0,L|272:256,1,70,10|2,0:0|0:0,0:0:0:0:
344,232,36196,2,0,L|306:172,1,70,8|0,0:0|0:0,0:0:0:0:
376,144,36522,2,0,L|413:203,1,70,8|0,0:0|0:0,0:0:0:0:
480,168,36848,2,0,L|442:108,1,70,8|0,0:0|0:0,0:0:0:0:
376,64,37174,2,0,B|336:64|312:96|312:96|248:80,1,140,10|10,0:0|0:0,0:0:0:0:
200,224,37826,2,0,B|136:208|136:208|112:240|72:240,1,140,10|10,0:0|0:0,0:0:0:0:
72,160,38316,1,8,0:0:0:0:
33,86,38479,6,0,P|-6:141|8:208,1,140,14|8,0:0|0:0,0:0:0:0:
72,160,38968,2,0,P|104:128|112:88,1,70,0|8,0:0|0:0,0:0:0:0:
192,104,39294,2,0,P|205:136|231:158,1,70,0|8,0:0|0:0,0:0:0:0:
383,199,39783,6,0,P|366:133|408:80,1,140,14|8,0:0|0:0,0:0:0:0:
448,152,40272,2,0,P|464:217|423:271,1,140,0|0,0:0|0:0,0:0:0:0:
344,264,40761,2,0,P|272:240|200:264,1,140,8|14,0:0|0:0,0:0:0:0:
212,256,41413,1,14,0:0:0:0:
64,312,41739,2,0,L|0:280,2,70,6|0|10,0:0|0:0|0:0,0:0:0:0:
120,256,42229,6,0,L|160:192,1,70,2|8,0:0|0:0,0:0:0:0:
208,256,42555,1,8,0:0:0:0:
232,184,42718,6,0,L|272:120,1,70,8|8,0:0|0:0,0:0:0:0:
328,176,43044,1,12,0:0:0:0:
344,104,43207,6,0,P|400:160|320:248,1,210,0|8,1:0|0:0,0:0:0:0:
120,264,44022,6,0,P|112:224|120:192,1,70,0|0,0:0|0:0,0:0:0:0:
152,128,44348,1,0,0:0:0:0:
195,232,44674,6,0,L|264:248,1,70,0|8,0:0|0:0,0:0:0:0:
336,264,45000,1,0,0:0:0:0:
288,320,45163,1,8,0:0:0:0:
264,248,45326,6,0,L|279:179,1,70,2|0,0:0|0:0,0:0:0:0:
224,128,45652,2,0,L|239:59,1,70,2|8,0:0|0:0,0:0:0:0:
336,40,45979,2,0,L|320:108,1,70,10|8,0:0|0:0,0:0:0:0:
304,192,46305,1,10,0:0:0:0:
304,192,46631,6,0,P|216:224|152:208,1,140,0|2,0:0|0:0,0:0:0:0:
32,160,47283,2,0,L|120:136,1,70,0|8,0:0|0:0,0:0:0:0:
176,120,47609,1,10,0:0:0:0:
248,104,47772,2,0,P|282:104|313:121,1,70,10|10,0:0|0:0,0:0:0:0:
368,176,48098,1,14,0:0:0:0:
240,224,48424,6,0,L|224:296,1,70,8|8,0:0|0:0,0:0:0:0:
184,160,48750,6,0,P|168:120|168:80,1,70,0|14,0:0|0:0,0:0:0:0:
304,32,49239,2,0,P|320:72|320:112,1,70,0|0,0:0|0:0,0:0:0:0:
312,176,49566,2,0,L|344:240,1,70,0|8,0:0|0:0,0:0:0:0:
288,288,49892,6,0,L|256:225,1,70,0|10,0:0|0:0,0:0:0:0:
176,224,50218,2,0,L|240:352,1,140,0|0,0:0|0:0,0:0:0:0:
104,280,50870,2,0,L|40:152,1,140,8|0,0:0|0:0,0:0:0:0:
144,120,51522,5,4,0:0:0:0:
344,48,52011,1,4,0:0:0:0:
208,176,52500,1,4,0:0:0:0:
320,248,52826,6,0,L|392:232,2,70,10|10|10,0:0|0:0|0:0,0:0:0:0:
320,248,53316,1,10,0:0:0:0:
320,248,54131,6,0,L|248:240,1,70,12|0,0:0|0:0,0:0:0:0:
208,176,54457,2,0,L|136:168,1,70,8|0,0:0|0:0,0:0:0:0:
168,96,54783,2,0,L|237:103,1,70,10|2,0:0|0:0,0:0:0:0:
280,168,55109,2,0,P|240:240|176:240,1,140,10|10,0:0|0:0,0:0:0:0:
120,208,55598,1,2,0:0:0:0:
120,288,55761,2,0,P|120:320|144:360,2,70,10|2|8,0:0|0:0|0:0,0:0:0:0:
200,304,56250,6,0,P|232:304|272:328,2,70,0|8|8,0:0|0:0|0:0,0:0:0:0:
120,288,56739,2,0,L|176:160,1,140,12|8,0:0|0:0,0:0:0:0:
400,136,57392,2,0,L|344:264,1,140,12|8,0:0|0:0,0:0:0:0:
192,240,58044,2,0,P|168:184|168:176,1,70,8|0,0:0|0:0,0:0:0:0:
216,120,58370,2,0,P|240:176|240:184,1,70,8|12,0:0|0:0,0:0:0:0:
176,320,58859,5,0,0:0:0:0:
248,296,59022,1,8,0:0:0:0:
192,240,59185,1,8,0:0:0:0:
176,320,59348,2,0,P|208:360|296:360,1,140,14|10,0:0|0:0,0:0:0:0:
400,256,60000,6,0,P|432:240|468:240,1,70,2|0,0:0|0:0,0:0:0:0:
448,312,60326,2,0,P|400:328|328:272,1,140,10|10,0:0|0:0,0:0:0:0:
312,208,60816,1,2,0:0:0:0:
376,160,60979,2,0,P|384:120|376:88,2,70,10|2|8,0:0|0:0|0:0,0:0:0:0:
304,128,61468,6,0,P|248:112|232:112,1,70,0|0,0:0|0:0,0:0:0:0:
160,120,61794,1,8,0:0:0:0:
104,176,61957,6,0,L|120:208,4,35,8|8|8|8|8,0:0|0:0|0:0|0:0|1:2,0:0:0:0:
16,208,62609,6,0,L|0:176,4,35,8|8|8|8|12,0:0|0:0|0:0|0:0|1:2,0:0:0:0:
112,328,63261,6,0,L|184:328,1,70,8|8,0:0|0:0,0:0:0:0:
200,256,63587,2,0,L|130:256,1,70
256,312,64076,6,0,L|326:312,2,70,12|12|8,0:0|0:0|0:0,0:0:0:0:
272,240,64566,6,0,P|240:192|160:192,2,140,12|8|10,0:0|0:0|0:0,0:0:0:0:
336,192,65381,1,2,0:0:0:0:
352,264,65544,2,0,P|400:232|400:152,1,140,10|10,0:0|0:0,0:0:0:0:
336,112,66033,1,2,0:0:0:0:
272,152,66196,2,0,P|240:160|200:152,2,70,10|2|8,0:0|0:0|0:0,0:0:0:0:
336,192,66685,5,0,0:0:0:0:
400,152,66848,1,8,0:0:0:0:
336,112,67011,1,8,0:0:0:0:
336,192,67174,2,0,P|384:224|464:192,1,140,12|8,0:0|0:0,0:0:0:0:
400,72,67826,2,0,P|352:40|272:72,1,140,12|8,0:0|0:0,0:0:0:0:
336,192,68479,5,12,0:0:0:0:
302,264,68642,2,0,L|232:264,1,70,8|8,0:0|0:0,0:0:0:0:
184,200,68968,2,0,P|154:261|181:323,1,140,12|0,0:0|0:0,0:0:0:0:
232,264,69457,5,8,0:0:0:0:
184,200,69620,1,8,0:0:0:0:
112,168,69783,2,0,B|104:136|104:136|104:96,1,70,14|0,0:0|0:0,0:0:0:0:
168,56,70109,2,0,B|176:88|176:88|176:128,1,70,10|0,0:0|0:0,0:0:0:0:
184,200,70435,5,10,0:0:0:0:
248,152,70598,1,2,0:0:0:0:
312,200,70761,2,0,P|324:132|283:78,1,140,10|10,0:0|0:0,0:0:0:0:
248,152,71250,1,2,0:0:0:0:
312,200,71413,1,10,0:0:0:0:
384,232,71576,2,0,P|416:240|456:232,1,70,2|8,0:0|0:0,0:0:0:0:
416,160,71902,5,0,0:0:0:0:
384,232,72066,2,0,P|368:272|368:304,1,70,8|8,0:0|0:0,0:0:0:0:
440,288,72392,6,0,L|456:320,4,35,8|8|8|8|12,0:0|0:0|0:0|0:0|1:2,0:0:0:0:
512,216,73044,6,0,L|496:184,4,35,8|8|8|8|8,0:0|0:0|0:0|0:0|1:2,0:0:0:0:
416,160,73696,6,0,P|408:208|392:232,1,70,8|12,0:0|0:0,0:0:0:0:
336,176,74022,2,0,P|320:207|317:241,1,70,8|12,0:0|0:0,0:0:0:0:
376,296,74348,2,0,P|336:320|304:320,2,70,0|0|8,0:0|0:0|0:0,0:0:0:0:
256,192,74837,12,12,75979,1:2:0:0:
184,296,76305,6,0,L|112:304,2,70,10|2|8,0:0|0:0|0:0,0:0:0:0:
184,296,76794,1,2,0:0:0:0:
224,144,77120,6,0,L|296:136,2,70,2|10|2,0:0|0:0|0:0,0:0:0:0:
152,112,77609,2,0,L|80:120,1,70
216,64,78098,1,2,0:0:0:0:
160,192,78261,6,0,P|184:216|224:224,1,70,8|0,0:0|0:0,0:0:0:0:
304,232,78587,2,0,P|337:240|362:264,1,70,10|10,0:0|0:0,0:0:0:0:
296,312,78913,6,0,L|321:337,4,35,10|8|10|8|0,0:0|0:0|0:0|0:0|1:0,0:0:0:0:
304,232,79566,6,0,L|279:207,4,35,10|8|10|8|6,0:0|0:0|0:0|0:0|1:2,0:0:0:0:
408,160,80218,2,0,P|416:120|408:88,1,70,10|10,0:0|0:0,0:0:0:0:
344,128,80544,2,0,P|336:168|344:200,1,70,10|10,0:0|0:0,0:0:0:0:
440,296,81033,6,0,L|480:304,2,35,8|8|8,0:0|0:0|0:0,0:0:0:0:
408,160,81522,6,0,L|336:168,1,70,8|0,0:0|0:0,0:0:0:0:
280,120,81848,2,0,L|208:128,1,70,0|0,0:0|0:0,0:0:0:0:
144,96,82174,2,0,L|72:104,1,70,0|0,0:0|0:0,0:0:0:0:
16,192,82500,6,0,L|85:184,1,70,0|6,0:0|1:2,0:0:0:0:
256,192,82826,12,0,87962,0:0:0:0:
