osu file format v12

[General]
AudioFilename: no-rin.mp3
AudioLeadIn: 1500
PreviewTime: 54131
Countdown: 0
SampleSet: Soft
StackLeniency: 0.7
Mode: 0
LetterboxInBreaks: 0
WidescreenStoryboard: 0

[Editor]
Bookmarks: 80707,88045
DistanceSpacing: 1
BeatDivisor: 4
GridSize: 4
TimelineZoom: 1

[Metadata]
Title:Himitsu no Door kara Ai ni Kite (TV Size)
TitleUnicode:秘密の扉から会いにきて (TV Size)
Artist:Tamura Yukari
ArtistUnicode:田村ゆかり
Creator:keeeeeeko
Version:Normal
Source:No-Rin
Tags:のうりん nourin opening CloudSplash16 TKSalt TKS
BeatmapID:354358
BeatmapSetID:141664

[Difficulty]
HPDrainRate:4
CircleSize:3
OverallDifficulty:4
ApproachRate:5
SliderMultiplier:1.00000000596046
SliderTickRate:1

[Events]
//Background and Video events
Video,0,"nourin.avi"
0,0,"no^rin2.jpg",0,0
//Break Periods
//Storyboard Layer 0 (Background)
//Storyboard Layer 1 (Fail)
//Storyboard Layer 2 (Pass)
//Storyboard Layer 3 (Foreground)
//Storyboard Sound Samples
//Background Colour Transformations
3,100,163,162,255

[TimingPoints]
-651,326.086956521739,4,2,1,50,1,0
5870,-100,4,2,1,60,0,0
11088,-100,4,3,2,60,0,0
11821,-100,4,2,1,40,0,0
11984,-100,4,2,3,60,0,0
12147,-100,4,2,1,40,0,0
12392,-100,4,2,1,70,0,0
23153,-100,4,2,1,50,0,0
33098,-100,4,2,1,70,0,0
36685,-100,4,2,3,60,0,0
36767,-100,4,2,1,70,0,0
39294,-100,4,2,3,60,0,0
39376,-100,4,2,1,70,0,0
40598,-100,4,2,3,60,0,0
40680,-100,4,2,1,70,0,0
43533,-100,4,2,1,50,0,0
44348,-100,4,2,3,50,0,0
44430,-100,4,2,1,50,0,0
45979,-100,4,2,3,50,0,0
46060,-100,4,2,1,50,0,0
46957,-100,4,2,3,50,0,0
47039,-100,4,2,1,50,0,0
47528,-100,4,2,1,70,0,0
54131,-100,4,2,1,70,0,1
56251,-100,4,2,3,60,0,1
56332,-100,4,2,1,70,0,1
58859,-100,4,2,3,60,0,1
58941,-100,4,2,1,70,0,1
61468,-100,4,2,3,60,0,1
61550,-100,4,2,1,70,0,1
66685,-100,4,2,3,60,0,1
66767,-100,4,2,1,70,0,1
69294,-100,4,2,3,60,0,1
69376,-100,4,2,1,70,0,1
71903,-100,4,2,3,60,0,1
71984,-100,4,2,1,70,0,1
75001,-100,4,3,2,60,0,0
75734,-100,4,2,3,40,0,0
75897,-100,4,2,3,60,0,0
76305,-100,4,2,1,70,0,1
76631,-100,4,2,2,60,0,1
76713,-100,4,2,1,70,0,1
81033,-100,4,2,3,60,0,1
81115,-100,4,2,1,70,0,1
81278,-100,4,2,1,50,0,0
82664,-100,4,2,1,70,0,0
83479,-100,4,2,1,60,0,0
84131,-100,4,2,1,50,0,0
84783,-100,4,2,1,40,0,0
85435,-100,4,2,1,30,0,0
86088,-100,4,2,1,20,0,0
86740,-100,4,2,1,10,0,0
88044,-100,4,2,1,5,0,0

[Colours]
Combo1 : 200,134,164
Combo2 : 125,170,77
Combo3 : 238,70,150
Combo4 : 253,206,136
Combo5 : 151,213,211

[HitObjects]
100,108,653,5,2,0:0:0:0:
196,72,979,2,0,L|264:56,1,50.000000298023
296,52,1305,2,0,P|336:84|348:142,1,100.000000596046,2|0,0:1|0:0,0:0:0:0:
349,228,1957,1,2,0:0:0:0:
349,228,2120,2,0,P|303:246|255:235,1,100.000000596046,0|2,0:0|0:1,0:0:0:0:
208,148,2772,2,0,P|169:178|154:225,1,100.000000596046,0|2,0:0|0:1,0:0:0:0:
160,276,3262,6,0,P|190:314|237:329,1,100.000000596046,2|2,0:0|0:1,0:0:0:0:
328,284,3914,2,0,P|346:238|335:190,1,100.000000596046,0|2,0:0|0:1,0:0:0:0:
300,96,4566,2,0,B|228:36|160:96,1,150.000000894069,2|2,0:0|0:0,0:0:0:0:
76,140,5381,2,0,P|107:176|155:188,1,100.000000596046,0|2,0:0|0:1,0:0:0:0:
208,196,5870,5,2,0:0:0:0:
292,248,6196,1,2,0:0:0:0:
232,328,6522,2,0,L|180:352,2,50.000000298023,2|0|2,0:0|0:0|0:0,0:0:0:0:
292,248,7175,1,2,0:0:0:0:
292,248,7338,2,0,P|307:201|342:165,1,100.000000596046,2|2,0:1|0:1,0:0:0:0:
428,116,7990,2,0,P|393:82|345:67,1,100.000000596046,2|2,0:1|0:0,0:0:0:0:
296,68,8479,5,2,0:0:0:0:
220,132,8805,1,2,0:0:0:0:
192,228,9131,2,0,P|151:199|127:155,1,100.000000596046,2|2,0:0|0:0,0:0:0:0:
148,60,9783,1,2,0:0:0:0:
220,132,10109,1,2,0:0:0:0:
296,68,10435,2,0,P|315:115|310:165,1,100.000000596046,2|2,0:0|0:0,0:0:0:0:
288,260,11088,5,8,0:0:0:0:
217,331,11414,1,8,0:0:0:0:
146,261,11740,2,0,L|146:197,2,50.000000298023,8|2|4,0:0|0:0|0:0,0:0:0:0:
72,328,12392,6,0,P|29:302|1:246,2,100.000000596046,6|8|2,0:0|0:0|0:0,0:0:0:0:
166,357,13370,1,8,0:0:0:0:
234,285,13696,2,0,P|246:237|234:189,2,100.000000596046,2|8|2,0:0|0:0|0:0,0:0:0:0:
144,240,14675,1,8,0:0:0:0:
144,240,15001,6,0,P|131:191|143:143,1,100.000000596046,6|8,0:0|0:0,0:0:0:0:
228,88,15653,2,0,P|277:90|316:119,1,100.000000596046,6|8,0:0|0:0,0:0:0:0:
352,212,16305,1,6,0:0:0:0:
316,304,16631,2,0,P|279:337|231:344,1,100.000000596046,12|6,0:0|0:0,0:0:0:0:
144,292,17283,1,8,0:0:0:0:
144,292,17609,6,0,P|133:244|151:198,2,100.000000596046,6|8|2,0:0|0:0|0:0,0:0:0:0:
236,252,18588,1,8,0:0:0:0:
276,160,18914,2,0,P|317:186|336:230,1,100.000000596046,2|8,0:0|0:0,0:0:0:0:
356,328,19566,2,0,P|401:308|427:267,1,100.000000596046,2|8,0:0|0:0,0:0:0:0:
468,176,20218,6,0,L|480:124,2,50.000000298023,2|0|12,0:0|0:0|0:0,0:0:0:0:
372,156,20870,2,0,L|356:212,1,50.000000298023,2|2,0:0|0:0,0:0:0:0:
340,252,21196,1,12,0:0:0:0:
264,316,21522,2,0,P|224:288|216:236,1,100.000000596046,6|8,0:0|0:0,0:0:0:0:
248,204,22012,2,0,P|284:148|260:72,1,150.000000894069,6|8,0:0|0:0,0:0:0:0:
184,132,22827,5,6,0:0:0:0:
264,316,23479,2,0,P|212:320|160:292,1,100.000000596046,2|8,0:1|0:0,0:0:0:0:
88,240,24131,1,2,0:0:0:0:
156,168,24457,1,0,0:0:0:0:
68,120,24783,2,0,P|101:80|158:63,2,100.000000596046,2|8|2,0:0|0:0|0:0,0:0:0:0:
72,220,25762,5,0,0:0:0:0:
72,220,25925,2,0,P|128:268|204:256,1,150.000000894069,2|8,0:0|0:0,0:0:0:0:
264,180,26740,2,0,P|304:152|356:152,2,100.000000596046,2|2|2,0:1|0:1|0:1,0:0:0:0:
199,258,27718,1,8,0:0:0:0:
280,316,28044,6,0,P|328:328|376:312,1,100.000000596046,4|2,0:0|0:1,0:0:0:0:
396,268,28533,2,0,P|404:220|436:177,1,100.000000596046,2|2,0:0|0:1,0:0:0:0:
468,144,29022,1,8,0:0:0:0:
404,68,29348,2,0,P|360:36|296:40,1,100.000000596046,2|2,0:0|0:1,0:0:0:0:
272,56,29838,2,0,P|208:92|124:96,1,150.000000894069,2|8,0:0|0:0,0:0:0:0:
44,140,30653,5,2,0:0:0:0:
108,216,30979,1,2,0:1:0:0:
156,208,31142,2,0,L|328:184,1,150.000000894069,2|8,0:0|0:0,0:0:0:0:
384,124,31957,2,0,P|384:172|408:224,1,100.000000596046,2|2,0:1|0:1,0:0:0:0:
452,236,32446,2,0,P|448:304|384:348,1,150.000000894069,2|2,0:1|0:0,0:0:0:0:
284,348,33262,6,0,P|236:324|212:272,1,100.000000596046,6|8,0:0|0:0,0:0:0:0:
256,192,33914,2,0,P|230:149|186:128,2,100.000000596046,2|8|2,0:0|0:0|0:0,0:0:0:0:
160,220,34892,1,8,0:0:0:0:
64,252,35218,2,0,P|89:294|133:315,2,100.000000596046,2|8|2,0:0|0:0|0:0,0:0:0:0:
56,152,36196,5,8,0:0:0:0:
56,152,36359,2,0,P|112:100|184:104,1,150.000000894069,2|8,0:0|0:0,0:0:0:0:
276,140,37175,2,0,P|316:172|332:236,1,100.000000596046,2|8,0:1|0:0,0:0:0:0:
284,304,37827,2,0,P|244:272|228:208,1,100.000000596046,2|8,0:1|0:0,0:0:0:0:
276,140,38479,5,6,0:0:0:0:
360,84,38805,1,8,0:0:0:0:
360,84,38968,2,0,P|431:103|479:160,1,150.000000894069,2|8,0:0|0:0,0:0:0:0:
476,260,39783,2,0,P|444:296|384:300,1,100.000000596046,2|8,0:0|0:0,0:0:0:0:
356,268,40272,2,0,P|285:247|214:269,1,150.000000894069,2|8,0:0|0:0,0:0:0:0:
132,324,41088,6,0,L|72:232,1,100.000000596046,6|8,0:0|0:0,0:0:0:0:
92,140,41740,2,0,L|132:92,2,50.000000298023,2|2|8,0:0|0:0|0:0,0:0:0:0:
77,240,42392,1,6,0:0:0:0:
132,324,42718,1,8,0:0:0:0:
232,336,43044,1,6,0:0:0:0:
256,136,43696,5,4,0:0:0:0:
256,36,44022,2,0,P|304:24|352:40,2,100.000000596046,2|8|0,0:1|0:0|0:0,0:0:0:0:
168,88,45001,2,0,P|131:121|117:168,1,100.000000596046,2|0,0:0|0:0,0:0:0:0:
128,216,45490,2,0,P|185:261|258:256,1,150.000000894069,2|8,0:0|0:0,0:0:0:0:
348,212,46305,5,2,0:0:0:0:
408,132,46631,2,0,P|388:88|340:56,1,100.000000596046,2|8,0:1|0:0,0:0:0:0:
260,8,47283,2,8,L|212:36,1,50.000000298023,2|2,0:0|0:0,0:0:0:0:
200,80,47609,2,0,P|192:152|204:228,2,150.000000894069,6|6|8,0:0|0:0|0:0,0:0:0:0:
288,32,48914,5,6,0:0:0:0:
376,79,49240,1,8,0:0:0:0:
376,79,49403,2,0,P|383:153|371:227,1,150.000000894069,2|8,0:0|0:0,0:0:0:0:
304,300,50218,2,0,P|256:316|212:300,1,100.000000596046,2|8,0:0|0:0,0:0:0:0:
144,224,50870,1,2,0:0:0:0:
168,128,51196,1,8,0:0:0:0:
256,192,51522,12,4,53316,0:1:0:0:
376,52,54131,6,0,L|264:28,1,100.000000596046,6|8,0:0|0:0,0:0:0:0:
264,132,54783,2,0,L|152:156,1,100.000000596046,2|8,0:0|0:0,0:0:0:0:
96,224,55435,2,0,P|108:272|139:311,1,100.000000596046,2|8,0:0|0:0,0:0:0:0:
180,344,55925,2,0,P|256:328|328:344,1,150.000000894069,2|8,0:0|0:0,0:0:0:0:
424,348,56740,5,6,0:0:0:0:
460,256,57066,1,8,0:0:0:0:
436,160,57392,2,0,P|428:112|400:52,1,100.000000596046,6|8,0:0|0:0,0:0:0:0:
316,28,58044,2,0,P|268:36|208:64,1,100.000000596046,6|8,0:0|0:0,0:0:0:0:
188,96,58533,2,0,P|204:172|184:244,1,150.000000894069,6|8,0:0|0:0,0:0:0:0:
104,300,59348,5,6,0:0:0:0:
60,212,59675,1,8,0:0:0:0:
64,112,60001,2,0,L|112:64,2,50.000000298023,2|0|8,0:0|0:0|0:0,0:0:0:0:
60,212,60653,2,0,P|73:261|105:301,1,100.000000596046,2|8,0:0|0:0,0:0:0:0:
148,276,61142,2,0,P|212:252|288:280,1,150.000000894069,2|8,0:0|0:0,0:0:0:0:
216,352,61957,5,2,0:0:0:0:
286,279,62283,1,12,0:0:0:0:
216,208,62609,1,2,0:0:0:0:
286,137,62935,1,12,0:0:0:0:
215,66,63262,2,0,P|261:42|317:46,2,100.000000596046,2|8|2,0:0|0:0|0:0,0:0:0:0:
286,137,64240,1,8,0:0:0:0:
352,212,64566,6,0,P|306:236|250:232,1,100.000000596046,6|8,0:0|0:0,0:0:0:0:
208,148,65218,2,0,P|172:182|158:229,1,100.000000596046,2|8,0:0|0:0,0:0:0:0:
208,316,65870,2,0,P|255:329|303:317,1,100.000000596046,2|8,0:0|0:0,0:0:0:0:
348,296,66360,2,0,P|329:223|345:151,1,150.000000894069,2|8,0:0|0:0,0:0:0:0:
364,104,67012,1,0,0:0:0:0:
344,60,67175,6,0,L|244:24,1,100.000000596046,6|8,0:0|0:0,0:0:0:0:
216,120,67827,2,0,L|116:140,1,100.000000596046,6|8,0:0|0:0,0:0:0:0:
84,236,68479,2,0,L|36:224,2,50.000000298023,6|8|2,0:0|0:0|0:0,0:0:0:0:
132,252,68968,2,0,P|204:220|272:248,1,150.000000894069,6|8,0:0|0:0,0:0:0:0:
204,320,69783,5,6,0:0:0:0:
268,244,70109,1,8,0:0:0:0:
368,232,70435,2,0,P|376:180|368:132,1,100.000000596046,2|8,0:0|0:0,0:0:0:0:
364,32,71088,2,0,L|432:8,2,50.000000298023,2|0|8,0:0|0:0|0:0,0:0:0:0:
320,52,71577,2,0,P|248:40|168:56,1,150.000000894069,2|8,0:0|0:0,0:0:0:0:
76,80,72392,6,0,L|60:28,2,50.000000298023,2|2|6,0:0|0:0|0:0,0:0:0:0:
40,172,73044,2,0,L|16:236,1,50.000000298023,2|2,0:0|0:0,0:0:0:0:
8,268,73370,1,6,0:0:0:0:
84,332,73696,1,2,0:0:0:0:
180,304,74022,1,8,0:0:0:0:
276,336,74348,2,0,L|320:240,1,100.000000596046,2|8,0:0|0:0,0:0:0:0:
356,152,75001,5,8,0:0:0:0:
276,92,75327,1,8,0:0:0:0:
188,144,75653,2,0,L|152:204,1,50.000000298023,8|2,0:0|0:0,0:0:0:0:
136,228,75979,1,4,0:0:0:0:
160,324,76305,6,0,P|256:348|356:324,1,200.000001192092,6|2,0:0|0:0,0:0:0:0:
416,248,77283,1,8,0:0:0:0:
420,148,77610,2,0,P|397:95|365:63,2,100.000000596046,2|8|2,0:0|0:0|0:0,0:0:0:0:
332,200,78588,1,8,0:0:0:0:
284,288,78914,6,0,L|272:356,2,50.000000298023,2|0|12,0:0|0:0|0:0,0:0:0:0:
196,244,79566,2,0,L|184:176,1,50.000000298023,2|2,0:0|0:0,0:0:0:0:
180,144,79892,1,12,0:0:0:0:
92,96,80218,2,0,L|80:164,2,50.000000298023,2|2|8,0:0|0:0|0:0,0:0:0:0:
112,52,80707,2,0,P|184:40|260:68,1,150.000000894069,6|8,0:0|0:0,0:0:0:0:
344,112,81522,5,8,0:3:0:0:
414,182,81848,1,8,0:3:0:0:
414,282,82175,2,0,P|388:328|344:344,1,100.000000596046,2|2,0:1|0:1,0:0:0:0:
295,343,82664,1,4,0:0:0:0:
256,192,82745,12,2,88044,0:0:0:0:
