osu file format v12

[General]
AudioFilename: no-rin.mp3
AudioLeadIn: 1500
PreviewTime: 54131
Countdown: 0
SampleSet: Soft
StackLeniency: 0.7
Mode: 0
LetterboxInBreaks: 0
WidescreenStoryboard: 0

[Editor]
Bookmarks: 88045
DistanceSpacing: 1.3
BeatDivisor: 4
GridSize: 4
TimelineZoom: 2.5

[Metadata]
Title:Himitsu no Door kara Ai ni Kite (TV Size)
TitleUnicode:秘密の扉から会いにきて (TV Size)
Artist:Tamura Yukari
ArtistUnicode:田村ゆかり
Creator:keeeeeeko
Version:Insane
Source:No-Rin
Tags:のうりん nourin opening CloudSplash16 TKSalt TKS
BeatmapID:354094
BeatmapSetID:141664

[Difficulty]
HPDrainRate:7
CircleSize:4
OverallDifficulty:8
ApproachRate:9
SliderMultiplier:1.8
SliderTickRate:1

[Events]
//Background and Video events
Video,0,"nourin.avi"
0,0,"no^rin2.jpg",0,0
//Break Periods
//Storyboard Layer 0 (Background)
//Storyboard Layer 1 (Fail)
//Storyboard Layer 2 (Pass)
//Storyboard Layer 3 (Foreground)
//Storyboard Sound Samples
//Background Colour Transformations
3,100,163,162,255

[TimingPoints]
-651,326.086956521739,4,2,1,50,1,0
327,-80,4,2,1,50,0,0
653,-100,4,2,1,50,0,0
5870,-100,4,2,1,60,0,0
11088,-100,4,3,2,60,0,0
11903,-100,4,2,3,40,0,0
12066,-80,4,2,3,50,0,0
12392,-100,4,2,1,70,0,0
20544,-80,4,2,1,70,0,0
20789,-100,4,2,1,70,0,0
21196,-80,4,2,1,70,0,0
21441,-100,4,2,1,70,0,0
22827,-100,4,2,3,50,0,0
26495,-100,4,2,1,50,0,0
28207,-100,4,2,3,50,0,0
31713,-100,4,2,1,50,0,0
32446,-133.333333333333,4,2,1,50,0,0
32772,-100,4,2,1,70,0,0
43859,-133.333333333333,4,2,1,50,0,0
44348,-133.333333333333,4,2,3,50,0,0
44430,-133.333333333333,4,2,1,50,0,0
45653,-133.333333333333,4,2,3,50,0,0
45734,-133.333333333333,4,2,1,50,0,0
46957,-133.333333333333,4,2,3,50,0,0
47039,-133.333333333333,4,2,1,50,0,0
47528,-133.333333333333,4,2,1,70,0,0
48914,-100,4,2,1,70,0,0
53234,-80,4,2,1,70,0,0
53642,-100,4,2,1,70,0,0
54131,-100,4,2,1,80,0,1
62283,-80,4,2,1,80,0,1
62528,-100,4,2,1,80,0,1
62935,-80,4,2,1,80,0,1
63180,-100,4,2,1,80,0,1
72718,-80,4,2,1,80,0,1
73615,-100,4,2,1,80,0,1
75001,-100,4,3,2,60,0,0
75816,-100,4,2,3,40,0,0
75979,-80,4,2,3,60,0,0
76305,-100,4,2,1,80,0,1
79240,-80,4,2,1,80,0,1
79484,-100,4,2,1,80,0,1
79892,-80,4,2,1,80,0,1
80137,-100,4,2,1,80,0,1
81278,-100,4,2,3,50,0,0
81685,-100,4,2,1,50,0,0
82664,-100,4,2,1,70,0,0
83479,-100,4,2,1,60,0,0
84131,-100,4,2,1,50,0,0
84783,-100,4,2,1,40,0,0
85435,-100,4,2,1,30,0,0
86088,-100,4,2,1,20,0,0
86740,-100,4,2,1,10,0,0
88044,-100,4,2,1,5,0,0

[Colours]
Combo1 : 200,134,164
Combo2 : 125,170,77
Combo3 : 238,70,150
Combo4 : 253,206,136
Combo5 : 151,213,211

[HitObjects]
32,68,164,5,2,0:0:0:0:
32,68,245,1,2,0:0:0:0:
32,68,327,2,0,P|108:56|200:72,1,168.75,8|0,0:0|0:0,0:0:0:0:
272,92,653,6,0,P|264:136|272:184,1,90,2|0,0:0|0:0,0:0:0:0:
404,264,979,2,0,P|412:220|404:172,1,90
380,64,1305,1,2,0:1:0:0:
272,92,1468,1,0,0:0:0:0:
308,236,1631,2,0,P|316:280|310:325,1,90
176,252,1957,6,0,P|164:208|173:162,1,90,2|0,0:0|0:0,0:0:0:0:
224,24,2283,1,0,0:0:0:0:
244,280,2446,2,0,P|184:324|104:272,1,180,0|2,0:0|0:1,0:0:0:0:
64,108,2935,1,0,0:0:0:0:
280,132,3098,1,2,0:1:0:0:
312,144,3180,1,2,0:1:0:0:
344,158,3262,6,0,P|385:174|418:206,1,90,2|0,0:0|0:0,0:0:0:0:
412,311,3588,2,0,P|373:334|321:338,1,90
244,280,3914,2,0,P|237:237|253:190,1,90,2|0,0:1|0:0,0:0:0:0:
288,84,4240,1,0,0:0:0:0:
200,24,4403,1,0,0:0:0:0:
104,80,4566,6,0,P|67:103|20:112,2,90,2|0|0,0:0|0:0|0:0,0:0:0:0:
160,192,5055,2,0,P|156:240|171:281,1,90,2|2,0:0|0:1,0:0:0:0:
275,181,5381,2,0,P|280:136|264:92,1,90,0|0,0:0|0:0,0:0:0:0:
348,16,5707,1,2,0:0:0:0:
376,32,5789,1,2,0:0:0:0:
396,56,5870,6,0,P|416:120|396:188,1,135,2|0,0:0|0:0,0:0:0:0:
344,236,6196,2,0,P|280:252|200:244,1,135,2|0,0:0|0:0,0:0:0:0:
160,192,6522,1,2,0:0:0:0:
136,64,6685,1,0,0:0:0:0:
264,92,6848,2,0,P|272:136|276:184,1,90,2|0,0:0|0:0,0:0:0:0:
232,336,7175,6,0,P|224:292|220:244,1,90,2|0,0:0|0:0,0:0:0:0:
264,92,7501,1,2,0:0:0:0:
160,192,7664,2,0,P|115:200|71:192,1,90,0|2,0:0|0:0,0:0:0:0:
68,96,7990,1,0,0:0:0:0:
72,288,8153,2,0,P|116:296|160:288,1,90,2|2,0:0|0:0,0:0:0:0:
276,216,8479,6,0,L|264:156,3,45,2|0|0|0,0:0|0:0|0:0|0:0,0:0:0:0:
356,84,8805,2,0,L|368:136,3,45,2|0|0|0,0:0|0:0|0:0|0:0,0:0:0:0:
484,168,9131,5,2,0:0:0:0:
484,204,9213,1,0,0:0:0:0:
480,240,9294,1,2,0:0:0:0:
466,273,9376,1,0,0:0:0:0:
444,300,9457,1,2,0:0:0:0:
412,316,9539,1,0,0:0:0:0:
376,324,9620,1,2,0:0:0:0:
340,324,9702,1,0,0:0:0:0:
304,324,9783,6,0,L|236:296,3,45,2|2|2|2,0:0|0:0|0:0|0:0,0:0:0:0:
176,172,10109,2,0,L|228:196,3,45,2|2|2|2,0:0|0:0|0:0|0:0,0:0:0:0:
292,43,10435,6,0,L|292:88,1,45,2|2,0:0|0:0,0:0:0:0:
400,144,10598,2,0,L|400:208,1,45,2|2,0:0|0:0,0:0:0:0:
292,199,10762,2,0,L|292:244,1,45,2|2,0:0|0:0,0:0:0:0:
400,300,10925,2,0,L|400:364,1,45,2|2,0:0|0:0,0:0:0:0:
506,273,11088,6,0,P|510:229|506:173,1,90,8|0,0:0|0:0,0:0:0:0:
258,114,11414,2,0,P|254:158|259:203,1,90,8|0,0:0|0:0,0:0:0:0:
260,204,11658,1,8,0:0:0:0:
260,204,11740,1,0,0:0:0:0:
392,264,11903,2,0,L|364:308,1,45,2|2,0:0|0:0,0:0:0:0:
332,92,12066,6,0,P|275:38|193:70,1,168.75,4|0,0:0|0:0,0:0:0:0:
100,112,12392,6,0,P|97:156|101:201,1,90,6|0,0:0|0:0,0:0:0:0:
220,312,12718,2,0,P|224:267|222:223,1,90,8|0,0:0|0:0,0:0:0:0:
212,132,13044,1,2,0:0:0:0:
104,296,13207,2,0,P|56:292|16:273,1,90,0|8,0:0|0:0,0:0:0:0:
212,132,13533,1,2,0:0:0:0:
212,132,13615,1,2,0:0:0:0:
212,132,13696,6,0,P|260:136|299:154,1,90,2|0,0:0|0:0,0:0:0:0:
260,312,14022,2,0,P|238:274|236:225,1,90,8|0,0:0|0:0,0:0:0:0:
392,184,14349,2,0,P|368:223|328:247,1,90,2|0,0:0|0:0,0:0:0:0:
297,155,14675,1,8,0:0:0:0:
420,96,14838,1,2,0:0:0:0:
436,76,14919,1,2,0:0:0:0:
440,52,15001,6,0,P|386:29|342:30,1,90,6|0,0:0|0:0,0:0:0:0:
212,132,15327,2,0,P|252:151|296:154,1,90,8|0,0:0|0:0,0:0:0:0:
256,28,15653,1,6,0:0:0:0:
108,116,15816,1,0,0:0:0:0:
169,281,15979,2,0,P|201:233|209:189,1,90,8|0,0:0|0:0,0:0:0:0:
256,28,16305,5,6,0:0:0:0:
302,202,16468,1,0,0:0:0:0:
164,97,16631,1,12,0:0:0:0:
346,97,16794,1,0,0:0:0:0:
209,202,16957,2,0,P|169:226|121:237,1,90,6|0,0:0|0:0,0:0:0:0:
36,120,17283,1,10,0:0:0:0:
61,94,17365,1,2,0:0:0:0:
96,80,17446,1,2,0:0:0:0:
132,80,17528,1,2,0:0:0:0:
164,98,17609,6,0,P|206:103|258:103,1,90,6|0,0:0|0:0,0:0:0:0:
420,192,17935,2,0,P|380:196|328:196,1,90,8|0,0:0|0:0,0:0:0:0:
160,280,18262,2,0,P|202:285|254:285,1,90,2|0,0:0|0:0,0:0:0:0:
330,196,18588,1,8,0:0:0:0:
253,103,18751,1,0,0:0:0:0:
156,24,18914,6,0,P|133:65|120:118,1,90,2|0,0:0|0:0,0:0:0:0:
253,201,19240,2,0,P|269:157|277:93,1,90,8|0,0:0|0:0,0:0:0:0:
156,24,19566,1,2,0:0:0:0:
156,24,19647,1,2,0:0:0:0:
156,24,19729,2,0,L|156:80,1,45,2|2,0:0|0:0,0:0:0:0:
252,201,19892,1,8,0:0:0:0:
252,201,19973,1,2,0:0:0:0:
252,201,20056,2,0,L|252:156,1,45,2|2,0:0|0:0,0:0:0:0:
284,8,20218,6,0,L|344:16,3,45,2|2|2|2,0:0|0:0|0:0|0:0,0:0:0:0:
364,20,20544,6,0,P|432:52|460:140,1,168.75,6|0,0:2|0:0,0:0:0:0:
456,216,20870,6,0,L|448:276,3,45,2|2|2|2,0:0|0:0|0:0|0:0,0:0:0:0:
444,296,21196,6,0,P|408:348|300:376,1,168.75,6|2,0:2|0:0,0:0:0:0:
232,356,21522,5,8,0:0:0:0:
308,216,21685,1,2,0:0:0:0:
444,296,21848,1,2,0:0:0:0:
308,216,22012,2,0,P|208:200|136:164,1,180,6|2,0:0|0:0,0:0:0:0:
124,132,22419,1,2,0:0:0:0:
144,100,22501,1,2,0:0:0:0:
172,80,22582,1,2,0:0:0:0:
208,72,22664,1,2,0:0:0:0:
244,80,22745,1,2,0:0:0:0:
272,100,22827,6,0,P|259:188|221:269,1,180,4|0,0:1|0:0,0:0:0:0:
140,352,23316,1,2,0:0:0:0:
48,280,23479,2,0,P|40:236|40:184,1,90,2|0,0:0|0:0,0:0:0:0:
76,80,23805,1,8,0:0:0:0:
180,132,23968,2,0,P|188:176|188:228,1,90,2|0,0:0|0:0,0:0:0:0:
323,221,24294,6,0,P|323:176|332:132,1,90,2|0,0:0|0:0,0:0:0:0:
404,52,24620,1,2,0:0:0:0:
300,20,24783,2,0,P|256:12|212:20,1,90,2|0,0:0|0:0,0:0:0:0:
92,132,25109,2,0,P|136:140|180:132,1,90,8|2,0:0|0:0,0:0:0:0:
80,52,25435,6,0,P|16:112|56:204,1,180,2|0,0:0|0:0,0:0:0:0:
116,272,25925,1,2,0:0:0:0:
220,264,26088,2,0,P|208:216|168:184,1,90,2|0,0:0|0:0,0:0:0:0:
92,132,26414,1,8,0:0:0:0:
208,64,26577,1,2,0:1:0:0:
208,64,26658,1,2,0:1:0:0:
208,64,26740,6,0,P|252:60|300:64,1,90,2|2,0:1|0:0,0:0:0:0:
396,168,27066,2,0,P|352:172|304:168,1,90,2|2,0:1|0:0,0:0:0:0:
384,64,27392,1,2,0:1:0:0:
220,168,27555,1,2,0:0:0:0:
220,168,27637,1,2,0:0:0:0:
220,168,27718,2,0,P|220:212|228:264,1,90,8|2,0:0|0:1,0:0:0:0:
290,144,28044,6,0,P|220:92|152:140,1,180,4|0,0:0|0:0,0:0:0:0:
184,244,28533,1,2,0:0:0:0:
292,224,28696,2,0,P|336:216|388:216,1,90,2|0,0:0|0:0,0:0:0:0:
484,220,29022,1,8,0:0:0:0:
296,304,29185,1,2,0:0:0:0:
290,144,29348,5,0,0:0:0:0:
416,176,29512,2,0,P|419:221|419:266,1,90,2|0,0:0|0:0,0:0:0:0:
292,224,29838,1,2,0:0:0:0:
484,220,30001,2,0,P|488:264|484:316,1,90,2|0,0:0|0:0,0:0:0:0:
296,304,30327,1,8,0:0:0:0:
140,260,30490,2,0,L|102:223,1,45,2|2,0:0|0:0,0:0:0:0:
72,188,30653,6,0,P|124:116|200:68,1,180,2|0,0:0|0:0,0:0:0:0:
344,16,31142,1,2,0:0:0:0:
399,188,31305,1,2,0:0:0:0:
253,81,31468,1,0,0:0:0:0:
434,81,31631,1,8,0:0:0:0:
289,188,31794,6,0,L|232:218,1,45,2|2,0:1|0:1,0:0:0:0:
204,224,31957,2,0,P|176:188|152:132,1,90,2|2,0:1|0:1,0:0:0:0:
253,81,32283,1,2,0:1:0:0:
400,188,32446,6,0,P|434:246|446:330,1,135.000005149842,2|2,0:1|0:0,0:0:0:0:
446,311,32854,1,2,0:0:0:0:
446,311,32935,1,2,0:0:0:0:
204,224,33098,1,2,0:0:0:0:
204,224,33180,1,2,0:0:0:0:
204,224,33262,6,4,P|190:180|188:119,1,90,6|0,0:0|0:0,0:0:0:0:
284,8,33588,2,0,P|297:51|299:112,1,90,8|0,0:0|0:0,0:0:0:0:
300,212,33914,1,2,0:0:0:0:
220,64,34077,1,0,0:0:0:0:
389,211,34240,2,0,P|344:215|300:212,1,90,8|0,0:0|0:0,0:0:0:0:
130,65,34566,6,0,P|174:60|219:64,1,90,2|0,0:0|0:0,0:0:0:0:
316,88,34892,1,8,0:0:0:0:
204,224,35055,1,0,0:0:0:0:
130,65,35218,1,2,0:0:0:0:
204,224,35381,1,0,0:0:0:0:
220,64,35544,1,8,0:0:0:0:
300,212,35707,1,0,0:0:0:0:
120,188,35870,6,0,P|81:104|121:35,1,180,2|8,0:0|0:0,0:0:0:0:
204,224,36359,2,0,P|127:275|52:246,1,180,2|2,0:0|0:0,0:0:0:0:
4,60,36848,1,8,0:0:0:0:
160,100,37012,1,2,0:1:0:0:
192,120,37093,1,2,0:1:0:0:
224,140,37175,6,0,L|320:196,1,90,2|2,0:1|0:0,0:0:0:0:
204,248,37501,1,8,0:0:0:0:
316,80,37664,2,0,L|412:136,1,90,2|2,0:0|0:1,0:0:0:0:
204,248,37990,2,0,L|126:202,2,90,2|8|2,0:0|0:0|0:0,0:0:0:0:
352,284,38479,6,0,P|368:196|292:156,1,180,6|8,0:0|0:0,0:0:0:0:
204,248,38968,1,0,0:0:0:0:
310,340,39131,2,0,P|350:356|394:340,1,90,2|0,0:0|0:0,0:0:0:0:
504,128,39457,1,8,0:0:0:0:
504,128,39783,6,0,P|440:68|344:44,1,180,2|8,0:0|0:0,0:0:0:0:
180,72,40272,1,0,0:0:0:0:
96,160,40435,1,2,0:0:0:0:
180,248,40598,1,0,0:0:0:0:
308,140,40762,2,0,P|311:95|307:50,1,90,8|0,0:0|0:0,0:0:0:0:
179,158,41088,6,0,P|175:202|179:247,1,90,6|0,0:0|0:0,0:0:0:0:
180,72,41414,2,0,P|135:68|90:72,1,90,8|0,0:0|0:0,0:0:0:0:
304,232,41740,2,0,P|348:236|393:232,1,90,6|2,0:0|0:0,0:0:0:0:
308,55,42066,1,8,0:0:0:0:
176,248,42229,2,8,L|112:280,1,45
84,260,42392,6,8,P|80:216|96:168,1,90,12|8,0:0|0:0,0:0:0:0:
384,64,42718,2,8,P|388:108|372:156,1,90,12|8,0:0|0:0,0:0:0:0:
256,312,43044,5,12,0:0:0:0:
224,312,43207,1,4,0:3:0:0:
192,312,43370,1,4,0:3:0:0:
160,312,43533,1,2,0:0:0:0:
128,312,43696,1,6,0:0:0:0:
40,192,44022,6,0,P|44:160|56:116,1,67.5000025749208,2|2,0:1|0:0,0:0:0:0:
164,136,44348,2,0,P|160:104|148:60,1,67.5000025749208,8|0,0:0|0:0,0:0:0:0:
68,28,44675,1,2,0:1:0:0:
40,192,44838,1,2,0:0:0:0:
164,136,45001,6,0,P|200:132|248:112,1,67.5000025749208,2|2,0:1|0:0,0:0:0:0:
68,28,45327,1,0,0:0:0:0:
132,228,45490,2,0,P|164:228|204:216,1,67.5000025749208,2|8,0:0|0:0,0:0:0:0:
40,192,45816,1,2,0:0:0:0:
68,320,45979,1,2,0:1:0:0:
108,340,46060,1,2,0:0:0:0:
148,352,46142,2,0,P|183:362|235:366,1,67.5000025749208,2|2,0:0|0:0,0:0:0:0:
220,372,46631,6,0,P|272:360|324:336,1,101.250003862381,2|2,0:1|0:0,0:0:0:0:
344,316,46957,2,0,P|320:288|308:248,1,67.5000025749208,8|0,0:0|0:0,0:0:0:0:
364,160,47283,2,0,P|388:188|400:228,1,67.5000025749208,2|2,0:1|0:0,0:0:0:0:
344,316,47609,5,6,0:0:0:0:
364,160,47772,1,2,0:0:0:0:
240,64,47935,1,2,0:0:0:0:
84,84,48098,2,0,P|60:144|64:220,1,135.000005149842,6|0,0:0|0:0,0:0:0:0:
62,213,48506,1,8,3:0:0:0:
62,213,48588,1,2,0:0:0:0:
136,352,48751,2,0,L|188:320,1,33.7500012874604,2|2,0:0|0:0,0:0:0:0:
216,292,48914,6,0,P|188:252|184:208,1,90,6|0,0:0|0:0,0:0:0:0:
212,104,49240,1,8,0:0:0:0:
312,56,49403,2,0,P|384:96|376:208,1,180,2|2,0:0|0:0,0:0:0:0:
328,336,49892,1,8,0:0:0:0:
216,292,50055,1,2,0:0:0:0:
112,192,50218,6,0,P|104:148|112:92,1,90,2|0,0:0|0:0,0:0:0:0:
214,203,50544,2,0,P|222:247|214:303,1,90,8|0,0:0|0:0,0:0:0:0:
212,104,50870,2,0,P|256:96|312:104,1,90,2|0,0:0|0:0,0:0:0:0:
456,136,51196,2,0,L|456:168,7,22.5,8|0|0|0|0|0|0|0,0:0|0:0|0:0|0:0|0:0|0:0|0:0|0:0,0:0:0:0:
448,124,51522,6,0,P|374:69|295:108,1,180,2|8,0:0|0:0,0:0:0:0:
214,203,52012,1,0,0:0:0:0:
288,288,52175,1,2,0:0:0:0:
288,288,52256,1,0,0:0:0:0:
288,288,52338,2,0,L|276:356,1,45,8|0,0:0|0:0,0:0:0:0:
377,194,52501,1,2,0:0:0:0:
377,194,52582,1,0,0:0:0:0:
377,194,52664,2,0,L|365:126,1,45,8|0,0:0|0:0,0:0:0:0:
352,36,52827,5,6,0:0:0:0:
384,232,52990,1,6,0:0:0:0:
476,116,53153,1,6,0:0:0:0:
288,288,53316,6,0,P|196:288|124:236,1,168.75,6|2,0:0|0:1,0:0:0:0:
104,216,53642,1,2,0:0:0:0:
76,182,53723,1,2,0:0:0:0:
70,138,53805,1,8,0:0:0:0:
90,98,53887,1,2,0:0:0:0:
130,77,53968,1,2,0:0:0:0:
174,83,54050,1,2,0:0:0:0:
212,104,54131,6,0,P|244:128|273:181,1,90,6|0,0:0|0:0,0:0:0:0:
231,312,54457,2,0,P|198:287|169:234,1,90,8|0,0:0|0:0,0:0:0:0:
144,152,54783,2,0,P|105:174|77:209,1,90,2|0,0:0|0:0,0:0:0:0:
288,276,55109,2,0,P|326:253|354:218,1,90,8|0,0:0|0:0,0:0:0:0:
256,188,55435,5,2,0:0:0:0:
116,276,55598,1,0,0:0:0:0:
144,152,55762,1,8,0:0:0:0:
232,312,55925,2,0,L|316:356,1,90,0|2,0:0|0:0,0:0:0:0:
416,312,56251,1,0,0:0:0:0:
400,212,56414,2,0,L|320:170,1,90,8|2,0:0|0:0,0:0:0:0:
280,148,56658,1,2,0:0:0:0:
240,124,56740,5,6,0:0:0:0:
65,45,56903,1,0,0:0:0:0:
152,206,57066,1,8,0:0:0:0:
182,17,57229,1,0,0:0:0:0:
48,156,57392,2,0,P|38:197|42:253,1,90,6|0,0:0|0:0,0:0:0:0:
152,352,57718,2,0,P|164:304|158:255,1,90,8|0,0:0|0:0,0:0:0:0:
48,156,58044,5,6,0:0:0:0:
182,16,58207,1,2,0:0:0:0:
65,45,58370,1,8,0:0:0:0:
280,148,58533,2,0,P|364:192|416:236,1,135,6|0,0:0|0:0,0:0:0:0:
428,248,58859,1,2,0:0:0:0:
444,288,58941,1,2,0:0:0:0:
436,332,59022,1,10,0:0:0:0:
404,364,59104,1,2,0:0:0:0:
360,372,59185,1,2,0:0:0:0:
320,352,59267,1,2,0:0:0:0:
280,328,59348,6,0,P|230:278|246:182,1,135,6|0,0:0|0:0,0:0:0:0:
250,136,59675,2,0,P|299:185|283:281,1,135,8|0,0:0|0:0,0:0:0:0:
227,217,60001,1,2,0:0:0:0:
372,300,60164,1,0,0:0:0:0:
372,144,60327,1,8,0:0:0:0:
250,47,60490,1,0,0:0:0:0:
250,47,60571,1,0,0:0:0:0:
250,47,60653,6,0,L|136:80,1,90,2|0,0:0|0:0,0:0:0:0:
56,112,60979,1,8,0:0:0:0:
140,192,61142,2,0,L|226:217,1,90,0|2,0:0|0:0,0:0:0:0:
336,248,61468,1,0,0:0:0:0:
212,324,61631,1,8,0:0:0:0:
256,156,61794,1,0,0:0:0:0:
364,32,61957,5,2,0:0:0:0:
392,68,62039,1,2,0:0:0:0:
404,112,62120,1,2,0:0:0:0:
408,156,62202,1,2,0:0:0:0:
408,200,62283,2,0,P|396:280|332:356,1,168.75,6|0,0:0|0:0,0:0:0:0:
256,288,62609,6,0,L|240:224,1,45,2|2,0:0|0:0,0:0:0:0:
284,156,62772,2,0,L|294:112,1,45,2|2,0:0|0:0,0:0:0:0:
364,32,62935,2,0,P|288:0|215:37,1,168.75,6|0,0:0|0:0,0:0:0:0:
109,145,63262,5,8,0:0:0:0:
266,194,63425,1,8,0:0:0:0:
216,37,63588,1,8,0:0:0:0:
61,82,63751,2,0,P|27:160|87:220,1,180,6|0,0:0|0:0,0:0:0:0:
293,95,64240,1,8,0:0:0:0:
216,304,64403,1,2,0:0:0:0:
216,304,64484,1,2,0:0:0:0:
216,304,64566,6,0,P|260:288|304:248,1,90,6|0,0:0|0:0,0:0:0:0:
371,53,64892,2,0,P|328:67|293:95,1,90,8|0,0:0|0:0,0:0:0:0:
232,200,65218,1,2,0:0:0:0:
312,304,65381,1,0,0:0:0:0:
420,264,65544,2,0,L|434:175,1,90,8|0,0:0|0:0,0:0:0:0:
371,53,65870,5,2,0:0:0:0:
236,76,66033,1,0,0:0:0:0:
328,176,66196,1,8,0:0:0:0:
220,256,66359,2,0,L|116:232,1,90,0|2,0:0|0:0,0:0:0:0:
36,100,66685,2,0,L|123:79,1,90,0|8,0:0|0:0,0:0:0:0:
220,256,67012,1,2,0:0:0:0:
220,256,67093,1,2,0:0:0:0:
220,256,67175,6,0,P|267:266|320:251,1,90,6|0,0:0|0:0,0:0:0:0:
472,144,67501,2,0,P|424:133|371:148,1,90,8|0,0:0|0:0,0:0:0:0:
243,179,67827,1,6,0:0:0:0:
424,216,67990,1,0,0:0:0:0:
245,91,68153,1,8,0:0:0:0:
423,304,68316,1,0,0:0:0:0:
423,304,68397,1,0,0:0:0:0:
423,304,68479,6,0,P|433:256|418:203,1,90,6|0,0:0|0:0,0:0:0:0:
340,20,68805,1,8,0:0:0:0:
284,268,68968,2,0,P|204:264|148:188,1,180,6|2,0:0|0:0,0:0:0:0:
245,91,69457,1,8,0:0:0:0:
284,268,69620,1,2,0:0:0:0:
284,268,69702,1,2,0:0:0:0:
284,268,69783,6,0,P|332:312|408:352,1,135,6|0,0:0|0:0,0:0:0:0:
487,293,70109,2,0,P|479:225|443:141,1,135,8|0,0:0|0:0,0:0:0:0:
444,80,70435,2,0,P|396:104|372:148,1,90,2|0,0:0|0:0,0:0:0:0:
396,244,70762,1,8,0:0:0:0:
333,341,70925,1,0,0:0:0:0:
333,341,71006,1,0,0:0:0:0:
333,341,71088,6,0,P|302:309|284:267,1,90,2|0,0:0|0:0,0:0:0:0:
324,136,71414,1,8,0:0:0:0:
444,80,71577,2,0,P|475:112|492:153,1,90,0|2,0:0|0:0,0:0:0:0:
424,276,71903,2,0,P|393:243|377:201,1,90,0|8,0:0|0:0,0:0:0:0:
368,68,72229,1,0,0:0:0:0:
248,108,72392,6,0,L|232:160,1,45,2|2,0:0|0:0,0:0:0:0:
184,232,72555,2,0,L|197:275,1,45,2|2,0:0|0:0,0:0:0:0:
256,352,72718,2,0,P|188:368|124:276,1,168.75,6|0,0:0|0:0,0:0:0:0:
108,260,73044,5,2,0:0:0:0:
96,216,73126,1,2,0:0:0:0:
96,168,73207,1,2,0:0:0:0:
108,124,73289,1,2,0:0:0:0:
124,80,73370,2,0,P|174:32|276:79,1,168.75,6|0,0:0|0:0,0:0:0:0:
320,124,73696,5,8,0:0:0:0:
420,275,73859,1,2,0:0:0:0:
420,76,74022,1,8,0:0:0:0:
320,228,74185,1,2,0:0:0:0:
512,124,74348,2,0,P|504:168|476:204,1,90,0|2,0:0|0:0,0:0:0:0:
292,296,74675,1,8,0:0:0:0:
268,296,74756,1,2,0:0:0:0:
245,296,74838,1,2,0:0:0:0:
222,296,74919,1,2,0:0:0:0:
199,296,75001,5,8,0:0:0:0:
96,220,75164,2,0,L|64:184,2,45,0|0|8,0:0|0:0|0:0,0:0:0:0:
242,144,75490,1,0,0:0:0:0:
242,144,75571,1,8,0:0:0:0:
242,144,75653,1,0,0:0:0:0:
376,296,75816,2,0,L|348:340,1,45,2|2,0:0|0:0,0:0:0:0:
316,124,75979,6,0,P|259:70|177:102,1,168.75,4|0,0:0|0:0,0:0:0:0:
96,220,76305,6,8,P|88:268|96:312,1,90,6|0,0:0|0:0,0:0:0:0:
240,232,76631,2,8,P|248:184|240:140,1,90,8|0,0:0|0:0,0:0:0:0:
200,20,76957,1,2,0:0:0:0:
136,108,77120,1,0,0:0:0:0:
292,80,77283,1,8,0:0:0:0:
240,232,77446,1,0,0:0:0:0:
420,100,77609,6,0,L|440:212,1,90,2|0,0:0|0:0,0:0:0:0:
332,172,77935,2,0,L|347:260,1,90,8|0,0:0|0:0,0:0:0:0:
240,232,78262,1,2,0:0:0:0:
216,116,78425,1,2,0:0:0:0:
192,88,78506,1,2,0:0:0:0:
160,68,78588,1,8,0:0:0:0:
124,60,78669,1,2,0:0:0:0:
88,68,78751,1,2,0:0:0:0:
60,88,78832,1,2,0:0:0:0:
40,120,78914,6,0,L|40:188,3,45,2|2|2|2,0:0|0:0|0:0|0:0,0:0:0:0:
40,236,79240,2,0,P|108:288|204:280,1,168.75,6|0,0:0|0:0,0:0:0:0:
296,224,79566,6,0,L|296:164,1,45,2|2,0:0|0:0,0:0:0:0:
472,120,79729,2,0,L|472:188,1,45,2|2,0:0|0:0,0:0:0:0:
472,236,79892,2,0,P|404:288|308:280,1,168.75,6|2,0:0|0:0,0:0:0:0:
256,244,80218,5,8,0:0:0:0:
124,136,80381,1,8,0:0:0:0:
288,72,80544,1,8,0:0:0:0:
188,286,80707,2,0,P|105:287|36:224,1,180,6|0,0:0|0:0,0:0:0:0:
36,224,81115,1,2,0:0:0:0:
36,224,81196,1,10,0:0:0:0:
48,84,81359,6,8,L|48:32,2,45,8|8|8,0:0|0:0|0:0,0:0:0:0:
256,88,81685,2,8,L|256:140,2,45,8|8|8,3:0|3:0|3:0,3:0:0:0:
468,84,82012,5,8,3:0:0:0:
468,116,82093,1,8,3:0:0:0:
468,148,82175,1,8,3:0:0:0:
468,180,82256,1,8,3:0:0:0:
468,212,82338,1,8,3:0:0:0:
460,244,82419,1,8,3:0:0:0:
444,272,82501,1,2,0:0:0:0:
420,296,82582,1,2,0:0:0:0:
392,312,82664,1,6,0:0:0:0:
256,192,82745,12,2,88044,0:0:0:0:
