osu file format v12

[General]
AudioFilename: no-rin.mp3
AudioLeadIn: 1500
PreviewTime: 54131
Countdown: 0
SampleSet: Soft
StackLeniency: 0.7
Mode: 0
LetterboxInBreaks: 0
WidescreenStoryboard: 0

[Editor]
Bookmarks: 88045
DistanceSpacing: 1.2
BeatDivisor: 4
GridSize: 4
TimelineZoom: 1.6

[Metadata]
Title:Himitsu no Door kara Ai ni Kite (TV Size)
TitleUnicode:秘密の扉から会いにきて (TV Size)
Artist:Tamura Yukari
ArtistUnicode:田村ゆかり
Creator:keeeeeeko
Version:Hard
Source:No-Rin
Tags:のうりん nourin opening CloudSplash16 TKSalt TKS
BeatmapID:356345
BeatmapSetID:141664

[Difficulty]
HPDrainRate:6
CircleSize:4
OverallDifficulty:7
ApproachRate:8
SliderMultiplier:1.50000000596046
SliderTickRate:1

[Events]
//Background and Video events
Video,0,"nourin.avi"
0,0,"no^rin2.jpg",0,0
//Break Periods
//Storyboard Layer 0 (Background)
//Storyboard Layer 1 (Fail)
//Storyboard Layer 2 (Pass)
//Storyboard Layer 3 (Foreground)
//Storyboard Sound Samples
//Background Colour Transformations
3,100,163,162,255

[TimingPoints]
-651,326.086956521739,4,2,1,50,1,0
5870,-100,4,2,1,60,0,0
11088,-100,4,3,2,60,0,0
11903,-100,4,2,3,40,0,0
12066,-100,4,2,3,50,0,0
12392,-100,4,2,1,70,0,0
22827,-100,4,2,3,50,0,0
26495,-100,4,2,1,50,0,0
28126,-100,4,2,3,50,0,0
31713,-100,4,2,1,50,0,0
33262,-100,4,2,1,70,0,0
43859,-133.333333333333,4,2,1,50,0,0
44348,-133.333333333333,4,2,3,50,0,0
44430,-133.333333333333,4,2,1,50,0,0
45653,-133.333333333333,4,2,3,50,0,0
45734,-133.333333333333,4,2,1,50,0,0
46957,-133.333333333333,4,2,3,50,0,0
47039,-133.333333333333,4,2,1,50,0,0
47528,-133.333333333333,4,2,1,70,0,0
48914,-100,4,2,1,70,0,0
54131,-100,4,2,1,70,0,1
75001,-100,4,3,2,60,0,0
75816,-100,4,2,3,40,0,0
75979,-100,4,2,3,60,0,0
76305,-100,4,2,1,70,0,1
81278,-100,4,2,3,50,0,0
81767,-100,4,2,1,50,0,0
82664,-100,4,2,1,70,0,0
83479,-100,4,2,1,60,0,0
84131,-100,4,2,1,50,0,0
84783,-100,4,2,1,40,0,0
85435,-100,4,2,1,30,0,0
86088,-100,4,2,1,20,0,0
86740,-100,4,2,1,10,0,0
88044,-100,4,2,1,5,0,0

[Colours]
Combo1 : 200,134,164
Combo2 : 125,170,77
Combo3 : 238,70,150
Combo4 : 253,206,136
Combo5 : 151,213,211

[HitObjects]
256,192,164,6,0,L|256:152,2,37.5000001490115,2|2|10,0:0|0:0|0:0,0:0:0:0:
256,192,653,6,0,P|180:204|104:192,1,150.000000596046,2|0,0:0|0:0,0:0:0:0:
68,120,1142,1,0,0:0:0:0:
104,44,1305,2,0,P|180:32|252:40,1,150.000000596046,2|0,0:1|0:0,0:0:0:0:
404,104,1957,6,0,P|440:96|480:72,2,75.000000298023,2|0|0,0:0|0:0|0:0,0:0:0:0:
336,148,2446,2,0,P|360:212|372:296,1,150.000000596046,2|0,0:1|0:0,0:0:0:0:
328,364,2935,1,0,0:0:0:0:
252,332,3098,1,0,0:0:0:0:
172,360,3262,6,0,P|108:332|52:272,1,150.000000596046,2|0,0:0|0:0,0:0:0:0:
48,108,3914,2,0,P|112:136|168:196,1,150.000000596046,2|0,0:1|0:0,0:0:0:0:
208,264,4403,1,0,0:0:0:0:
252,332,4566,6,0,P|284:350|321:358,2,75.000000298023,2|0|0,0:0|0:0|0:0,0:0:0:0:
208,264,5055,2,0,P|232:200|244:116,1,150.000000596046,2|0,0:0|0:0,0:0:0:0:
204,48,5544,1,2,0:1:0:0:
128,76,5707,1,2,0:0:0:0:
104,156,5870,6,0,P|108:192|128:244,1,75.000000298023,2|0,0:0|0:0,0:0:0:0:
164,300,6196,2,0,P|234:325|308:335,1,150.000000596046,2|2,0:0|0:0,0:0:0:0:
392,332,6685,1,0,0:0:0:0:
424,256,6848,1,2,0:0:0:0:
392,180,7012,1,0,0:0:0:0:
424,104,7175,6,0,P|440:64|444:28,2,75.000000298023,2|0|2,0:0|0:0|0:0,0:0:0:0:
392,180,7664,2,0,P|320:204|240:200,1,150.000000596046,0|0,0:0|0:0,0:0:0:0:
164,188,8153,2,0,P|184:148|208:128,1,75.000000298023,2|2,0:0|0:0,0:0:0:0:
236,52,8479,6,0,P|161:49|90:73,2,150.000000596046,2|2|2,0:0|0:0|0:0,0:0:0:0:
316,76,9294,1,2,0:0:0:0:
368,140,9457,1,2,0:0:0:0:
344,220,9620,1,2,0:0:0:0:
264,240,9783,6,0,P|208:216|168:176,1,112.500000447034,2|0,0:0|0:0,0:0:0:0:
136,156,10109,2,0,P|104:224|96:300,1,150.000000596046,2|0,0:0|0:0,0:0:0:0:
148,360,10598,1,2,0:0:0:0:
224,328,10762,1,2,0:0:0:0:
276,264,10925,1,2,0:0:0:0:
307,187,11088,6,0,P|311:151|303:107,1,75.000000298023,8|0,0:0|0:0,0:0:0:0:
166,85,11414,2,0,P|160:122|164:160,1,75.000000298023,8|0,0:0|0:0,0:0:0:0:
200,232,11740,1,8,0:0:0:0:
276,264,11903,2,0,L|332:292,1,37.5000001490115,2|2,0:0|0:0,0:0:0:0:
348,292,12066,2,0,P|376:260|400:208,1,75.000000298023,4|0,0:0|0:0,0:0:0:0:
444,144,12392,5,6,0:0:0:0:
392,64,12555,1,0,0:0:0:0:
308,32,12718,2,0,L|248:96,1,75.000000298023,8|0,0:0|0:0,0:0:0:0:
336,132,13044,2,0,L|324:212,1,75.000000298023,2|0,0:0|0:0,0:0:0:0:
348,292,13370,1,8,0:0:0:0:
348,292,13533,1,0,0:0:0:0:
271,340,13696,6,0,P|234:344|197:340,1,75.000000298023,2|0,0:0|0:0,0:0:0:0:
120,292,14022,1,8,0:0:0:0:
120,292,14185,1,0,0:0:0:0:
40,252,14348,2,0,P|35:214|39:177,1,75.000000298023,2|0,0:0|0:0,0:0:0:0:
52,88,14675,1,8,0:0:0:0:
140,88,14838,1,2,0:0:0:0:
140,88,14919,1,2,0:0:0:0:
140,88,15001,6,0,P|176:72|216:64,1,75.000000298023,6|0,0:0|0:0,0:0:0:0:
276,128,15327,2,0,P|240:144|200:152,1,75.000000298023,8|0,0:0|0:0,0:0:0:0:
264,220,15653,2,0,P|300:204|340:196,1,75.000000298023,6|0,0:0|0:0,0:0:0:0:
400,260,15979,2,0,P|364:276|324:284,1,75.000000298023,8|0,0:0|0:0,0:0:0:0:
264,220,16305,5,6,0:0:0:0:
276,128,16468,1,0,0:0:0:0:
210,64,16631,2,0,P|174:72|140:88,1,75.000000298023,12|0,0:0|0:0,0:0:0:0:
116,176,16957,2,0,P|142:202|173:223,1,75.000000298023,6|2,0:0|0:0,0:0:0:0:
264,220,17283,1,12,0:0:0:0:
296,32,17609,5,6,0:0:0:0:
364,92,17772,2,0,P|392:116|416:148,1,75.000000298023,0|8,0:0|0:0,0:0:0:0:
380,228,18098,2,0,P|352:204|328:172,1,75.000000298023,0|2,0:0|0:0,0:0:0:0:
364,92,18425,1,0,0:0:0:0:
296,32,18588,2,0,P|260:44|224:68,1,75.000000298023,8|0,0:0|0:0,0:0:0:0:
172,132,18914,6,0,P|144:152|96:176,1,75.000000298023,2|0,0:0|0:0,0:0:0:0:
84,256,19240,1,8,0:0:0:0:
152,312,19403,1,0,0:0:0:0:
240,288,19566,1,2,0:0:0:0:
320,332,19729,1,2,0:0:0:0:
405,303,19892,2,0,P|427:273|433:234,1,75.000000298023,8|2,0:0|0:0,0:0:0:0:
420,152,20218,5,2,0:0:0:0:
376,76,20381,1,2,0:0:0:0:
332,152,20544,2,0,P|332:189|336:226,1,75.000000298023,6|0,0:0|0:0,0:0:0:0:
384,304,20870,6,0,L|352:344,3,37.5000001490115,2|2|2|2,0:0|0:0|0:0|0:0,0:0:0:0:
320,356,21196,2,0,P|288:364|244:364,1,75.000000298023,6|0,0:0|0:0,0:0:0:0:
168,316,21522,5,6,0:0:0:0:
224,244,21685,2,0,P|260:228|312:220,1,75.000000298023,2|8,0:0|0:0,0:0:0:0:
380,192,22012,2,0,P|352:112|284:88,1,150.000000596046,6|2,0:0|0:0,0:0:0:0:
208,76,22501,1,8,0:0:0:0:
300,168,22664,1,2,0:0:0:0:
300,168,22745,1,2,0:0:0:0:
300,168,22827,6,0,P|252:224|188:264,1,150.000000596046,4|0,0:1|0:0,0:0:0:0:
96,260,23316,1,2,0:0:0:0:
96,172,23479,2,0,P|144:116|208:76,1,150.000000596046,2|8,0:0|0:0,0:0:0:0:
296,60,23968,1,2,0:0:0:0:
384,84,24131,1,0,0:0:0:0:
384,172,24294,6,0,P|347:239|260:240,1,150.000000596046,2|2,0:0|0:0,0:0:0:0:
228,176,24783,2,0,P|197:202|185:246,1,75.000000298023,2|0,0:0|0:0,0:0:0:0:
216,320,25109,2,0,P|251:339|296:335,1,75.000000298023,8|0,0:0|0:0,0:0:0:0:
280,248,25435,6,0,P|303:219|317:184,1,75.000000298023,2|0,0:0|0:0,0:0:0:0:
332,96,25762,1,0,0:0:0:0:
332,8,25925,2,0,P|268:40|248:128,1,150.000000596046,2|0,0:0|0:0,0:0:0:0:
256,196,26414,1,8,0:0:0:0:
316,264,26577,6,0,P|260:312|184:316,2,150.000000596046,2|2|2,0:1|0:1|0:1,0:0:0:0:
256,196,27392,1,2,0:1:0:0:
176,240,27555,2,0,P|165:204|165:166,2,75.000000298023,2|8|2,0:0|0:0|0:0,0:1:0:0:
244,108,28044,6,0,P|308:124|356:192,1,150.000000596046,6|0,0:0|0:0,0:0:0:0:
366,280,28533,2,0,P|296:257|256:196,1,150.000000596046,2|0,0:0|0:0,0:0:0:0:
244,108,29022,1,8,0:0:0:0:
452,256,29348,6,0,P|452:216|448:168,2,75.000000298023,0|2|0,0:0|0:0|0:0,0:0:0:0:
366,280,29838,2,0,P|296:257|256:196,1,150.000000596046,2|0,0:0|0:0,0:0:0:0:
244,108,30327,1,8,0:0:0:0:
296,28,30490,1,2,0:0:0:0:
384,40,30653,6,0,P|388:108|380:196,1,150.000000596046,2|0,0:0|0:0,0:0:0:0:
366,280,31142,1,2,0:0:0:0:
312,352,31305,2,0,P|276:356|236:352,1,75.000000298023,2|0,0:0|0:0,0:0:0:0:
152,324,31631,1,8,0:0:0:0:
104,248,31794,1,2,0:1:0:0:
104,248,31876,1,2,0:1:0:0:
104,248,31957,6,0,P|100:212|104:164,1,75.000000298023,2|2,0:1|0:1,0:0:0:0:
128,88,32283,1,2,0:1:0:0:
200,36,32446,2,0,P|268:68|324:120,1,150.000000596046,2|2,0:1|0:0,0:0:0:0:
364,196,32935,1,2,0:0:0:0:
352,284,33098,2,0,L|320:332,1,37.5000001490115,2|2,0:0|0:0,0:0:0:0:
304,352,33262,6,0,P|268:332|232:304,1,75.000000298023,6|0,0:0|0:0,0:0:0:0:
180,244,33588,2,0,P|168:204|163:159,1,75.000000298023,8|0,0:0|0:0,0:0:0:0:
156,80,33914,2,0,P|241:119|252:191,1,150.000000596046,2|8,0:0|0:0,0:0:0:0:
264,257,34403,1,0,0:0:0:0:
305,336,34566,6,0,P|344:335|382:314,1,75.000000298023,2|0,0:0|0:0,0:0:0:0:
408,236,34892,1,8,0:0:0:0:
380,152,35055,1,0,0:0:0:0:
316,92,35218,2,0,P|284:72|244:56,1,75.000000298023,2|0,0:0|0:0,0:0:0:0:
132,88,35544,2,0,P|164:108|204:124,1,75.000000298023,8|0,0:0|0:0,0:0:0:0:
300,192,35870,6,0,P|285:226|265:258,1,75.000000298023,2|0,0:0|0:0,0:0:0:0:
176,272,36196,1,8,0:0:0:0:
84,260,36359,2,0,P|64:184|64:112,1,150.000000596046,2|2,0:0|0:0,0:0:0:0:
76,24,36848,1,8,0:0:0:0:
160,52,37012,1,2,0:1:0:0:
200,132,37175,6,0,P|220:204|256:272,1,150.000000596046,2|8,0:1|0:0,0:0:0:0:
428,220,37827,2,0,P|408:148|372:80,1,150.000000596046,2|8,0:1|0:0,0:0:0:0:
200,132,38479,6,0,P|192:168|196:208,2,75.000000298023,6|0|8,0:0|0:0|0:0,0:0:0:0:
220,44,38968,2,0,P|294:33|368:39,1,150.000000596046,2|2,0:0|0:0,0:0:0:0:
368,39,39457,1,8,0:0:0:0:
456,196,39783,6,0,P|440:260|370:301,1,150.000000596046,2|8,0:0|0:0,0:0:0:0:
282,316,40272,2,0,P|305:246|374:211,1,150.000000596046,2|2,0:0|0:0,0:0:0:0:
456,196,40762,2,0,P|460:160|456:120,1,75.000000298023,8|0,0:0|0:0,0:0:0:0:
436,32,41088,5,6,0:0:0:0:
356,72,41251,1,0,0:0:0:0:
356,160,41414,2,0,P|352:196|356:236,1,75.000000298023,8|0,0:0|0:0,0:0:0:0:
364,324,41740,2,0,P|326:327|289:323,1,75.000000298023,2|2,0:0|0:0,0:0:0:0:
204,300,42066,1,8,0:0:0:0:
144,236,42229,2,0,L|132:176,1,37.5000001490115,10|10,0:0|0:0,0:0:0:0:
132,156,42392,6,12,P|172:152|220:156,1,75.000000298023,12|8,0:0|0:0,0:0:0:0:
380,228,42718,2,0,P|340:232|292:228,1,75.000000298023,12|8,0:0|0:0,0:0:0:0:
215,230,43044,1,12,0:0:0:0:
136,188,43207,2,0,P|104:164|84:128,2,75.000000298023,4|4|2,0:3|0:3|0:0,0:0:0:0:
215,230,43696,1,6,0:0:0:0:
380,228,44022,6,0,P|384:168|380:100,2,112.500004738569,2|8|2,0:1|0:0|0:1,0:0:0:0:
356,297,44838,1,2,0:0:0:0:
296,339,45001,2,0,P|266:334|228:323,1,56.2500023692846,2|2,0:1|0:0,0:0:0:0:
175,294,45327,1,0,0:0:0:0:
134,233,45490,2,0,P|124:204|116:165,2,56.2500023692846,2|8|2,0:0|0:0|0:0,0:0:0:0:
175,294,45979,1,2,0:1:0:0:
241,327,46142,2,0,P|268:334|296:339,1,56.2500023692846,2|2,0:0|0:0,0:0:0:0:
392,236,46631,6,0,P|400:192|400:152,1,84.3750035539268,2|2,0:1|0:0,0:0:0:0:
396,115,46957,2,0,P|348:111|284:115,1,112.500004738569,8|2,0:0|0:1,0:0:0:0:
212,136,47446,1,2,0:0:0:0:
152,188,47609,1,4,0:0:0:0:
152,266,47772,1,4,0:0:0:0:
207,321,47935,1,4,0:0:0:0:
285,321,48098,2,0,P|333:325|400:316,1,112.500004738569,4|8,0:0|0:0,0:0:0:0:
472,292,48588,1,2,0:0:0:0:
492,216,48751,1,2,0:0:0:0:
480,128,48914,6,0,P|412:88|340:104,1,150.000000596046,6|8,0:0|0:0,0:0:0:0:
264,140,49403,2,0,P|332:180|404:164,1,150.000000596046,2|2,0:0|0:0,0:0:0:0:
480,128,49892,1,8,0:0:0:0:
444,48,50055,1,2,0:0:0:0:
356,44,50218,6,0,P|316:40|268:44,1,75.000000298023,0|2,0:0|0:0,0:0:0:0:
220,184,50544,2,0,P|260:188|308:184,1,75.000000298023,8|2,0:0|0:0,0:0:0:0:
376,124,50870,1,2,0:0:0:0:
444,48,51033,2,8,P|468:80|480:128,1,75.000000298023,0|8,0:0|0:0,0:0:0:0:
492,204,51359,1,0,0:0:0:0:
480,292,51522,6,0,P|428:348|408:352,1,75.000000298023,2|8,0:0|0:0,0:0:0:0:
342,346,51848,2,0,P|286:294|282:274,1,75.000000298023,2|8,0:0|0:0,0:0:0:0:
276,208,52175,2,0,P|239:199|203:207,1,75.000000298023,2|8,0:0|0:0,0:0:0:0:
169,293,52501,1,2,0:0:0:0:
203,206,52664,1,10,0:0:0:0:
172,96,52827,5,6,0:0:0:0:
264,28,52990,1,6,0:0:0:0:
368,76,53153,1,6,0:0:0:0:
384,188,53316,2,0,P|396:260|372:347,1,150.000000596046,6|2,0:0|0:1,0:0:0:0:
378,334,53723,1,2,0:0:0:0:
378,334,53805,1,10,0:0:0:0:
148,284,54131,6,0,P|132:248|120:196,1,75.000000298023,6|0,0:0|0:0,0:0:0:0:
212,188,54457,2,0,P|220:152|228:92,1,75.000000298023,8|0,0:0|0:0,0:0:0:0:
148,68,54783,1,2,0:0:0:0:
84,132,54946,1,0,0:0:0:0:
108,222,55109,2,0,P|124:258|168:298,1,75.000000298023,8|0,0:0|0:0,0:0:0:0:
232,316,55435,6,0,P|204:344|168:368,2,75.000000298023,2|0|8,0:0|0:0|0:0,0:0:0:0:
296,252,55925,2,0,P|344:192|380:120,1,150.000000596046,2|2,0:0|0:0,0:0:0:0:
384,36,56414,2,0,P|348:32|308:36,1,75.000000298023,8|0,0:0|0:0,0:0:0:0:
224,60,56740,6,0,P|156:88|96:140,1,150.000000596046,6|8,0:0|0:0,0:0:0:0:
76,224,57229,1,0,0:0:0:0:
160,260,57392,2,0,P|228:232|288:180,1,150.000000596046,6|8,0:0|0:0,0:0:0:0:
320,100,57881,1,0,0:0:0:0:
360,236,58044,5,6,0:0:0:0:
408,100,58207,1,2,0:0:0:0:
436,184,58370,1,8,0:0:0:0:
286,183,58533,2,0,P|206:183|138:223,1,150.000000596046,6|2,0:0|0:0,0:0:0:0:
80,276,59022,1,8,0:0:0:0:
140,344,59185,1,0,0:0:0:0:
204,280,59348,6,0,P|238:264|284:268,1,75.000000298023,6|0,0:0|0:0,0:0:0:0:
320,344,59675,2,0,P|353:360|393:357,1,75.000000298023,8|0,0:0|0:0,0:0:0:0:
476,332,60001,1,2,0:0:0:0:
484,244,60164,1,0,0:0:0:0:
424,176,60327,2,0,P|348:160|272:156,1,150.000000596046,8|2,0:0|0:0,0:0:0:0:
192,188,60816,5,0,0:0:0:0:
104,168,60979,2,0,P|100:132|96:88,1,75.000000298023,8|0,0:0|0:0,0:0:0:0:
216,24,61305,2,0,P|220:60|224:104,1,75.000000298023,2|0,0:0|0:0,0:0:0:0:
192,188,61631,1,8,0:0:0:0:
256,252,61794,1,0,0:0:0:0:
320,188,61957,6,0,L|320:140,3,37.5000001490115,2|2|2|2,0:0|0:0|0:0|0:0,0:0:0:0:
320,104,62283,2,0,P|388:80|468:84,1,150.000000596046,6|2,0:0|0:0,0:0:0:0:
512,180,62772,1,2,0:0:0:0:
512,180,62854,1,2,0:0:0:0:
512,180,62935,2,0,P|492:249|443:312,1,150.000000596046,6|8,0:0|0:0,0:0:0:0:
360,332,63425,6,8,P|324:336|272:328,1,75.000000298023
196,308,63751,2,0,P|215:238|264:175,1,150.000000596046,6|2,0:0|0:0,0:0:0:0:
320,104,64240,1,8,0:0:0:0:
396,56,64403,2,2,L|440:84,1,37.5000001490115
464,100,64566,6,0,P|444:169|395:232,1,150.000000596046,6|8,0:0|0:0,0:0:0:0:
312,260,65055,1,0,0:0:0:0:
224,240,65218,2,0,P|188:224|164:196,2,75.000000298023,2|0|8,0:0|0:0|0:0,0:0:0:0:
312,260,65707,1,0,0:0:0:0:
416,200,65870,6,0,P|431:234|427:282,1,75.000000298023,2|0,0:0|0:0,0:0:0:0:
325,331,66196,2,0,P|310:297|314:249,1,75.000000298023,8|0,0:0|0:0,0:0:0:0:
332,172,66522,1,2,0:0:0:0:
312,84,66685,2,0,P|280:68|240:56,1,75.000000298023,0|8,0:0|0:0,0:0:0:0:
152,40,67012,1,0,0:0:0:0:
80,96,67175,6,0,P|60:168|69:242,1,150.000000596046,6|8,0:0|0:0,0:0:0:0:
132,308,67664,1,0,0:0:0:0:
220,284,67827,2,0,P|278:237|315:172,1,150.000000596046,6|8,0:0|0:0,0:0:0:0:
312,84,68316,1,0,0:0:0:0:
368,16,68479,6,0,P|392:44|408:84,1,75.000000298023,6|0,0:0|0:0,0:0:0:0:
428,168,68805,1,8,0:0:0:0:
424,256,68968,2,0,P|386:320|328:367,1,150.000000596046,6|2,0:0|0:0,0:0:0:0:
240,348,69457,1,8,0:0:0:0:
216,264,69620,1,8,0:0:0:0:
216,264,69702,1,8,0:0:0:0:
216,264,69783,6,0,P|232:228|244:176,1,75.000000298023,6|0,0:0|0:0,0:0:0:0:
152,168,70109,2,0,P|144:132|136:72,1,75.000000298023,8|0,0:0|0:0,0:0:0:0:
216,48,70435,1,2,0:0:0:0:
280,112,70598,1,0,0:0:0:0:
256,202,70762,2,0,P|240:238|196:278,1,75.000000298023,8|0,0:0|0:0,0:0:0:0:
156,332,71088,6,0,P|184:352|232:376,1,75.000000298023,2|0,0:0|0:0,0:0:0:0:
308,376,71414,1,8,0:0:0:0:
396,368,71577,2,0,P|429:350|459:329,1,75.000000298023,0|2,0:0|0:0,0:0:0:0:
404,212,71903,2,0,P|370:229|340:250,1,75.000000298023,0|8,0:0|0:0,0:0:0:0:
260,292,72229,1,0,0:0:0:0:
184,244,72392,6,0,P|150:226|109:190,1,75.000000298023,2|0,0:0|0:0,0:0:0:0:
124,112,72718,2,0,P|156:92|208:76,1,75.000000298023,6|0,0:0|0:0,0:0:0:0:
276,52,73044,1,2,0:0:0:0:
304,44,73126,1,2,0:0:0:0:
332,40,73207,1,2,0:0:0:0:
360,44,73289,1,2,0:0:0:0:
388,52,73370,2,0,P|423:64|454:84,1,75.000000298023,6|0,0:0|0:0,0:0:0:0:
454,178,73696,6,0,P|421:226|377:255,1,112.500000447034,8|0,0:0|0:0,0:0:0:0:
332,265,74022,2,0,P|304:191|247:141,1,150.000000596046,8|0,0:0|0:0,0:0:0:0:
180,89,74512,1,0,0:0:0:0:
91,108,74675,1,2,0:0:0:0:
71,195,74838,1,2,0:0:0:0:
152,244,75001,6,0,L|236:208,1,75.000000298023,8|0,0:0|0:0,0:0:0:0:
304,184,75327,2,0,L|338:198,2,37.5000001490115,8|0|0,0:0|0:0|0:0,0:0:0:0:
328,96,75653,1,8,0:0:0:0:
244,60,75816,1,2,0:0:0:0:
244,60,75897,1,2,0:0:0:0:
244,60,75979,2,0,P|176:84|136:152,1,150.000000596046,4|4,0:0|0:0,0:0:0:0:
152,244,76468,6,8,P|164:280|188:320,1,75.000000298023,0|8,0:0|0:0,0:0:0:0:
256,372,76794,1,0,0:0:0:0:
329,312,76957,2,0,P|348:279|360:244,1,75.000000298023,2|0,0:0|0:0,0:0:0:0:
396,152,77283,1,8,0:0:0:0:
356,64,77446,1,0,0:0:0:0:
260,40,77609,6,0,P|224:52|184:72,1,75.000000298023,2|0,0:0|0:0,0:0:0:0:
136,148,77935,1,8,0:0:0:0:
196,224,78098,2,0,P|229:240|264:253,1,75.000000298023,0|2,0:0|0:0,0:0:0:0:
360,268,78425,1,0,0:0:0:0:
456,256,78588,2,0,P|468:220|472:172,1,75.000000298023,8|0,0:0|0:0,0:0:0:0:
472,84,78914,5,2,0:0:0:0:
388,32,79077,1,2,0:0:0:0:
296,64,79240,2,0,P|300:104|296:144,1,75.000000298023,6|0,0:0|0:0,0:0:0:0:
284,236,79566,2,0,L|252:276,3,37.5000001490115,2|2|2|2,0:0|0:0|0:0|0:0,0:0:0:0:
220,288,79892,2,0,P|188:296|144:296,1,75.000000298023,6|0,0:0|0:0,0:0:0:0:
68,256,80218,5,6,0:0:0:0:
128,188,80381,2,0,P|164:172|216:164,1,75.000000298023,0|8,0:0|0:0,0:0:0:0:
288,148,80707,2,0,P|248:40|148:32,1,225.000000894069,6|8,0:0|0:0,0:0:0:0:
84,100,81359,1,2,0:0:0:0:
128,188,81522,6,8,P|152:156|196:112,1,75.000000298023,8|8,0:0|0:0,0:0:0:0:
288,148,81848,2,8,L|265:178,2,37.5000001490115,8|8|8,3:0|3:0|3:0,0:0:0:0:
200,272,82175,1,2,0:0:0:0:
200,272,82256,1,2,0:0:0:0:
200,272,82338,2,0,P|224:300|280:332,1,75.000000298023,2|2,0:0|0:0,0:0:0:0:
356,232,82664,1,6,0:0:0:0:
256,192,82745,12,2,88044,0:0:0:0:
