osu file format v12

[General]
AudioFilename: nourinOP.mp3
AudioLeadIn: 1500
PreviewTime: 54065
Countdown: 0
SampleSet: Normal
StackLeniency: 0.5
Mode: 1
LetterboxInBreaks: 0
WidescreenStoryboard: 1

[Editor]
DistanceSpacing: 0.5
BeatDivisor: 4
GridSize: 32
TimelineZoom: 1

[Metadata]
Title:Himitsu no Door kara Ai ni Kite (TV Size)
TitleUnicode:秘密の扉から会いにきて (TV Size)
Artist:Tamura Yukari
ArtistUnicode:田村ゆかり
Creator:Flower
Version:Taiko Oni
Source:No-Rin
Tags:nourin のうりん opening
BeatmapID:358824
BeatmapSetID:144464

[Difficulty]
HPDrainRate:5
CircleSize:5
OverallDifficulty:5
ApproachRate:5
SliderMultiplier:1.4
SliderTickRate:1

[Events]
//Background and Video events
0,0,"bg123.jpg",0,100
//Break Periods
//Storyboard Layer 0 (Background)
//Storyboard Layer 1 (Fail)
//Storyboard Layer 2 (Pass)
//Storyboard Layer 3 (Foreground)
//Storyboard Sound Samples
//Background Colour Transformations
3,100,0,0,0

[TimingPoints]
-680,326.086956521739,4,1,0,60,1,0
5841,-100,4,1,0,70,0,1
11059,-100,4,1,0,70,0,0
22798,-100,4,1,0,60,0,0
54102,-100,4,1,0,70,0,1
74972,-100,4,1,0,70,0,0

[Colours]
Combo1 : 255,147,74
Combo2 : 169,216,241
Combo3 : 220,81,255
Combo4 : 255,211,164

[HitObjects]
256,192,624,5,8,0:0:0:0:
256,192,950,1,8,0:0:0:0:
256,192,1276,1,0,0:0:0:0:
256,192,1439,1,0,0:0:0:0:
256,192,1602,1,8,0:0:0:0:
256,192,1928,1,0,0:0:0:0:
256,192,2091,1,0,0:0:0:0:
256,192,2254,1,8,0:0:0:0:
256,192,2417,1,0,0:0:0:0:
256,192,2743,1,0,0:0:0:0:
256,192,2906,1,8,0:0:0:0:
256,192,3233,1,4,0:0:0:0:
256,192,3559,1,8,0:0:0:0:
256,192,3885,1,0,0:0:0:0:
256,192,4211,1,8,0:0:0:0:
256,192,4537,1,4,0:0:0:0:
256,192,5026,1,4,0:0:0:0:
256,192,5352,1,0,0:0:0:0:
256,192,5515,1,8,0:0:0:0:
256,192,5678,1,0,0:0:0:0:
256,192,5760,1,0,0:0:0:0:
256,192,5841,1,0,0:0:0:0:
256,192,6004,1,0,0:0:0:0:
256,192,6167,1,8,0:0:0:0:
256,192,6330,1,8,0:0:0:0:
256,192,6412,1,8,0:0:0:0:
256,192,6493,1,0,0:0:0:0:
256,192,6656,1,0,0:0:0:0:
256,192,6819,1,8,0:0:0:0:
256,192,6983,1,8,0:0:0:0:
256,192,7064,1,8,0:0:0:0:
256,192,7146,1,0,0:0:0:0:
256,192,7309,1,0,0:0:0:0:
256,192,7472,1,8,0:0:0:0:
256,192,7635,1,8,0:0:0:0:
256,192,7961,1,0,0:0:0:0:
256,192,8124,1,8,0:0:0:0:
256,192,8287,1,8,0:0:0:0:
256,192,8450,1,0,0:0:0:0:
256,192,8531,1,0,0:0:0:0:
256,192,8613,1,0,0:0:0:0:
256,192,8694,1,0,0:0:0:0:
256,192,8776,1,8,0:0:0:0:
256,192,8939,1,8,0:0:0:0:
256,192,9102,1,0,0:0:0:0:
256,192,9184,1,0,0:0:0:0:
256,192,9265,1,0,0:0:0:0:
256,192,9347,1,0,0:0:0:0:
256,192,9428,1,8,0:0:0:0:
256,192,9591,1,8,0:0:0:0:
256,192,9754,1,4,0:0:0:0:
256,192,10080,1,4,0:0:0:0:
256,192,10406,1,0,0:0:0:0:
256,192,10488,1,0,0:0:0:0:
256,192,10569,1,0,0:0:0:0:
256,192,10651,1,0,0:0:0:0:
256,192,10733,1,0,0:0:0:0:
256,192,10814,1,0,0:0:0:0:
256,192,10896,1,0,0:0:0:0:
256,192,11059,5,8,0:0:0:0:
256,192,11385,1,8,0:0:0:0:
256,192,11711,1,8,0:0:0:0:
256,192,11874,1,0,0:0:0:0:
256,192,11955,1,0,0:0:0:0:
256,192,12037,1,8,0:0:0:0:
256,192,12363,1,0,0:0:0:0:
256,192,12526,1,0,0:0:0:0:
256,192,12689,1,8,0:0:0:0:
256,192,12852,1,0,0:0:0:0:
256,192,12934,1,0,0:0:0:0:
256,192,13015,1,0,0:0:0:0:
256,192,13178,1,0,0:0:0:0:
256,192,13260,1,0,0:0:0:0:
256,192,13341,1,8,0:0:0:0:
256,192,13667,1,0,0:0:0:0:
256,192,13830,1,0,0:0:0:0:
256,192,13912,1,0,0:0:0:0:
256,192,13993,1,8,0:0:0:0:
256,192,14156,1,0,0:0:0:0:
256,192,14319,1,8,0:0:0:0:
256,192,14483,1,0,0:0:0:0:
256,192,14646,1,8,0:0:0:0:
256,192,14972,1,0,0:0:0:0:
256,192,15135,1,0,0:0:0:0:
256,192,15298,1,8,0:0:0:0:
256,192,15461,1,0,0:0:0:0:
256,192,15542,1,0,0:0:0:0:
256,192,15624,1,0,0:0:0:0:
256,192,15787,1,0,0:0:0:0:
256,192,15868,1,0,0:0:0:0:
256,192,15950,1,8,0:0:0:0:
256,192,16113,1,0,0:0:0:0:
256,192,16276,1,4,0:0:0:0:
256,192,16602,1,12,0:0:0:0:
256,192,16928,1,4,0:0:0:0:
256,192,17091,1,4,0:0:0:0:
256,192,17254,1,12,0:0:0:0:
256,192,17417,1,4,0:0:0:0:
256,192,17580,1,4,0:0:0:0:
256,192,17743,1,0,0:0:0:0:
256,192,17906,1,8,0:0:0:0:
256,192,18069,1,0,0:0:0:0:
256,192,18151,1,0,0:0:0:0:
256,192,18233,1,0,0:0:0:0:
256,192,18396,1,0,0:0:0:0:
256,192,18477,1,0,0:0:0:0:
256,192,18559,1,8,0:0:0:0:
256,192,18885,1,0,0:0:0:0:
256,192,19048,1,0,0:0:0:0:
256,192,19129,1,0,0:0:0:0:
256,192,19211,1,8,0:0:0:0:
256,192,19374,1,0,0:0:0:0:
256,192,19537,1,8,0:0:0:0:
256,192,19700,1,0,0:0:0:0:
256,192,19863,1,8,0:0:0:0:
256,192,20026,1,0,0:0:0:0:
256,192,20189,1,0,0:0:0:0:
256,192,20271,1,0,0:0:0:0:
256,192,20352,1,0,0:0:0:0:
256,192,20434,1,0,0:0:0:0:
256,192,20515,1,8,0:0:0:0:
256,192,20841,1,8,0:0:0:0:
256,192,20923,1,8,0:0:0:0:
256,192,21004,1,8,0:0:0:0:
256,192,21086,1,8,0:0:0:0:
256,192,21167,1,0,0:0:0:0:
256,192,21493,1,4,0:0:0:0:
256,192,21656,1,4,0:0:0:0:
256,192,21819,1,4,0:0:0:0:
256,192,21983,1,4,0:0:0:0:
256,192,22798,1,8,0:0:0:0:
256,192,23124,1,0,0:0:0:0:
256,192,23287,1,8,0:0:0:0:
256,192,23450,1,0,0:0:0:0:
256,192,23776,1,8,0:0:0:0:
256,192,23939,1,0,0:0:0:0:
256,192,24265,1,0,0:0:0:0:
256,192,24591,1,8,0:0:0:0:
256,192,24754,1,0,0:0:0:0:
256,192,25080,1,8,0:0:0:0:
256,192,25243,1,0,0:0:0:0:
256,192,25325,1,0,0:0:0:0:
256,192,25406,1,0,0:0:0:0:
256,192,25733,1,8,0:0:0:0:
256,192,25896,1,0,0:0:0:0:
256,192,26222,1,0,0:0:0:0:
256,192,26303,1,0,0:0:0:0:
256,192,26385,1,8,0:0:0:0:
256,192,26548,1,0,0:0:0:0:
256,192,26711,1,8,0:0:0:0:
256,192,26874,1,0,0:0:0:0:
256,192,27037,1,8,0:0:0:0:
256,192,27200,1,8,0:0:0:0:
256,192,27363,1,0,0:0:0:0:
256,192,27689,1,0,0:0:0:0:
256,192,28015,1,8,0:0:0:0:
256,192,28341,1,0,0:0:0:0:
256,192,28504,1,8,0:0:0:0:
256,192,28667,1,0,0:0:0:0:
256,192,28993,1,8,0:0:0:0:
256,192,29156,1,0,0:0:0:0:
256,192,29483,1,0,0:0:0:0:
256,192,29809,1,0,0:0:0:0:
256,192,29972,1,8,0:0:0:0:
256,192,30298,1,8,0:0:0:0:
256,192,30461,1,0,0:0:0:0:
256,192,30542,1,0,0:0:0:0:
256,192,30624,1,0,0:0:0:0:
256,192,30950,1,8,0:0:0:0:
256,192,31113,1,0,0:0:0:0:
256,192,31276,1,0,0:0:0:0:
256,192,31358,1,0,0:0:0:0:
256,192,31439,1,0,0:0:0:0:
256,192,31602,1,8,0:0:0:0:
256,192,31684,1,8,0:0:0:0:
256,192,31765,1,8,0:0:0:0:
256,192,31928,1,0,0:0:0:0:
256,192,32743,1,0,0:0:0:0:
256,192,32825,1,0,0:0:0:0:
256,192,32906,1,8,0:0:0:0:
256,192,33233,1,0,0:0:0:0:
256,192,33396,1,8,0:0:0:0:
256,192,33559,1,0,0:0:0:0:
256,192,33722,1,8,0:0:0:0:
256,192,33885,1,0,0:0:0:0:
256,192,34048,1,8,0:0:0:0:
256,192,34211,1,0,0:0:0:0:
256,192,34374,1,8,0:0:0:0:
256,192,34455,1,8,0:0:0:0:
256,192,34537,1,0,0:0:0:0:
256,192,34700,1,8,0:0:0:0:
256,192,34863,1,0,0:0:0:0:
256,192,35026,1,8,0:0:0:0:
256,192,35189,1,0,0:0:0:0:
256,192,35352,1,0,0:0:0:0:
256,192,35434,1,8,0:0:0:0:
256,192,35515,1,0,0:0:0:0:
256,192,35678,1,8,0:0:0:0:
256,192,35760,1,8,0:0:0:0:
256,192,35841,1,0,0:0:0:0:
256,192,36004,1,8,0:0:0:0:
256,192,36167,1,0,0:0:0:0:
256,192,36330,1,8,0:0:0:0:
256,192,36493,1,0,0:0:0:0:
256,192,36656,1,8,0:0:0:0:
256,192,36819,1,0,0:0:0:0:
256,192,36983,1,8,0:0:0:0:
256,192,37064,1,8,0:0:0:0:
256,192,37146,1,0,0:0:0:0:
256,192,37309,1,0,0:0:0:0:
256,192,37472,1,8,0:0:0:0:
256,192,37635,1,0,0:0:0:0:
256,192,37716,1,0,0:0:0:0:
256,192,37798,1,8,0:0:0:0:
256,192,37879,1,0,0:0:0:0:
256,192,37961,1,8,0:0:0:0:
256,192,38124,1,8,0:0:0:0:
256,192,38287,1,0,0:0:0:0:
256,192,38368,1,0,0:0:0:0:
256,192,38450,1,0,0:0:0:0:
256,192,38613,1,8,0:0:0:0:
256,192,38776,1,0,0:0:0:0:
256,192,38939,1,8,0:0:0:0:
256,192,39102,1,0,0:0:0:0:
256,192,39265,1,8,0:0:0:0:
256,192,39428,1,0,0:0:0:0:
256,192,39591,1,8,0:0:0:0:
256,192,39673,1,8,0:0:0:0:
256,192,39754,1,0,0:0:0:0:
256,192,39917,1,8,0:0:0:0:
256,192,40080,1,0,0:0:0:0:
256,192,40243,1,8,0:0:0:0:
256,192,40406,1,0,0:0:0:0:
256,192,40569,1,0,0:0:0:0:
256,192,40651,1,8,0:0:0:0:
256,192,40733,1,0,0:0:0:0:
256,192,40896,1,0,0:0:0:0:
256,192,41059,1,8,0:0:0:0:
256,192,41222,1,0,0:0:0:0:
256,192,41303,1,0,0:0:0:0:
256,192,41385,1,0,0:0:0:0:
256,192,41548,1,8,0:0:0:0:
256,192,41711,1,0,0:0:0:0:
256,192,41792,1,0,0:0:0:0:
256,192,41874,1,0,0:0:0:0:
256,192,42037,1,8,0:0:0:0:
256,192,42200,1,0,0:0:0:0:
256,192,42363,1,4,0:0:0:0:
256,192,42526,1,4,0:0:0:0:
256,192,42689,1,8,0:0:0:0:
256,192,42852,1,0,0:0:0:0:
256,160,43015,1,12,0:0:0:0:
256,160,43504,1,0,0:0:0:0:
256,160,43667,1,0,0:0:0:0:
256,160,44156,1,0,0:0:0:0:
256,160,44319,1,8,0:0:0:0:
256,160,44646,1,0,0:0:0:0:
256,160,44972,1,0,0:0:0:0:
256,160,45135,1,0,0:0:0:0:
256,160,45216,1,0,0:0:0:0:
256,160,45461,1,0,0:0:0:0:
256,160,45624,1,8,0:0:0:0:
256,160,45950,1,0,0:0:0:0:
256,160,46276,1,0,0:0:0:0:
256,160,46765,1,0,0:0:0:0:
256,160,46928,1,8,0:0:0:0:
256,160,47254,1,8,0:0:0:0:
256,160,47417,1,0,0:0:0:0:
256,160,47580,1,12,0:0:0:0:
256,160,47743,1,12,0:0:0:0:
256,160,47906,1,12,0:0:0:0:
256,160,48069,1,12,0:0:0:0:
256,160,48396,1,0,0:0:0:0:
256,160,48477,1,0,0:0:0:0:
256,160,48559,1,8,0:0:0:0:
256,160,48722,1,8,0:0:0:0:
256,160,48885,1,0,0:0:0:0:
256,160,49211,1,8,0:0:0:0:
256,160,49374,1,0,0:0:0:0:
256,160,49455,1,0,0:0:0:0:
256,160,49537,1,0,0:0:0:0:
256,160,49700,1,0,0:0:0:0:
256,160,49863,1,8,0:0:0:0:
256,160,50026,1,0,0:0:0:0:
256,160,50189,1,0,0:0:0:0:
256,160,50515,1,8,0:0:0:0:
256,160,50678,1,0,0:0:0:0:
256,160,50760,1,0,0:0:0:0:
256,160,50841,1,8,0:0:0:0:
256,160,51004,1,8,0:0:0:0:
256,160,51167,1,0,0:0:0:0:
256,160,51330,1,8,0:0:0:0:
256,160,51493,1,8,0:0:0:0:
256,160,51656,1,0,0:0:0:0:
256,160,51738,1,0,0:0:0:0:
256,160,51819,1,0,0:0:0:0:
256,160,51983,1,8,0:0:0:0:
256,160,52146,1,0,0:0:0:0:
256,160,52227,1,0,0:0:0:0:
256,160,52309,1,0,0:0:0:0:
256,160,52472,1,8,0:0:0:0:
256,160,52635,1,0,0:0:0:0:
256,160,52798,1,4,0:0:0:0:
256,160,52961,1,4,0:0:0:0:
256,160,53124,1,4,0:0:0:0:
256,160,53287,1,4,0:0:0:0:
256,160,53613,1,0,0:0:0:0:
256,160,53776,1,12,0:0:0:0:
256,160,54102,1,0,0:0:0:0:
256,160,54265,1,0,0:0:0:0:
256,160,54347,1,0,0:0:0:0:
256,160,54428,1,8,0:0:0:0:
256,160,54591,1,8,0:0:0:0:
256,160,54754,1,0,0:0:0:0:
256,160,54917,1,0,0:0:0:0:
256,160,54999,1,0,0:0:0:0:
256,160,55080,1,8,0:0:0:0:
256,160,55243,1,8,0:0:0:0:
256,160,55406,1,0,0:0:0:0:
256,160,55569,1,0,0:0:0:0:
256,160,55651,1,0,0:0:0:0:
256,160,55733,1,8,0:0:0:0:
256,160,55896,1,0,0:0:0:0:
256,160,55977,1,0,0:0:0:0:
256,160,56059,1,0,0:0:0:0:
256,160,56222,1,12,0:0:0:0:
256,160,56385,1,12,0:0:0:0:
256,160,56711,1,0,0:0:0:0:
256,160,56874,1,8,0:0:0:0:
256,160,56955,1,8,0:0:0:0:
256,160,57037,1,0,0:0:0:0:
256,160,57200,1,8,0:0:0:0:
256,160,57363,1,0,0:0:0:0:
256,160,57526,1,8,0:0:0:0:
256,160,57608,1,8,0:0:0:0:
256,160,57689,1,0,0:0:0:0:
256,160,57852,1,8,0:0:0:0:
256,160,58015,1,4,0:0:0:0:
256,160,58178,1,4,0:0:0:0:
256,160,58341,1,4,0:0:0:0:
256,160,58504,1,4,0:0:0:0:
256,160,58830,1,0,0:0:0:0:
256,160,58912,1,0,0:0:0:0:
256,160,58993,1,0,0:0:0:0:
256,160,59156,1,8,0:0:0:0:
256,160,59319,1,0,0:0:0:0:
256,160,59483,1,0,0:0:0:0:
256,160,59564,1,0,0:0:0:0:
256,160,59646,1,8,0:0:0:0:
256,160,59809,1,8,0:0:0:0:
256,160,59972,1,0,0:0:0:0:
256,160,60135,1,0,0:0:0:0:
256,160,60216,1,0,0:0:0:0:
256,160,60298,1,8,0:0:0:0:
256,160,60461,1,8,0:0:0:0:
256,160,60624,1,0,0:0:0:0:
256,160,60787,1,8,0:0:0:0:
256,160,60868,1,0,0:0:0:0:
256,160,60950,1,0,0:0:0:0:
256,160,61113,1,0,0:0:0:0:
256,160,61439,1,8,0:0:0:0:
256,160,61521,1,8,0:0:0:0:
256,160,61602,1,8,0:0:0:0:
256,160,61765,1,8,0:0:0:0:
256,160,61928,1,0,0:0:0:0:
256,160,62010,1,0,0:0:0:0:
256,160,62091,1,0,0:0:0:0:
256,160,62173,1,0,0:0:0:0:
256,160,62254,1,8,0:0:0:0:
256,160,62580,1,8,0:0:0:0:
256,160,62662,1,8,0:0:0:0:
256,160,62743,1,8,0:0:0:0:
256,160,62825,1,8,0:0:0:0:
256,160,62906,1,0,0:0:0:0:
256,160,63233,1,4,0:0:0:0:
256,160,63559,1,4,0:0:0:0:
256,160,63885,1,4,0:0:0:0:
256,160,64048,1,0,0:0:0:0:
256,160,64129,1,0,0:0:0:0:
256,160,64211,1,8,0:0:0:0:
256,160,64292,1,8,0:0:0:0:
256,160,64374,1,0,0:0:0:0:
256,160,64537,1,0,0:0:0:0:
256,160,64700,1,0,0:0:0:0:
256,160,64781,1,0,0:0:0:0:
256,160,64863,1,8,0:0:0:0:
256,160,65026,1,8,0:0:0:0:
256,160,65189,1,0,0:0:0:0:
256,160,65352,1,0,0:0:0:0:
256,160,65434,1,0,0:0:0:0:
256,160,65515,1,8,0:0:0:0:
256,160,65678,1,8,0:0:0:0:
256,160,65841,1,0,0:0:0:0:
256,160,66004,1,8,0:0:0:0:
256,160,66086,1,8,0:0:0:0:
256,160,66167,1,0,0:0:0:0:
256,160,66330,1,8,0:0:0:0:
256,160,66493,1,0,0:0:0:0:
256,160,66656,1,12,0:0:0:0:
256,160,66819,1,12,0:0:0:0:
256,160,67146,1,0,0:0:0:0:
256,160,67309,1,8,0:0:0:0:
256,160,67390,1,8,0:0:0:0:
256,160,67472,1,0,0:0:0:0:
256,160,67635,1,8,0:0:0:0:
256,160,67798,1,0,0:0:0:0:
256,160,67879,1,0,0:0:0:0:
256,160,67961,1,8,0:0:0:0:
256,160,68042,1,8,0:0:0:0:
256,160,68124,1,0,0:0:0:0:
256,160,68287,1,0,0:0:0:0:
256,160,68450,1,4,0:0:0:0:
256,160,68613,1,4,0:0:0:0:
256,160,68776,1,4,0:0:0:0:
256,160,68939,1,4,0:0:0:0:
256,160,69265,1,0,0:0:0:0:
256,160,69347,1,0,0:0:0:0:
256,160,69428,1,8,0:0:0:0:
256,160,69591,1,8,0:0:0:0:
256,160,69754,1,0,0:0:0:0:
256,160,69917,1,0,0:0:0:0:
256,160,69999,1,0,0:0:0:0:
256,160,70080,1,8,0:0:0:0:
256,160,70243,1,8,0:0:0:0:
256,160,70406,1,0,0:0:0:0:
256,160,70569,1,0,0:0:0:0:
256,160,70651,1,0,0:0:0:0:
256,160,70733,1,8,0:0:0:0:
256,160,70896,1,8,0:0:0:0:
256,160,71059,1,0,0:0:0:0:
256,160,71140,1,0,0:0:0:0:
256,160,71222,1,8,0:0:0:0:
256,160,71303,1,8,0:0:0:0:
256,160,71385,1,0,0:0:0:0:
256,160,71548,1,0,0:0:0:0:
256,160,71629,1,0,0:0:0:0:
256,160,71711,1,0,0:0:0:0:
256,160,71874,1,8,0:0:0:0:
256,160,71955,1,8,0:0:0:0:
256,160,72037,1,8,0:0:0:0:
256,160,72200,1,8,0:0:0:0:
256,160,72363,1,0,0:0:0:0:
256,160,72444,1,8,0:0:0:0:
256,160,72526,1,0,0:0:0:0:
256,160,72608,1,8,0:0:0:0:
256,160,72689,1,0,0:0:0:0:
256,160,73015,1,8,0:0:0:0:
256,160,73097,1,0,0:0:0:0:
256,160,73178,1,8,0:0:0:0:
256,160,73260,1,0,0:0:0:0:
256,160,73341,1,8,0:0:0:0:
256,160,73504,1,8,0:0:0:0:
256,160,73586,1,8,0:0:0:0:
256,160,73667,1,0,0:0:0:0:
256,160,73830,1,8,0:0:0:0:
256,160,73912,1,8,0:0:0:0:
256,160,73993,1,0,0:0:0:0:
256,160,74156,1,8,0:0:0:0:
256,160,74319,1,4,0:0:0:0:
256,160,74483,1,4,0:0:0:0:
256,160,74972,1,8,0:0:0:0:
256,160,75298,1,8,0:0:0:0:
256,160,75624,1,8,0:0:0:0:
256,160,75787,5,0,0:0:0:0:
256,160,75868,1,0,0:0:0:0:
256,160,75950,1,8,0:0:0:0:
256,160,76276,1,0,0:0:0:0:
256,160,76439,1,0,0:0:0:0:
256,160,76521,1,0,0:0:0:0:
256,160,76602,1,8,0:0:0:0:
256,160,76765,1,0,0:0:0:0:
256,160,76847,1,0,0:0:0:0:
256,160,76928,1,0,0:0:0:0:
256,160,77091,1,0,0:0:0:0:
256,160,77254,1,8,0:0:0:0:
256,160,77417,1,0,0:0:0:0:
256,160,77499,1,0,0:0:0:0:
256,160,77580,1,0,0:0:0:0:
256,160,77743,1,0,0:0:0:0:
256,160,77906,1,8,0:0:0:0:
256,160,78069,1,0,0:0:0:0:
256,160,78151,1,0,0:0:0:0:
256,160,78233,1,0,0:0:0:0:
256,160,78396,1,8,0:0:0:0:
256,160,78477,1,8,0:0:0:0:
256,160,78559,1,8,0:0:0:0:
256,160,78722,1,0,0:0:0:0:
256,160,78885,1,0,0:0:0:0:
256,160,78966,1,0,0:0:0:0:
256,160,79048,1,0,0:0:0:0:
256,160,79129,1,0,0:0:0:0:
256,160,79211,1,8,0:0:0:0:
256,160,79537,1,8,0:0:0:0:
256,160,79618,1,8,0:0:0:0:
256,160,79700,1,8,0:0:0:0:
256,160,79781,1,8,0:0:0:0:
256,160,79863,1,0,0:0:0:0:
256,160,80189,1,4,0:0:0:0:
256,160,80352,1,4,0:0:0:0:
256,160,80515,1,4,0:0:0:0:
256,160,80678,1,4,0:0:0:0:
256,160,81004,1,0,0:0:0:0:
256,160,81086,1,0,0:0:0:0:
256,160,81167,1,0,0:0:0:0:
256,160,81330,1,0,0:0:0:0:
256,160,81493,2,0,L|128:96,3,140
256,192,82635,12,0,87934,0:0:0:0:
