osu file format v12

[General]
AudioFilename: nourinOP.mp3
AudioLeadIn: 1500
PreviewTime: 54065
Countdown: 0
SampleSet: Normal
StackLeniency: 0.5
Mode: 1
LetterboxInBreaks: 0
WidescreenStoryboard: 1

[Editor]
DistanceSpacing: 0.5
BeatDivisor: 4
GridSize: 32
TimelineZoom: 1

[Metadata]
Title:Himitsu no Door kara Ai ni Kite (TV Size)
TitleUnicode:秘密の扉から会いにきて (TV Size)
Artist:Tamura Yukari
ArtistUnicode:田村ゆかり
Creator:Flower
Version:Taiko Muzukashii
Source:No-Rin
Tags:nourin のうりん opening
BeatmapID:358823
BeatmapSetID:144464

[Difficulty]
HPDrainRate:5
CircleSize:4
OverallDifficulty:5
ApproachRate:5
SliderMultiplier:1.4
SliderTickRate:1

[Events]
//Background and Video events
0,0,"bg123.jpg",0,100
//Break Periods
//Storyboard Layer 0 (Background)
//Storyboard Layer 1 (Fail)
//Storyboard Layer 2 (Pass)
//Storyboard Layer 3 (Foreground)
//Storyboard Sound Samples
//Background Colour Transformations
3,100,0,0,0

[TimingPoints]
-680,326.086956521739,4,1,0,60,1,0
5841,-100,4,1,0,70,0,1
11059,-100,4,1,0,70,0,0
22798,-100,4,1,0,60,0,0
54102,-100,4,1,0,70,0,1
74972,-100,4,1,0,70,0,0

[Colours]
Combo1 : 255,147,74
Combo2 : 169,216,241
Combo3 : 220,81,255
Combo4 : 255,211,164

[HitObjects]
256,192,624,5,8,0:0:0:0:
256,192,950,1,8,0:0:0:0:
256,192,1602,1,8,0:0:0:0:
256,192,1928,1,0,0:0:0:0:
256,192,2417,1,0,0:0:0:0:
256,192,2906,1,0,0:0:0:0:
256,192,3233,1,4,0:0:0:0:
256,192,3885,1,0,0:0:0:0:
256,192,4537,1,4,0:0:0:0:
256,192,5026,1,4,0:0:0:0:
256,192,5841,1,0,0:0:0:0:
256,192,6167,1,0,0:0:0:0:
256,192,6330,1,8,0:0:0:0:
256,192,6493,1,0,0:0:0:0:
256,192,6656,1,8,0:0:0:0:
256,192,6819,1,0,0:0:0:0:
256,192,7146,1,0,0:0:0:0:
256,192,7309,1,0,0:0:0:0:
256,192,7390,1,0,0:0:0:0:
256,192,7472,1,0,0:0:0:0:
256,192,7635,1,0,0:0:0:0:
256,192,7961,1,0,0:0:0:0:
256,192,8124,1,8,0:0:0:0:
256,192,8450,1,0,0:0:0:0:
256,192,8613,1,0,0:0:0:0:
256,192,8776,1,0,0:0:0:0:
256,192,9102,1,8,0:0:0:0:
256,192,9265,1,8,0:0:0:0:
256,192,9428,1,8,0:0:0:0:
256,192,9754,1,4,0:0:0:0:
256,192,10080,1,4,0:0:0:0:
256,192,10406,1,8,0:0:0:0:
256,192,10569,1,0,0:0:0:0:
256,192,10733,1,0,0:0:0:0:
256,192,10896,1,0,0:0:0:0:
256,192,11059,1,8,0:0:0:0:
256,192,11385,1,8,0:0:0:0:
256,192,11874,1,0,0:0:0:0:
256,192,12037,1,12,0:0:0:0:
256,192,12363,1,0,0:0:0:0:
256,192,12526,1,0,0:0:0:0:
256,192,12689,1,8,0:0:0:0:
256,192,12852,1,0,0:0:0:0:
256,192,13178,1,0,0:0:0:0:
256,192,13341,1,8,0:0:0:0:
256,192,13504,1,0,0:0:0:0:
256,192,13667,1,0,0:0:0:0:
256,192,13993,1,8,0:0:0:0:
256,192,14156,1,0,0:0:0:0:
256,192,14483,1,0,0:0:0:0:
256,192,14646,1,8,0:0:0:0:
256,192,14972,1,0,0:0:0:0:
256,192,15298,1,8,0:0:0:0:
256,192,15624,1,0,0:0:0:0:
256,192,15787,1,0,0:0:0:0:
256,192,15950,1,8,0:0:0:0:
256,192,16276,1,4,0:0:0:0:
256,192,16602,1,4,0:0:0:0:
256,192,16928,1,4,0:0:0:0:
256,192,17580,1,0,0:0:0:0:
256,192,17743,1,0,0:0:0:0:
256,192,17906,1,8,0:0:0:0:
256,192,18069,1,0,0:0:0:0:
256,192,18396,1,0,0:0:0:0:
256,192,18559,1,8,0:0:0:0:
256,192,18885,1,0,0:0:0:0:
256,192,19048,1,0,0:0:0:0:
256,192,19211,1,8,0:0:0:0:
256,192,19374,1,0,0:0:0:0:
256,192,19700,1,0,0:0:0:0:
256,192,19863,1,8,0:0:0:0:
256,192,20189,1,0,0:0:0:0:
256,192,20515,1,8,0:0:0:0:
256,192,20841,1,0,0:0:0:0:
256,192,21004,1,0,0:0:0:0:
256,192,21167,1,8,0:0:0:0:
256,192,21493,1,0,0:0:0:0:
256,192,21656,1,0,0:0:0:0:
256,192,21819,1,0,0:0:0:0:
256,192,21983,1,0,0:0:0:0:
256,192,22798,1,0,0:0:0:0:
256,192,23287,1,0,0:0:0:0:
256,192,23450,1,8,0:0:0:0:
256,192,23776,1,8,0:0:0:0:
256,192,24102,1,0,0:0:0:0:
256,192,24265,1,8,0:0:0:0:
256,192,24591,1,8,0:0:0:0:
256,192,24754,1,0,0:0:0:0:
256,192,25080,1,8,0:0:0:0:
256,192,25406,1,0,0:0:0:0:
256,192,25896,1,0,0:0:0:0:
256,192,26385,1,8,0:0:0:0:
256,192,26711,1,0,0:0:0:0:
256,192,27037,1,8,0:0:0:0:
256,192,27363,1,8,0:0:0:0:
256,192,27526,1,0,0:0:0:0:
256,192,27608,1,0,0:0:0:0:
256,192,27689,1,0,0:0:0:0:
256,192,28015,1,0,0:0:0:0:
256,192,28504,1,0,0:0:0:0:
256,192,28667,1,0,0:0:0:0:
256,192,28993,1,8,0:0:0:0:
256,192,29319,1,0,0:0:0:0:
256,192,29483,1,8,0:0:0:0:
256,192,29809,1,8,0:0:0:0:
256,192,29972,1,0,0:0:0:0:
256,192,30298,1,8,0:0:0:0:
256,192,30624,1,0,0:0:0:0:
256,192,31113,1,0,0:0:0:0:
256,192,31765,1,0,0:0:0:0:
256,192,31847,1,0,0:0:0:0:
256,192,31928,1,0,0:0:0:0:
256,192,32091,1,8,0:0:0:0:
256,192,32254,1,8,0:0:0:0:
256,192,32417,1,8,0:0:0:0:
256,192,32743,1,0,0:0:0:0:
256,192,32906,1,0,0:0:0:0:
256,192,33233,1,0,0:0:0:0:
256,192,33396,1,8,0:0:0:0:
256,192,33559,1,0,0:0:0:0:
256,192,33722,1,8,0:0:0:0:
256,192,33885,1,0,0:0:0:0:
256,192,34211,1,0,0:0:0:0:
256,192,34537,1,0,0:0:0:0:
256,192,34700,1,8,0:0:0:0:
256,192,34863,1,0,0:0:0:0:
256,192,35026,1,8,0:0:0:0:
256,192,35189,1,0,0:0:0:0:
256,192,35515,1,0,0:0:0:0:
256,192,35841,1,0,0:0:0:0:
256,192,36004,1,8,0:0:0:0:
256,192,36167,1,0,0:0:0:0:
256,192,36493,1,0,0:0:0:0:
256,192,36656,1,8,0:0:0:0:
256,192,36819,1,0,0:0:0:0:
256,192,37146,1,0,0:0:0:0:
256,192,37309,1,0,0:0:0:0:
256,192,37390,1,0,0:0:0:0:
256,192,37472,1,0,0:0:0:0:
256,192,37635,1,0,0:0:0:0:
256,192,37798,1,8,0:0:0:0:
256,192,37961,1,8,0:0:0:0:
256,192,38124,1,8,0:0:0:0:
256,192,38450,1,0,0:0:0:0:
256,192,38613,1,8,0:0:0:0:
256,192,38776,1,0,0:0:0:0:
256,192,38939,1,8,0:0:0:0:
256,192,39102,1,0,0:0:0:0:
256,192,39428,1,0,0:0:0:0:
256,192,39754,1,0,0:0:0:0:
256,192,39917,1,8,0:0:0:0:
256,192,40080,1,0,0:0:0:0:
256,192,40243,1,8,0:0:0:0:
256,192,40406,1,0,0:0:0:0:
256,192,40733,1,0,0:0:0:0:
256,192,41059,1,0,0:0:0:0:
256,192,41222,1,8,0:0:0:0:
256,192,41385,1,0,0:0:0:0:
256,192,41711,1,0,0:0:0:0:
256,192,41874,1,8,0:0:0:0:
256,192,42037,1,0,0:0:0:0:
256,192,42200,1,0,0:0:0:0:
256,192,42363,1,8,0:0:0:0:
256,192,42526,1,8,0:0:0:0:
256,192,42689,1,8,0:0:0:0:
256,192,42852,1,8,0:0:0:0:
256,192,43015,1,8,0:0:0:0:
256,192,43341,1,0,0:0:0:0:
256,192,43667,1,4,0:0:0:0:
256,192,44156,1,0,0:0:0:0:
256,192,44319,1,8,0:0:0:0:
256,192,44972,1,0,0:0:0:0:
256,192,45624,1,8,0:0:0:0:
256,192,46276,1,0,0:0:0:0:
256,192,46765,1,0,0:0:0:0:
256,192,46928,1,8,0:0:0:0:
256,192,47580,1,0,0:0:0:0:
256,192,47743,1,0,0:0:0:0:
256,192,47906,1,0,0:0:0:0:
256,192,48069,1,0,0:0:0:0:
256,192,48722,1,0,0:0:0:0:
256,192,48803,1,0,0:0:0:0:
256,192,48885,1,0,0:0:0:0:
256,192,49211,1,8,0:0:0:0:
256,192,49374,1,0,0:0:0:0:
256,192,49700,1,0,0:0:0:0:
256,192,49863,1,8,0:0:0:0:
256,192,50026,1,0,0:0:0:0:
256,192,50189,1,0,0:0:0:0:
256,192,50515,1,8,0:0:0:0:
256,192,50841,1,0,0:0:0:0:
256,192,51004,1,0,0:0:0:0:
256,192,51167,1,8,0:0:0:0:
256,192,51493,1,0,0:0:0:0:
256,192,51656,1,8,0:0:0:0:
256,192,51983,1,8,0:0:0:0:
256,192,52146,1,0,0:0:0:0:
256,192,52309,1,0,0:0:0:0:
256,192,52472,1,8,0:0:0:0:
256,192,52798,1,4,0:0:0:0:
256,192,52961,1,4,0:0:0:0:
256,192,53124,1,4,0:0:0:0:
256,192,53287,1,4,0:0:0:0:
256,192,54102,1,0,0:0:0:0:
256,192,54428,1,0,0:0:0:0:
256,192,54591,1,8,0:0:0:0:
256,192,54754,1,0,0:0:0:0:
256,192,54917,1,8,0:0:0:0:
256,192,55080,1,0,0:0:0:0:
256,192,55406,1,0,0:0:0:0:
256,192,55569,1,0,0:0:0:0:
256,192,55651,1,0,0:0:0:0:
256,192,55733,1,0,0:0:0:0:
256,192,55896,1,0,0:0:0:0:
256,192,56222,1,0,0:0:0:0:
256,192,56385,1,8,0:0:0:0:
256,192,56711,1,0,0:0:0:0:
256,192,56874,1,0,0:0:0:0:
256,192,57037,1,0,0:0:0:0:
256,192,57363,1,8,0:0:0:0:
256,192,57526,1,8,0:0:0:0:
256,192,57689,1,8,0:0:0:0:
256,192,58015,1,0,0:0:0:0:
256,192,58178,1,0,0:0:0:0:
256,192,58504,1,0,0:0:0:0:
256,192,58830,1,8,0:0:0:0:
256,192,58993,1,8,0:0:0:0:
256,192,59319,1,0,0:0:0:0:
256,192,59646,1,0,0:0:0:0:
256,192,59809,1,8,0:0:0:0:
256,192,59972,1,0,0:0:0:0:
256,192,60135,1,8,0:0:0:0:
256,192,60298,1,0,0:0:0:0:
256,192,60624,1,0,0:0:0:0:
256,192,60787,1,0,0:0:0:0:
256,192,60868,1,0,0:0:0:0:
256,192,60950,1,0,0:0:0:0:
256,192,61113,1,0,0:0:0:0:
256,192,61439,1,0,0:0:0:0:
256,192,61602,1,8,0:0:0:0:
256,192,61928,1,0,0:0:0:0:
256,192,62091,1,0,0:0:0:0:
256,192,62254,1,0,0:0:0:0:
256,192,62580,1,8,0:0:0:0:
256,192,62743,1,8,0:0:0:0:
256,192,62906,1,8,0:0:0:0:
256,192,63233,1,4,0:0:0:0:
256,192,63559,1,4,0:0:0:0:
256,192,63885,1,4,0:0:0:0:
256,192,64537,1,0,0:0:0:0:
256,192,64863,1,0,0:0:0:0:
256,192,65026,1,8,0:0:0:0:
256,192,65189,1,0,0:0:0:0:
256,192,65352,1,8,0:0:0:0:
256,192,65515,1,0,0:0:0:0:
256,192,65841,1,0,0:0:0:0:
256,192,66004,1,0,0:0:0:0:
256,192,66086,1,0,0:0:0:0:
256,192,66167,1,0,0:0:0:0:
256,192,66330,1,0,0:0:0:0:
256,192,66656,1,0,0:0:0:0:
256,192,66819,1,8,0:0:0:0:
256,192,67146,1,0,0:0:0:0:
256,192,67309,1,0,0:0:0:0:
256,192,67472,1,0,0:0:0:0:
256,192,67798,1,8,0:0:0:0:
256,192,67961,1,8,0:0:0:0:
256,192,68124,1,8,0:0:0:0:
256,192,68450,1,0,0:0:0:0:
256,192,68613,1,0,0:0:0:0:
256,192,68939,1,0,0:0:0:0:
256,192,69754,1,0,0:0:0:0:
256,192,70080,1,0,0:0:0:0:
256,192,70243,1,8,0:0:0:0:
256,192,70406,1,0,0:0:0:0:
256,192,70569,1,8,0:0:0:0:
256,192,70733,1,0,0:0:0:0:
256,192,71059,1,0,0:0:0:0:
256,192,71222,1,0,0:0:0:0:
256,192,71303,1,0,0:0:0:0:
256,192,71385,1,0,0:0:0:0:
256,192,71548,1,0,0:0:0:0:
256,192,71874,1,0,0:0:0:0:
256,192,72037,1,8,0:0:0:0:
256,192,72363,1,0,0:0:0:0:
256,192,72526,1,0,0:0:0:0:
256,192,72689,1,0,0:0:0:0:
256,192,73015,1,8,0:0:0:0:
256,192,73178,1,8,0:0:0:0:
256,192,73341,1,8,0:0:0:0:
256,192,73667,1,4,0:0:0:0:
256,192,73993,1,4,0:0:0:0:
256,192,74319,12,0,74972,0:0:0:0:
256,192,75787,5,0,0:0:0:0:
256,192,75950,1,8,0:0:0:0:
256,192,76276,1,0,0:0:0:0:
256,192,76439,1,0,0:0:0:0:
256,192,76602,1,8,0:0:0:0:
256,192,76765,1,0,0:0:0:0:
256,192,77091,1,0,0:0:0:0:
256,192,77254,1,8,0:0:0:0:
256,192,77580,1,0,0:0:0:0:
256,192,77743,1,0,0:0:0:0:
256,192,77906,1,8,0:0:0:0:
256,192,78069,1,0,0:0:0:0:
256,192,78396,1,0,0:0:0:0:
256,192,78559,1,8,0:0:0:0:
256,192,78885,1,0,0:0:0:0:
256,192,79211,1,8,0:0:0:0:
256,192,79537,1,0,0:0:0:0:
256,192,79700,1,0,0:0:0:0:
256,192,79863,1,8,0:0:0:0:
256,192,80189,1,0,0:0:0:0:
256,192,80352,1,0,0:0:0:0:
256,192,80515,1,0,0:0:0:0:
256,192,80678,1,0,0:0:0:0:
256,192,81004,1,0,0:0:0:0:
256,192,81167,1,0,0:0:0:0:
256,192,81493,2,0,B|32:96|32:96|128:96|128:96|128:64|128:64|192:64|192:64,1,420
256,192,82635,12,0,87934,0:0:0:0:
