osu file format v12

[General]
AudioFilename: nourinOP.mp3
AudioLeadIn: 1500
PreviewTime: 54065
Countdown: 0
SampleSet: Soft
StackLeniency: 0.5
Mode: 0
LetterboxInBreaks: 0
WidescreenStoryboard: 1

[Editor]
DistanceSpacing: 0.5
BeatDivisor: 4
GridSize: 4

[Metadata]
Title:Himitsu no Door kara Ai ni Kite (TV Size)
TitleUnicode:秘密の扉から会いにきて (TV Size)
Artist:Tamura Yukari
ArtistUnicode:田村ゆかり
Creator:Flower
Version:Insane
Source:No-Rin
Tags:nourin のうりん opening
BeatmapID:358821
BeatmapSetID:144464

[Difficulty]
HPDrainRate:6
CircleSize:4
OverallDifficulty:8
ApproachRate:9
SliderMultiplier:1.76
SliderTickRate:1

[Events]
//Background and Video events
0,0,"bg123.jpg",0,0
Video,0,"nourin-op.avi"
//Break Periods
//Storyboard Layer 0 (Background)
//Storyboard Layer 1 (Fail)
//Storyboard Layer 2 (Pass)
//Storyboard Layer 3 (Foreground)
//Storyboard Sound Samples
//Background Colour Transformations
3,100,0,0,0

[TimingPoints]
-680,326.086956521739,4,2,1,60,1,0
5841,-100,4,2,1,60,0,1
8450,-100,4,3,1,50,0,1
11059,-100,4,2,1,30,0,0
12037,-83.3333333333333,4,2,1,60,0,0
12363,-100,4,2,1,60,0,0
22309,-100,4,2,1,40,0,0
30624,-83.3333333333333,4,2,1,50,0,0
31765,-100,4,2,1,40,0,0
33233,-100,4,2,1,60,0,0
43667,-100,4,2,1,50,0,0
53613,-100,4,3,1,50,0,0
54102,-100,4,2,1,60,0,1
74972,-100,4,2,1,30,0,0
75950,-83.3333333333333,4,2,1,60,0,0
76276,-100,4,2,1,60,0,0
81493,-100,4,2,1,50,0,0
82635,-100,4,2,1,60,0,0
85406,-100,4,2,1,50,0,0
86059,-100,4,2,1,40,0,0
86711,-100,4,2,1,30,0,0
87363,-100,4,2,1,20,0,0

[Colours]
Combo1 : 255,147,74
Combo2 : 169,216,241
Combo3 : 220,81,255
Combo4 : 255,211,164

[HitObjects]
70,213,624,2,0,P|47:161|46:123,1,88,2|0,0:0|0:0,0:0:0:0:
195,56,950,2,0,P|218:108|219:146,1,88,2|0,0:0|0:0,0:0:0:0:
45,130,1276,2,0,L|154:116,1,88
242,213,1602,2,0,L|133:227,1,88,2|0,0:0|0:0,0:0:0:0:
207,116,1928,6,0,L|215:20,1,88
263,248,2254,2,0,B|276:271|276:271|266:334,1,88,2|0,0:0|0:0,0:0:0:0:
156,203,2580,2,0,P|117:218|64:213,1,88,0|2,0:0|0:0,0:0:0:0:
294,143,2906,2,0,P|333:128|386:133,1,88,2|0,0:0|0:0,0:0:0:0:
471,101,3233,6,0,L|480:12,1,88,4|0,0:0|0:0,0:0:0:0:
440,185,3559,2,0,B|456:204|456:204|466:272,1,88,2|0,0:0|0:0,0:0:0:0:
298,123,3885,2,0,L|315:30,1,88
355,261,4211,2,0,L|368:361,1,88,2|0,0:0|0:0,0:0:0:0:
219,178,4537,6,0,P|148:187|103:148,1,132,4|0,0:0|0:0,0:0:0:0:
34,171,4863,1,0,0:0:0:0:
179,109,5026,2,0,P|249:99|294:138,1,132,4|0,0:0|0:0,0:0:0:0:
288,211,5352,2,0,L|278:310,1,88,0|2,0:0|0:0,0:0:0:0:
172,350,5678,5,0,3:0:0:0:
149,351,5760,1,0,3:0:0:0:
127,352,5841,1,4,0:0:0:0:
219,178,6004,1,0,0:0:0:0:
194,349,6167,1,8,0:0:0:0:
96,192,6330,2,0,L|146:186,1,44,2|0,0:0|0:0,0:0:0:0:
259,103,6493,6,0,B|270:80|270:80|256:15,1,88,0|2,0:0|0:2,0:0:0:0:
219,178,6819,2,0,P|237:230|227:269,1,88,8|0,0:0|0:0,0:0:0:0:
179,323,7064,1,0,0:0:0:0:
159,332,7146,6,0,L|64:334,1,88,0|0,0:0|0:0,0:0:0:0:
43,256,7390,2,0,L|-6:251,1,44,0|8,0:0|0:0,0:0:0:0:
110,45,7635,1,2,0:0:0:0:
131,48,7716,1,0,0:0:0:0:
152,50,7798,6,0,L|202:59,1,44,0|0,0:0|0:0,0:0:0:0:
218,193,7961,2,0,L|268:183,1,44,8|0,0:0|0:0,0:0:0:0:
293,71,8124,2,0,L|343:80,1,44,8|0,0:0|0:0,0:0:0:0:
360,162,8287,2,0,L|410:152,1,44
477,85,8450,5,4,0:2:0:0:
453,99,8531,1,0,0:0:0:0:
436,121,8613,1,0,0:0:0:0:
427,147,8694,1,0,0:0:0:0:
429,174,8776,1,8,0:2:0:0:
440,199,8857,1,0,0:0:0:0:
459,219,8939,1,0,0:0:0:0:
484,231,9020,1,0,0:0:0:0:
511,235,9102,6,0,L|506:285,1,44,6|0,0:2|0:0,0:0:0:0:
387,354,9265,2,0,L|437:359,1,44
426,236,9428,6,0,L|421:286,1,44,8|0,0:2|0:0,0:0:0:0:
298,256,9591,2,0,L|348:261,1,44,0|0,0:0|0:0,0:0:0:0:
288,337,9754,5,2,0:2:0:0:
261,340,9836,1,0,0:0:0:0:
234,343,9917,1,0,0:0:0:0:
207,346,9999,1,0,0:0:0:0:
172,299,10080,5,8,0:2:0:0:
145,295,10162,1,0,0:0:0:0:
118,291,10243,1,0,0:0:0:0:
91,287,10325,1,0,0:0:0:0:
28,327,10406,6,0,L|35:370,3,44,4|0|0|0,0:2|0:0|0:0|0:0,0:0:0:0:
128,196,10733,2,0,L|120:153,3,44,0|0|0|0,0:0|0:0|0:0|0:0,0:0:0:0:
128,196,11059,6,0,B|52:192|24:116|60:37|148:24|209:75|200:140|200:140|240:136|240:136|256:108,1,396
272,20,11874,2,0,P|287:41|300:66,1,44,0|0,1:0|1:0,0:0:0:0:
359,118,12037,6,0,L|522:136,1,158.399995166016,8|0,0:2|0:0,0:0:0:0:
500,154,12363,6,0,L|402:143,1,88,4|0,0:0|0:0,0:0:0:0:
350,37,12689,2,0,L|447:47,1,88,8|0,0:0|0:0,0:0:0:0:
327,207,13015,1,0,0:0:0:0:
350,37,13178,1,2,0:0:0:0:
346,219,13341,1,8,0:0:0:0:
329,35,13504,1,0,0:0:0:0:
362,231,13667,6,0,L|452:217,1,88,2|0,0:0|0:0,0:0:0:0:
312,33,13993,2,0,P|283:69|283:119,1,88,8|0,0:0|0:0,0:0:0:0:
375,124,14319,1,0,0:0:0:0:
248,187,14483,1,2,0:0:0:0:
454,202,14646,1,8,0:0:0:0:
361,342,14809,1,2,0:0:0:0:
175,256,14972,6,0,P|150:218|150:174,1,88,2|0,0:0|0:0,0:0:0:0:
269,275,15298,2,0,B|284:299|284:299|272:372,1,88,8|0,0:0|0:0,0:0:0:0:
248,187,15624,2,0,L|345:181,1,88,0|2,0:0|0:0,0:0:0:0:
159,277,15950,2,0,L|66:269,1,88,8|0,0:0|0:0,0:0:0:0:
87,32,16276,5,4,0:0:0:0:
17,122,16439,1,0,0:0:0:0:
111,186,16602,1,4,0:0:0:0:
181,96,16765,1,0,0:0:0:0:
15,129,16928,5,4,0:0:0:0:
183,89,17091,1,2,0:0:0:0:
18,114,17254,1,0,0:0:0:0:
180,106,17417,1,2,0:0:0:0:
337,173,17580,6,0,B|357:185|357:185|431:180,1,88,4|0,0:0|0:0,0:0:0:0:
279,27,17906,2,0,P|261:76|274:120,1,88,8|0,0:0|0:0,0:0:0:0:
312,347,18233,2,0,P|330:298|317:254,1,88,0|2,0:0|0:0,0:0:0:0:
268,109,18559,1,8,0:0:0:0:
245,291,18722,1,0,0:0:0:0:
406,263,18885,6,0,L|506:273,1,88,2|0,0:0|0:0,0:0:0:0:
424,126,19211,2,0,L|515:112,1,88,8|0,0:0|0:0,0:0:0:0:
406,263,19537,1,0,0:0:0:0:
402,117,19700,1,2,0:0:0:0:
493,271,19863,1,8,0:0:0:0:
383,109,20026,2,0,L|424:126,1,44,2|0,0:0|0:0,0:0:0:0:
350,33,20189,5,0,3:0:0:0:
327,35,20271,1,0,3:0:0:0:
305,37,20352,2,0,L|251:43,1,44,0|0,3:0|3:0,0:0:0:0:
253,228,20515,2,0,P|295:195|289:101,1,132,4|0,0:0|0:0,0:0:0:0:
186,25,20841,6,0,P|184:52|192:78,1,44,0|0,3:0|3:0,0:0:0:0:
179,158,21004,2,0,P|201:156|222:149,1,44,0|0,3:0|3:0,0:0:0:0:
107,98,21167,1,4,0:0:0:0:
89,95,21249,1,0,3:0:0:0:
71,92,21330,1,0,3:0:0:0:
53,89,21412,1,0,3:0:0:0:
35,66,21493,5,4,0:0:0:0:
130,225,21656,1,0,0:0:0:0:
186,25,21819,1,2,0:0:0:0:
25,168,21983,1,0,0:0:0:0:
25,168,22309,5,0,3:0:0:0:
27,185,22390,1,0,3:0:0:0:
29,202,22472,1,0,3:0:0:0:
31,219,22553,1,0,3:0:0:0:
33,236,22635,1,0,3:0:0:0:
35,253,22716,1,0,3:0:0:0:
37,270,22798,6,0,L|59:181,1,88,4|0,0:0|0:0,0:0:0:0:
150,118,23124,2,0,B|173:104|173:104|243:114,1,88,0|0,0:0|3:0,0:0:0:0:
78,166,23450,6,0,L|46:294,1,132,2|0,0:0|0:0,0:0:0:0:
97,348,23776,2,0,P|148:339|196:356,1,88,8|0,3:0|0:0,0:0:0:0:
302,376,24102,1,2,0:0:0:0:
420,342,24265,1,0,0:0:0:0:
417,218,24428,1,2,0:0:0:0:
300,177,24591,1,0,0:0:0:0:
227,276,24754,6,0,P|170:274|135:210,1,132
78,166,25080,1,8,3:0:0:0:
97,348,25243,1,0,3:0:0:0:
74,349,25325,1,0,3:0:0:0:
52,350,25406,1,2,0:0:0:0:
156,202,25569,5,0,0:0:0:0:
97,348,25733,1,0,0:0:0:0:
78,166,25896,1,2,0:0:0:0:
158,287,26059,1,2,0:0:0:0:
153,118,26222,1,0,0:0:0:0:
3,206,26385,1,8,3:0:0:0:
72,319,26548,6,0,L|119:318,1,44,0|0,3:0|3:0,0:0:0:0:
206,355,26711,2,0,P|254:343|298:351,1,88,4|0,0:0|0:0,0:0:0:0:
244,193,27037,1,0,0:0:0:0:
291,348,27200,1,4,0:0:0:0:
447,363,27363,1,0,3:0:0:0:
453,342,27444,1,0,3:0:0:0:
459,320,27526,1,0,3:0:0:0:
267,270,27689,1,2,0:0:0:0:
485,248,27852,1,0,0:0:0:0:
244,193,28015,6,0,P|300:176|331:106,1,132,4|0,0:0|0:0,0:0:0:0:
303,46,28341,1,2,0:0:0:0:
383,195,28504,1,0,3:0:0:0:
249,113,28667,2,0,L|158:107,1,88
234,274,28993,2,0,L|134:288,1,88,8|0,3:0|0:0,0:0:0:0:
117,173,29319,5,2,0:0:0:0:
234,274,29483,1,0,0:0:0:0:
117,173,29646,1,0,0:0:0:0:
91,352,29809,1,0,3:0:0:0:
46,218,29972,2,0,P|100:253|171:231,1,132,2|0,0:0|0:0,0:0:0:0:
220,187,30298,2,0,L|213:98,1,88,8|0,3:0|0:0,0:0:0:0:
460,34,30624,6,0,B|479:71|479:71|475:128|425:150|425:150|431:217,1,211.199993554688,4|0,0:0|0:0,0:0:0:0:
431,217,31113,1,4,0:0:0:0:
306,114,31276,1,0,3:0:0:0:
445,138,31439,1,0,3:0:0:0:
351,253,31602,1,0,3:0:0:0:
445,138,31765,2,0,L|394:130,1,44,0|0,0:0|0:0,0:0:0:0:
306,114,31928,5,4,0:0:0:0:
303,101,32091,1,0,0:0:0:0:
274,280,32254,1,2,0:0:0:0:
271,293,32417,1,0,0:0:0:0:
269,306,32743,5,0,3:0:0:0:
267,319,32825,1,0,3:0:0:0:
265,332,32906,1,0,3:0:0:0:
200,208,33069,1,0,3:0:0:0:
200,208,33151,1,0,3:0:0:0:
200,208,33233,6,0,B|170:221|170:221|112:211,1,88,4|0,0:0|0:0,0:0:0:0:
55,135,33559,2,0,L|46:44,1,88,8|0,0:0|0:0,0:0:0:0:
14,227,33885,2,0,L|23:318,1,88,4|0,0:3|0:0,0:0:0:0:
149,129,34211,2,0,L|243:119,1,88,8|0,0:0|0:0,0:0:0:0:
178,300,34537,5,4,0:3:0:0:
149,129,34700,1,0,0:0:0:0:
151,294,34863,1,8,0:0:0:0:
177,127,35026,1,0,0:0:0:0:
244,246,35189,5,4,0:3:0:0:
71,171,35352,1,0,0:0:0:0:
210,54,35515,1,8,0:0:0:0:
244,246,35678,1,0,0:0:0:0:
300,88,35841,6,0,L|394:83,1,88,4|2,0:3|0:0,0:0:0:0:
462,100,36086,1,0,0:0:0:0:
482,116,36167,2,0,P|494:169|486:201,1,88,8|0,0:0|0:3,0:0:0:0:
460,268,36412,2,4,P|479:273|510:266,1,44,0|0,0:0|0:0,2:3:0:0:
372,157,36656,1,2,0:0:0:0:
349,159,36738,1,0,0:0:0:0:
327,161,36819,1,8,0:0:0:0:
365,369,36983,1,0,0:0:0:0:
367,347,37064,1,0,0:0:0:0:
369,325,37146,5,4,0:0:0:0:
372,157,37309,1,0,3:0:0:0:
371,303,37472,5,2,0:0:0:0:
349,159,37635,1,0,3:0:0:0:
373,281,37798,5,2,0:0:0:0:
327,161,37961,1,0,3:0:0:0:
375,260,38124,5,2,0:0:0:0:
288,93,38287,1,0,3:0:0:0:
188,249,38450,6,0,P|141:269|68:239,1,132,4|0,0:0|0:0,0:0:0:0:
31,179,38776,2,0,L|36:86,1,88,8|0,0:0|0:0,0:0:0:0:
259,82,39102,2,0,L|254:175,1,88,4|0,0:3|0:0,0:0:0:0:
54,208,39428,2,0,L|59:115,1,88,8|0,0:0|0:0,0:0:0:0:
239,65,39754,6,0,P|301:96|372:63,1,132,4|0,0:3|0:0,0:0:0:0:
411,29,40080,1,8,0:0:0:0:
360,163,40243,1,0,0:0:0:0:
473,82,40406,2,0,B|495:107|495:107|491:166,1,88,4|0,0:3|0:0,0:0:0:0:
295,261,40733,2,0,B|273:236|273:236|277:177,1,88,8|0,0:0|0:0,0:0:0:0:
498,238,41059,6,0,L|408:228,1,88,4|2,0:3|0:0,0:0:0:0:
364,311,41303,1,0,0:0:0:0:
351,334,41385,2,0,P|311:351|263:343,1,88,8|0,0:0|0:0,0:0:0:0:
285,178,41711,1,4,0:3:0:0:
351,334,41874,1,8,0:3:0:0:
327,153,42037,1,4,0:3:0:0:
267,345,42200,5,4,0:0:0:0:
205,164,42363,1,4,0:3:0:0:
247,341,42526,1,2,0:0:0:0:
389,201,42689,1,8,0:0:0:0:
223,334,42852,6,0,L|127:310,1,88,2|4,0:0|0:0,0:0:0:0:
327,153,43178,2,0,L|275:238,1,88,0|0,0:0|0:0,0:0:0:0:
188,156,43504,1,0,0:0:0:0:
213,345,43667,6,0,L|68:309,1,132,4|0,0:0|0:0,0:0:0:0:
35,365,43993,2,0,P|13:311|22:278,1,88,2|0,0:0|0:0,0:0:0:0:
69,188,44319,2,0,B|94:167|94:167|147:188|188:156,1,132,4|0,0:3|0:0,0:0:0:0:
229,92,44646,2,0,L|278:97,1,44,2|0,0:0|0:0,0:0:0:0:
251,202,44809,2,0,L|300:207,1,44
341,143,44972,5,4,0:3:0:0:
187,156,45135,2,0,P|171:200|261:281,1,176,2|0,0:0|0:0,0:0:0:0:
341,143,45624,1,2,0:0:0:0:
181,241,45787,1,8,0:3:0:0:
339,238,45950,1,2,0:0:0:0:
339,238,46031,1,0,3:0:0:0:
255,96,46194,1,0,0:0:0:0:
255,96,46276,6,0,P|305:55|371:56,1,132,4|0,0:0|0:0,0:0:0:0:
417,108,46602,1,2,0:0:0:0:
466,201,46765,1,0,3:0:0:0:
449,78,46928,1,4,0:3:0:0:
426,236,47091,1,0,0:0:0:0:
426,236,47173,1,0,0:0:0:0:
426,236,47254,2,0,L|339:238,1,88,2|0,0:0|0:0,0:0:0:0:
207,175,47580,5,4,0:0:0:0:
324,315,47743,1,0,0:0:0:0:
352,161,47906,1,8,0:3:0:0:
229,277,48069,1,4,0:0:0:0:
207,175,48233,5,4,0:3:0:0:
288,106,48396,1,0,3:0:0:0:
288,106,48477,1,0,3:0:0:0:
301,217,48640,1,0,3:0:0:0:
301,217,48722,1,0,0:0:0:0:
134,353,48885,6,0,B|111:329|111:329|115:272,1,88,4|0,0:0|0:0,0:0:0:0:
207,175,49211,1,8,0:0:0:0:
204,148,49292,1,0,0:0:0:0:
201,121,49374,1,4,0:0:0:0:
198,94,49455,1,0,0:0:0:0:
195,67,49537,1,0,0:0:0:0:
105,133,49700,1,0,0:0:0:0:
288,106,49863,2,0,L|282:53,1,44,8|0,0:0|0:0,0:0:0:0:
357,77,50026,2,0,L|363:130,1,44
434,137,50189,6,0,L|424:49,1,88,4|0,0:0|0:0,0:0:0:0:
510,116,50434,1,0,0:0:0:0:
510,116,50515,2,0,B|521:151|521:151|509:210,1,88,8|4,0:0|0:0,0:0:0:0:
452,254,50760,1,0,0:0:0:0:
427,262,50841,2,0,L|339:260,1,88
288,106,51167,1,12,0:0:0:0:
339,260,51330,1,0,0:0:0:0:
213,311,51493,5,4,0:0:0:0:
334,178,51656,1,0,0:0:0:0:
389,353,51819,1,8,0:0:0:0:
263,224,51983,1,4,0:0:0:0:
263,224,52064,1,0,0:0:0:0:
129,323,52227,1,0,0:0:0:0:
129,323,52309,1,0,0:0:0:0:
296,335,52472,1,12,0:0:0:0:
179,233,52635,1,0,0:0:0:0:
213,311,52798,5,4,0:0:0:0:
334,178,52961,1,4,0:0:0:0:
129,323,53124,1,0,0:0:0:0:
418,166,53287,1,4,0:0:0:0:
418,166,53613,5,0,0:0:0:0:
418,166,53694,1,0,0:0:0:0:
418,166,53776,2,0,L|466:162,1,44
334,178,53939,1,0,0:0:0:0:
334,178,54021,1,0,0:0:0:0:
334,178,54102,6,0,B|313:151|313:151|318:96,1,88,4|0,0:0|0:0,0:0:0:0:
387,247,54428,2,0,L|381:335,1,88,8|0,0:0|0:0,0:0:0:0:
234,134,54754,2,0,L|139:125,1,88,0|2,0:0|0:0,0:0:0:0:
221,280,55080,2,0,P|272:279|308:255,1,88,8|0,0:0|0:0,0:0:0:0:
234,134,55406,5,2,0:0:0:0:
221,280,55569,1,0,0:0:0:0:
256,101,55733,1,8,0:0:0:0:
207,309,55896,1,2,0:0:0:0:
86,233,56059,2,0,B|56:213|56:213|51:162,1,88,0|4,0:0|0:0,0:0:0:0:
140,49,56385,1,8,0:0:0:0:
256,101,56548,1,2,0:0:0:0:
282,100,56629,1,0,0:0:0:0:
308,99,56711,1,4,0:0:0:0:
291,239,56874,5,0,0:0:0:0:
256,101,57037,1,8,0:0:0:0:
265,240,57200,1,0,0:0:0:0:
282,100,57363,1,2,0:0:0:0:
239,241,57526,1,0,0:0:0:0:
308,99,57689,1,8,0:0:0:0:
190,163,57852,5,0,0:0:0:0:
190,163,57934,1,0,0:0:0:0:
190,163,58015,2,0,P|163:118|174:71,1,88,4|2,0:0|0:0,0:0:0:0:
241,28,58260,1,0,0:0:0:0:
266,24,58341,2,0,L|365:23,1,88,8|4,0:0|0:0,0:0:0:0:
492,323,58830,5,2,0:0:0:0:
400,245,58993,1,8,0:0:0:0:
469,144,59156,1,2,0:0:0:0:
409,339,59319,2,0,P|366:355|316:341,1,88,4|0,0:0|0:0,0:0:0:0:
486,230,59646,1,8,0:0:0:0:
409,339,59809,1,0,0:0:0:0:
331,182,59972,2,0,L|336:85,1,88,0|2,0:0|0:0,0:0:0:0:
241,296,60298,2,0,L|142:299,1,88,8|0,0:0|0:0,0:0:0:0:
240,179,60624,5,2,0:0:0:0:
312,330,60787,1,0,0:0:0:0:
207,165,60950,1,8,0:0:0:0:
345,352,61113,1,2,0:0:0:0:
345,352,61194,1,0,0:0:0:0:
345,352,61276,1,0,0:0:0:0:
416,256,61439,2,0,L|426:160,1,88,4|8,0:0|0:0,0:0:0:0:
325,100,61765,1,2,0:0:0:0:
208,258,61928,6,0,P|163:278|117:273,1,88,0|0,3:0|3:0,0:0:0:0:
48,235,62173,1,0,3:0:0:0:
35,211,62254,2,0,L|30:77,1,132,4|0,0:0|0:0,0:0:0:0:
171,37,62580,6,0,L|173:104,1,44,2|0,0:0|3:0,0:0:0:0:
68,147,62743,2,0,L|65:80,1,44,0|0,3:0|3:0,0:0:0:0:
200,28,62906,2,0,L|203:128,1,88,4|0,0:0|0:0,0:0:0:0:
208,258,63233,5,2,0:0:0:0:
203,115,63396,1,4,0:0:0:0:
275,186,63559,1,8,0:0:0:0:
132,191,63722,1,4,0:0:0:0:
318,256,63885,2,0,P|350:215|348:163,1,88,0|0,3:3|3:0,0:0:0:0:
348,145,64129,1,0,3:0:0:0:
321,121,64211,1,0,3:0:0:0:
322,86,64292,1,0,3:0:0:0:
343,57,64374,1,0,3:0:0:0:
377,58,64455,1,0,3:0:0:0:
407,75,64537,6,0,B|442:108|436:158,1,88,4|0,0:0|0:0,0:0:0:0:
275,186,64863,2,0,L|176:185,1,88,8|0,0:0|0:0,0:0:0:0:
389,348,65189,2,0,P|371:303|378:257,1,88,0|2,0:0|0:0,0:0:0:0:
394,246,65434,2,0,L|439:243,1,44,0|8,0:0|0:0,0:0:0:0:
278,269,65678,1,0,0:0:0:0:
222,123,65841,5,2,0:0:0:0:
203,300,66004,1,0,0:0:0:0:
202,91,66167,1,8,0:0:0:0:
223,332,66330,1,2,0:0:0:0:
30,214,66493,6,0,L|42:122,1,88,0|4,0:0|0:0,0:0:0:0:
98,70,66738,1,0,0:0:0:0:
98,70,66819,2,0,P|143:59|196:67,1,88,8|2,0:0|0:0,0:0:0:0:
335,162,67146,6,0,P|385:188|456:166,1,132,4|0,0:0|0:0,0:0:0:0:
490,103,67472,1,8,0:0:0:0:
446,253,67635,1,0,0:0:0:0:
398,110,67798,2,0,P|348:84|277:106,1,132,4|0,0:0|0:0,0:0:0:0:
243,169,68124,1,8,0:0:0:0:
287,19,68287,1,0,0:0:0:0:
335,162,68450,5,4,0:0:0:0:
124,110,68613,1,4,0:0:0:0:
358,188,68776,1,8,0:0:0:0:
101,84,68939,1,4,0:0:0:0:
101,84,69265,5,0,3:0:0:0:
101,84,69347,1,0,3:0:0:0:
101,84,69428,1,0,3:0:0:0:
183,178,69591,1,0,3:0:0:0:
49,269,69754,2,0,B|36:287|36:287|46:360,1,88,4|0,0:0|0:0,0:0:0:0:
183,178,70080,2,0,L|271:183,1,88,8|0,0:0|0:0,0:0:0:0:
38,140,70406,2,0,P|17:91|27:50,1,88,0|2,0:0|0:0,0:0:0:0:
217,277,70733,2,0,L|129:282,1,88,8|0,0:0|0:0,0:0:0:0:
190,94,71059,5,2,0:0:0:0:
217,277,71222,1,0,0:0:0:0:
137,176,71385,1,8,0:0:0:0:
273,83,71548,1,2,0:0:0:0:
294,84,71629,1,0,0:0:0:0:
316,85,71711,1,0,0:0:0:0:
226,190,71874,5,4,0:0:0:0:
116,43,72037,1,8,0:0:0:0:
273,83,72200,1,2,0:0:0:0:
137,176,72363,6,0,L|133:231,1,44,0|0,3:0|3:0,0:0:0:0:
96,313,72526,1,0,0:0:0:0:
96,313,72608,1,0,3:0:0:0:
96,313,72689,2,0,P|46:274|38:206,1,132,4|0,0:0|0:0,0:0:0:0:
163,160,73015,6,0,L|159:215,1,44,0|0,3:0|3:0,0:0:0:0:
46,181,73178,2,0,L|50:126,1,44,0|0,3:0|3:0,0:0:0:0:
187,143,73341,2,0,L|179:241,1,88,4|0,0:0|0:0,0:0:0:0:
368,253,73667,5,2,0:0:0:0:
211,309,73830,1,4,0:0:0:0:
376,214,73993,1,8,0:0:0:0:
203,348,74156,1,4,0:0:0:0:
46,181,74319,2,0,L|53:81,1,88,2|0,0:0|0:0,0:0:0:0:
46,181,74646,1,0,3:0:0:0:
176,40,74809,1,0,3:0:0:0:
176,40,74890,1,0,3:0:0:0:
176,40,74972,6,0,B|107:59|96:144|151:211|239:200|285:135|260:75|260:75|299:68|299:68|322:91,1,396
368,32,75787,2,0,P|383:55|391:79,1,44,0|0,1:0|1:0,0:0:0:0:
407,189,75950,6,0,L|396:350,1,158.399995166016,8|0,0:0|0:0,0:0:0:0:
422,343,76276,6,0,L|428:246,1,88,4|0,0:0|0:0,0:0:0:0:
331,151,76602,2,0,L|324:247,1,88,8|0,0:0|0:0,0:0:0:0:
239,265,76928,1,0,0:0:0:0:
422,343,77091,1,2,0:0:0:0:
215,267,77254,1,8,0:0:0:0:
444,348,77417,1,0,0:0:0:0:
190,271,77580,6,0,P|164:235|162:186,1,88,0|2,0:0|0:0,0:0:0:0:
253,71,77906,2,0,L|348:66,1,88,8|0,0:0|0:0,0:0:0:0:
256,160,78233,1,0,0:0:0:0:
171,39,78396,1,0,3:0:0:0:
144,40,78477,1,0,3:0:0:0:
117,41,78559,1,8,0:0:0:0:
340,66,78722,1,2,0:0:0:0:
64,116,78885,5,0,3:0:0:0:
61,137,78966,1,0,3:0:0:0:
59,159,79048,2,0,L|52:214,1,44,0|0,3:0|3:0,0:0:0:0:
256,160,79211,2,0,P|210:203|133:193,1,132,4|0,0:0|0:0,0:0:0:0:
106,269,79537,6,0,L|99:324,1,44,0|0,3:0|3:0,0:0:0:0:
24,275,79700,2,0,L|31:220,1,44,0|0,3:0|3:0,0:0:0:0:
187,348,79863,2,0,P|237:333|276:348,1,88,4|0,0:0|0:0,0:0:0:0:
338,369,80108,1,0,0:0:0:0:
364,368,80189,5,4,0:0:0:0:
496,242,80352,1,4,0:0:0:0:
486,361,80515,1,0,0:0:0:0:
346,206,80678,1,4,0:0:0:0:
346,206,81004,5,0,3:0:0:0:
324,208,81086,1,0,3:0:0:0:
302,210,81167,1,0,3:0:0:0:
280,212,81249,1,0,3:0:0:0:
258,214,81330,1,0,3:0:0:0:
236,216,81412,1,0,3:0:0:0:
214,218,81493,2,0,L|160:224,3,44,2|0|0|0,0:0|0:0|0:0|0:0,0:0:0:0:
119,166,81819,5,4,0:0:0:0:
97,169,81901,2,0,L|43:175,1,44
33,280,82064,1,2,0:0:0:0:
55,277,82146,2,0,L|109:271,1,44
177,315,82309,1,2,0:0:0:0:
199,312,82391,2,0,L|253:306,1,44,0|4,0:0|0:0,0:0:0:0:
334,98,82635,1,4,0:0:0:0:
256,192,82798,12,0,87934,0:0:0:0:
