osu file format v12

[General]
AudioFilename: nourinOP.mp3
AudioLeadIn: 1500
PreviewTime: 54065
Countdown: 0
SampleSet: Soft
StackLeniency: 0.5
Mode: 0
LetterboxInBreaks: 0
WidescreenStoryboard: 1

[Editor]
DistanceSpacing: 1.1
BeatDivisor: 4
GridSize: 4

[Metadata]
Title:Himitsu no Door kara Ai ni Kite (TV Size)
TitleUnicode:秘密の扉から会いにきて (TV Size)
Artist:Tamura Yukari
ArtistUnicode:田村ゆかり
Creator:Flower
Version:Hard
Source:No-Rin
Tags:nourin のうりん opening
BeatmapID:358820
BeatmapSetID:144464

[Difficulty]
HPDrainRate:5
CircleSize:4
OverallDifficulty:6
ApproachRate:7
SliderMultiplier:1.44
SliderTickRate:1

[Events]
//Background and Video events
0,0,"bg123.jpg",0,0
Video,0,"nourin-op.avi"
//Break Periods
//Storyboard Layer 0 (Background)
//Storyboard Layer 1 (Fail)
//Storyboard Layer 2 (Pass)
//Storyboard Layer 3 (Foreground)
//Storyboard Sound Samples
//Background Colour Transformations
3,100,0,0,0

[TimingPoints]
-680,326.086956521739,4,2,1,60,1,0
5841,-100,4,2,1,60,0,1
8450,-100,4,3,1,50,0,1
11059,-100,4,2,1,30,0,0
12037,-100,4,2,1,60,0,0
22309,-100,4,2,1,40,0,0
30624,-100,4,2,1,50,0,0
31765,-100,4,2,1,40,0,0
33233,-100,4,2,1,60,0,0
43667,-100,4,2,1,50,0,0
53613,-100,4,3,1,50,0,0
54102,-100,4,2,1,60,0,1
74972,-100,4,2,1,30,0,0
75950,-100,4,2,1,60,0,0
81493,-100,4,2,1,50,0,0
82635,-100,4,2,1,60,0,0
85406,-100,4,2,1,50,0,0
86059,-100,4,2,1,40,0,0
86711,-100,4,2,1,30,0,0
87363,-100,4,2,1,20,0,0

[Colours]
Combo1 : 255,147,74
Combo2 : 169,216,241
Combo3 : 220,81,255
Combo4 : 255,211,164

[HitObjects]
108,314,624,2,0,P|152:329|250:315,1,144,2|2,0:0|0:0,0:0:0:0:
396,264,1276,2,0,L|400:189,1,72,0|0,0:0|0:0,0:0:0:0:
324,167,1602,2,0,L|320:242,1,72,2|0,0:0|0:0,0:0:0:0:
241,240,1928,6,0,B|244:169|244:169|208:149|202:111,1,144,0|2,0:0|0:0,0:0:0:0:
250,48,2417,2,0,L|393:42,1,144,0|2,0:0|0:0,0:0:0:0:
455,91,2906,2,0,P|474:134|469:169,1,72,2|0,0:0|0:0,0:0:0:0:
422,220,3233,5,4,0:0:0:0:
290,132,3559,1,2,0:0:0:0:
207,266,3885,1,0,0:0:0:0:
339,354,4211,1,2,0:0:0:0:
180,349,4537,6,0,P|138:320|133:226,1,144,4|0,0:0|0:0,0:0:0:0:
186,178,5026,2,0,P|198:136|146:49,1,144,4|0,0:0|0:0,0:0:0:0:
73,52,5515,1,2,0:0:0:0:
22,113,5678,1,0,3:0:0:0:
22,113,5760,1,0,3:0:0:0:
22,113,5841,6,0,L|11:270,1,144,4|8,0:0|0:0,0:0:0:0:
68,312,6330,1,2,0:0:0:0:
117,250,6493,2,0,L|108:168,1,72,0|2,0:0|0:2,0:0:0:0:
149,110,6819,2,0,P|186:93|286:121,1,144,8|0,0:0|0:0,0:0:0:0:
249,190,7309,5,0,0:0:0:0:
317,230,7472,1,8,0:0:0:0:
284,302,7635,1,2,0:0:0:0:
351,342,7798,2,0,P|415:363|483:320,1,144,0|8,0:0|0:0,0:0:0:0:
441,257,8287,1,0,0:0:0:0:
441,257,8368,1,0,0:0:0:0:
441,257,8450,6,0,L|446:208,7,36,4|0|0|0|0|0|0|0,0:2|0:0|0:0|0:0|0:0|0:0|0:0|0:0,0:0:0:0:
409,202,9102,2,0,L|414:153,7,36,6|0|0|0|0|0|0|0,0:2|0:0|0:0|0:0|0:0|0:0|0:0|0:0,0:0:0:0:
448,149,9754,2,0,L|453:100,7,36,2|0|0|0|0|0|0|0,0:2|0:0|0:0|0:0|0:0|0:0|0:0|0:0,0:0:0:0:
416,94,10406,2,0,L|421:45,7,36,4|0|0|0|0|0|0|0,0:2|0:0|0:0|0:0|0:0|0:0|0:0|0:0,0:0:0:0:
387,33,11059,6,0,L|232:29,1,144,0|0,0:0|0:0,0:0:0:0:
120,44,11629,2,0,L|124:84,1,36
72,144,11874,1,0,1:0:0:0:
71,143,11955,1,0,1:0:0:0:
71,143,12037,1,8,0:2:0:0:
15,205,12200,1,0,0:0:0:0:
64,266,12363,6,0,P|112:270|134:260,1,72,4|0,0:0|0:0,0:0:0:0:
201,221,12689,2,0,P|259:208|335:238,1,144,8|0,0:0|0:0,0:0:0:0:
367,310,13178,1,2,0:0:0:0:
443,329,13341,2,0,P|491:308|504:286,1,72,8|0,0:0|0:0,0:0:0:0:
496,213,13667,6,0,L|480:68,1,144,2|8,0:0|0:0,0:0:0:0:
325,34,14319,2,0,L|241:28,1,72,0|2,0:0|0:0,0:0:0:0:
212,97,14646,2,0,L|141:103,1,72,8|2,0:0|0:0,0:0:0:0:
88,43,14972,5,2,0:0:0:0:
37,193,15298,1,8,0:0:0:0:
185,248,15624,1,0,0:0:0:0:
236,98,15950,1,8,0:0:0:0:
393,85,16276,6,0,L|469:75,1,72,4|0,0:0|0:0,0:0:0:0:
494,148,16602,2,0,L|418:158,1,72,4|0,0:0|0:0,0:0:0:0:
411,235,16928,2,0,L|487:225,1,72,4|2,0:0|0:0,0:0:0:0:
512,298,17254,2,0,L|436:308,1,72,0|2,0:0|0:0,0:0:0:0:
378,356,17580,6,0,P|321:371|248:316,1,144,4|8,0:0|0:0,0:0:0:0:
283,253,18069,1,0,0:0:0:0:
318,181,18233,2,0,L|308:98,1,72,0|2,0:0|0:0,0:0:0:0:
261,46,18559,2,0,P|208:38|186:45,1,72,8|0,0:0|0:0,0:0:0:0:
132,96,18885,6,0,L|140:167,2,72,2|0|8,0:0|0:0|0:0,0:0:0:0:
61,60,19374,1,0,0:0:0:0:
21,128,19537,2,0,B|10:165|10:165|51:205|38:263,1,144,0|8,0:0|0:0,0:0:0:0:
18,338,20026,1,2,0:0:0:0:
101,353,20189,5,0,3:0:0:0:
101,353,20271,1,0,3:0:0:0:
101,353,20352,1,0,3:0:0:0:
173,320,20515,2,0,P|266:321|309:352,1,144,4|0,0:0|3:0,0:0:0:0:
306,349,20923,1,0,3:0:0:0:
306,349,21004,1,0,3:0:0:0:
387,362,21167,2,0,L|464:349,1,72,4|0,0:0|3:0,0:0:0:0:
500,283,21493,5,4,0:0:0:0:
450,221,21656,1,0,0:0:0:0:
504,163,21819,1,2,0:0:0:0:
455,100,21982,1,0,0:0:0:0:
316,177,22309,2,0,L|316:221,2,36,0|0|0,3:0|3:0|3:0,0:0:0:0:
272,110,22635,1,0,3:0:0:0:
233,179,22798,6,0,P|195:193|80:164,1,144,4|0,0:0|0:0,0:0:0:0:
36,122,23287,1,0,3:0:0:0:
114,112,23450,2,0,P|104:168|28:200,1,144,2|8,0:0|3:0,0:0:0:0:
15,278,23939,1,0,0:0:0:0:
64,339,24102,6,0,B|116:363|168:343|168:343|193:300,1,144,2|2,0:0|0:0,0:0:0:0:
265,306,24591,1,0,0:0:0:0:
220,240,24754,2,0,P|204:199|208:164,2,72,0|0|8,0:0|0:0|3:0,0:0:0:0:
301,234,25243,1,0,3:0:0:0:
301,234,25325,1,0,3:0:0:0:
301,234,25406,6,0,L|453:224,1,144,2|0,0:0|0:0,0:0:0:0:
496,164,25896,1,0,0:0:0:0:
464,92,26059,2,0,L|312:102,1,144,2|8,0:0|3:0,0:0:0:0:
260,48,26548,1,0,3:0:0:0:
260,48,26629,1,0,3:0:0:0:
260,48,26711,6,0,P|209:45|178:58,1,72,4|0,0:0|0:0,0:0:0:0:
124,96,27037,2,0,L|112:180,1,72,0|4,0:0|0:0,0:0:0:0:
180,208,27363,2,0,L|187:290,1,72,0|0,3:0|3:0,0:0:0:0:
127,334,27689,1,2,0:0:0:0:
127,334,27852,1,0,0:0:0:0:
47,317,28015,6,0,P|9:272|26:186,1,144,4|2,0:0|0:0,0:0:0:0:
99,194,28504,1,0,3:0:0:0:
144,129,28667,2,0,L|298:125,1,144,0|8,0:0|3:0,0:0:0:0:
341,186,29156,1,0,0:0:0:0:
265,209,29319,6,0,P|306:260|384:251,1,144,2|0,0:0|0:0,0:0:0:0:
425,190,29809,1,0,3:0:0:0:
388,119,29972,1,2,0:0:0:0:
230,135,30298,1,8,3:0:0:0:
170,82,30461,1,0,0:0:0:0:
170,82,30542,1,0,0:0:0:0:
170,82,30624,6,0,B|131:68|131:68|88:110|26:87,1,144,4|0,0:0|0:0,0:0:0:0:
5,163,31113,1,4,0:0:0:0:
83,168,31276,2,0,P|96:208|91:246,1,72,0|0,3:0|3:0,0:0:0:0:
23,274,31602,2,0,P|21:309|33:343,1,72,0|0,3:0|0:0,0:0:0:0:
54,348,31847,1,0,0:0:0:0:
74,352,31928,6,0,L|157:343,1,72,4|0,0:0|0:0,0:0:0:0:
206,293,32254,2,0,L|287:302,1,72,2|0,0:0|0:0,0:0:0:0:
426,354,32743,2,0,L|466:354,2,36,0|0|0,3:0|3:0|3:0,0:0:0:0:
365,302,33069,1,0,3:0:0:0:
433,261,33233,6,0,P|446:210|438:182,1,72,4|0,0:0|0:0,0:0:0:0:
400,125,33559,2,0,L|319:122,1,72,8|0,0:0|0:0,0:0:0:0:
274,180,33885,2,0,P|229:198|131:178,1,144,4|8,0:3|0:0,0:0:0:0:
86,121,34374,1,0,0:0:0:0:
128,54,34537,6,0,L|199:45,1,72,4|0,0:3|0:0,0:0:0:0:
277,31,34863,2,0,P|315:43|360:34,1,72,8|0,0:0|0:0,0:0:0:0:
424,28,35189,2,0,L|440:102,1,72,4|0,0:3|0:0,0:0:0:0:
373,141,35515,2,0,L|389:215,1,72,8|0,0:0|0:0,0:0:0:0:
466,224,35841,6,0,P|434:277|346:279,1,144,4|8,0:3|0:0,0:0:0:0:
294,237,36330,2,0,P|218:226|156:249,1,144,8|2,0:3|0:0,0:0:0:0:
95,198,36819,2,0,L|90:117,1,72,8|0,0:0|0:0,0:0:0:0:
16,156,37146,6,0,L|21:237,1,72,4|0,0:0|3:0,0:0:0:0:
47,302,37472,2,0,P|93:316|128:309,1,72,2|0,0:0|3:0,0:0:0:0:
190,338,37798,2,0,P|231:325|266:332,1,72,2|0,0:0|3:0,0:0:0:0:
333,354,38124,1,2,0:0:0:0:
404,319,38287,1,0,3:0:0:0:
436,246,38450,6,0,L|426:102,1,144,4|8,0:0|0:0,0:0:0:0:
349,81,38939,2,0,L|359:225,1,144,0|0,0:0|0:0,0:0:0:0:
285,255,39428,2,0,P|241:237|221:212,1,72,8|0,0:0|0:0,0:0:0:0:
172,160,39754,6,0,B|113:154|113:154|91:197|41:194,1,144,4|8,0:3|0:0,0:0:0:0:
0,261,40243,2,0,L|4:337,1,72,0|4,0:0|0:3,0:0:0:0:
81,349,40569,2,0,L|77:273,1,72,0|8,0:0|0:0,0:0:0:0:
152,251,40896,1,0,0:0:0:0:
203,310,41059,6,0,P|252:337|347:322,1,144,4|8,0:3|0:0,0:0:0:0:
481,262,41711,1,4,0:3:0:0:
428,203,41874,1,8,0:3:0:0:
494,159,42037,1,4,0:3:0:0:
441,100,42200,1,4,0:0:0:0:
361,104,42363,6,0,L|284:107,1,72,4|2,0:3|0:0,0:0:0:0:
295,185,42689,2,0,L|218:188,1,72,8|2,0:0|0:0,0:0:0:0:
211,109,43015,2,0,L|134:112,1,72,4|0,0:0|0:0,0:0:0:0:
145,190,43341,2,0,L|68:193,1,72,0|0,0:0|0:0,0:0:0:0:
31,125,43667,6,0,P|-2:171|29:260,1,144,4|2,0:0|0:0,0:0:0:0:
88,287,44156,1,0,0:0:0:0:
167,282,44319,1,4,0:3:0:0:
310,350,44646,1,2,0:0:0:0:
458,294,44972,5,4,0:3:0:0:
458,294,45135,2,0,P|473:248|447:159,1,144,2|0,0:0|0:0,0:0:0:0:
386,108,45624,2,0,L|307:103,1,72,2|8,0:0|0:3,0:0:0:0:
286,177,45950,2,0,L|193:185,1,72,2|4,0:0|0:3,0:0:0:0:
185,257,46276,6,0,P|149:224|166:124,1,144,4|2,0:0|0:0,0:0:0:0:
221,90,46765,1,0,3:0:0:0:
297,68,46928,2,0,L|449:76,1,144,2|2,0:0|0:0,0:0:0:0:
492,135,47417,1,0,0:0:0:0:
432,182,47580,5,4,0:0:0:0:
490,235,47743,1,0,0:0:0:0:
429,286,47906,1,8,0:3:0:0:
487,339,48069,1,4,0:0:0:0:
328,337,48396,2,0,L|328:377,2,36,0|0|0,3:0|3:0|0:0,0:0:0:0:
278,275,48722,1,0,0:0:0:0:
330,215,48885,6,0,P|342:158|289:84,1,144,4|8,0:0|0:0,0:0:0:0:
220,75,49374,2,0,L|71:82,1,144,4|0,0:0|0:0,0:0:0:0:
14,131,49863,1,8,0:0:0:0:
77,178,50026,1,0,0:0:0:0:
9,219,50189,6,0,P|-1:275|59:343,1,144,4|8,0:0|0:0,0:0:0:0:
208,348,50841,2,0,L|366:341,1,144,0|12,0:0|0:0,0:0:0:0:
491,266,51493,6,0,P|500:220|489:187,1,72,4|0,0:0|0:0,0:0:0:0:
435,142,51819,2,0,L|356:134,1,72,8|4,0:0|0:0,0:0:0:0:
304,188,52146,2,0,P|255:203|231:202,1,72,0|0,0:0|0:0,0:0:0:0:
187,138,52472,2,0,L|116:123,1,72,12|0,0:0|0:0,0:0:0:0:
40,102,52798,5,4,0:0:0:0:
3,172,52961,1,4,0:0:0:0:
77,199,53124,1,0,0:0:0:0:
40,269,53287,1,4,0:0:0:0:
177,347,53613,1,0,0:0:0:0:
177,347,53694,1,0,0:0:0:0:
177,347,53776,1,0,0:0:0:0:
252,323,53939,1,0,0:0:0:0:
197,265,54102,6,0,P|248:244|328:287,1,144,4|8,0:0|0:0,0:0:0:0:
468,347,54754,2,0,L|476:273,1,72,0|2,0:0|0:0,0:0:0:0:
400,251,55080,2,0,L|408:177,1,72,8|0,0:0|0:0,0:0:0:0:
484,160,55406,5,2,0:0:0:0:
430,101,55569,1,0,0:0:0:0:
352,120,55733,2,0,P|311:129|271:117,1,72,8|2,0:0|0:0,0:0:0:0:
224,68,56059,2,0,P|186:56|141:62,1,72,0|4,0:0|0:0,0:0:0:0:
78,80,56385,1,8,0:0:0:0:
41,150,56548,1,2,0:0:0:0:
83,216,56711,5,4,0:0:0:0:
224,286,57037,1,8,0:0:0:0:
296,145,57363,1,2,0:0:0:0:
155,75,57689,1,8,0:0:0:0:
83,216,58015,6,0,L|67:300,1,72,4|2,0:0|0:0,0:0:0:0:
123,344,58341,2,0,P|171:358|206:354,1,72,8|4,0:0|0:0,0:0:0:0:
341,303,58830,1,2,0:0:0:0:
299,235,58993,1,8,0:0:0:0:
370,200,59156,1,2,0:0:0:0:
328,132,59319,6,0,P|369:122|451:179,1,144,4|8,0:0|0:0,0:0:0:0:
341,303,59972,2,0,P|299:317|261:305,1,72,0|2,0:0|0:0,0:0:0:0:
212,260,60298,2,0,L|210:179,1,72,8|0,0:0|0:0,0:0:0:0:
161,125,60624,5,2,0:0:0:0:
81,126,60787,1,0,0:0:0:0:
23,180,60950,2,0,P|16:237|26:264,1,72,8|2,0:0|0:0,0:0:0:0:
71,309,61276,2,0,L|146:318,1,72,0|4,0:0|0:0,0:0:0:0:
214,351,61602,2,0,P|254:347|284:322,1,72,8|2,0:0|0:0,0:0:0:0:
329,267,61928,5,0,3:0:0:0:
329,267,62010,1,0,0:0:0:0:
329,267,62091,1,0,3:0:0:0:
246,228,62254,2,0,P|221:171|254:96,1,144,4|2,0:0|0:0,0:0:0:0:
250,99,62662,1,0,3:0:0:0:
250,99,62743,1,0,3:0:0:0:
338,101,62906,2,0,L|415:104,1,72,4|0,0:0|0:0,0:0:0:0:
481,139,63233,6,0,P|498:186|490:225,1,72,2|4,0:0|0:0,0:0:0:0:
478,285,63559,2,0,L|405:298,1,72,8|4,0:0|0:0,0:0:0:0:
361,362,63885,1,0,3:3:0:0:
303,307,64048,1,0,3:0:0:0:
244,359,64211,1,0,3:0:0:0:
186,304,64374,1,0,3:0:0:0:
186,304,64455,1,0,3:0:0:0:
186,304,64537,6,0,P|149:292|60:349,1,144,4|8,0:0|0:0,0:0:0:0:
2,194,65189,2,0,L|9:109,1,72,0|2,0:0|0:0,0:0:0:0:
84,100,65515,2,0,L|77:185,1,72,8|0,0:0|0:0,0:0:0:0:
138,222,65841,5,2,0:0:0:0:
215,206,66004,1,0,0:0:0:0:
260,141,66167,1,8,0:0:0:0:
232,66,66330,2,0,L|314:45,1,72,2|0,0:0|0:0,0:0:0:0:
380,57,66656,1,4,0:0:0:0:
446,99,66819,2,0,P|464:137|466:175,1,72,8|2,0:0|0:0,0:0:0:0:
429,236,67146,6,0,L|271:246,1,144,4|8,0:0|0:0,0:0:0:0:
158,339,67798,2,0,L|316:349,1,144,4|8,0:0|0:0,0:0:0:0:
459,361,68450,6,0,P|487:315|486:298,1,72,4|4,0:0|0:0,0:0:0:0:
458,224,68776,2,0,L|450:149,1,72,8|4,0:0|0:0,0:0:0:0:
347,32,69265,1,0,3:0:0:0:
281,76,69428,1,0,3:0:0:0:
210,40,69591,1,0,3:0:0:0:
137,71,69754,6,0,B|95:63|95:63|46:94|63:157,1,144,4|8,0:0|0:0,0:0:0:0:
208,208,70406,2,0,L|291:198,1,72,0|2,0:0|0:0,0:0:0:0:
280,279,70733,2,0,L|197:289,1,72,8|0,0:0|0:0,0:0:0:0:
137,252,71059,5,2,0:0:0:0:
137,172,71222,1,0,0:0:0:0:
203,129,71385,2,0,L|286:119,1,72,8|2,0:0|0:0,0:0:0:0:
346,152,71711,2,0,P|352:105|336:76,2,72,0|4|8,0:0|0:0|0:0,0:0:0:0:
400,209,72200,1,2,0:0:0:0:
351,271,72363,5,0,3:0:0:0:
351,271,72444,1,0,3:0:0:0:
351,271,72526,1,0,0:0:0:0:
269,250,72689,2,0,P|196:243|140:285,1,144,4|0,0:0|3:0,0:0:0:0:
141,282,73097,1,0,3:0:0:0:
141,282,73178,1,0,3:0:0:0:
65,256,73341,2,0,L|56:176,1,72,4|0,0:0|0:0,0:0:0:0:
125,142,73667,6,0,P|138:109|131:67,1,72,2|4,0:0|0:0,0:0:0:0:
201,33,73993,2,0,L|290:36,1,72,8|4,0:0|0:0,0:0:0:0:
345,66,74319,2,0,P|380:80|427:69,1,72,2|0,0:0|0:0,0:0:0:0:
472,22,74646,1,0,3:0:0:0:
491,98,74809,1,0,3:0:0:0:
442,160,74972,6,0,L|284:164,1,144,0|0,0:0|0:0,0:0:0:0:
176,168,75542,2,0,L|128:168,1,36
66,211,75787,1,0,1:0:0:0:
66,211,75868,1,0,1:0:0:0:
66,211,75950,2,0,P|53:251|64:297,1,72,8|0,0:0|0:0,0:0:0:0:
115,333,76276,6,0,L|191:328,1,72,4|0,0:0|0:0,0:0:0:0:
260,357,76602,2,0,P|286:319|270:223,1,144,8|0,0:0|0:0,0:0:0:0:
220,168,77091,1,2,0:0:0:0:
294,140,77254,2,0,L|308:64,1,72,8|0,0:0|0:0,0:0:0:0:
378,34,77580,6,0,P|445:46|485:122,1,144,0|8,0:0|0:0,0:0:0:0:
423,157,78069,1,0,0:0:0:0:
486,204,78233,2,0,L|483:282,1,72,0|0,0:0|3:0,0:0:0:0:
410,306,78559,2,0,L|413:228,1,72,8|2,0:0|0:0,0:0:0:0:
345,191,78885,5,0,3:0:0:0:
345,191,78966,1,0,3:0:0:0:
345,191,79048,1,0,3:0:0:0:
259,191,79211,2,0,P|206:227|212:304,1,144,4|0,0:0|3:0,0:0:0:0:
209,300,79618,1,0,3:0:0:0:
209,300,79700,1,0,3:0:0:0:
149,351,79863,2,0,L|75:344,1,72,4|0,0:0|0:0,0:0:0:0:
31,279,80189,5,4,0:0:0:0:
84,220,80352,1,4,0:0:0:0:
16,178,80515,1,0,0:0:0:0:
69,119,80678,2,0,B|100:87|100:87|149:117|199:93,1,144,4|0,0:0|3:0,0:0:0:0:
194,94,81086,1,0,3:0:0:0:
194,94,81167,1,0,3:0:0:0:
267,57,81330,1,0,3:0:0:0:
328,106,81493,6,0,L|331:179,1,72,2|0,0:0|0:0,0:0:0:0:
409,187,81819,2,0,L|406:115,1,72,4|0,0:0|0:0,0:0:0:0:
483,97,82146,2,0,L|486:170,1,72,0|2,0:0|0:0,0:0:0:0:
490,247,82472,1,4,0:0:0:0:
492,326,82635,1,4,0:0:0:0:
256,192,82798,12,0,87934,0:0:0:0:
