osu file format v12

[General]
AudioFilename: nourinOP.mp3
AudioLeadIn: 1500
PreviewTime: 54065
Countdown: 0
SampleSet: Soft
StackLeniency: 0.5
Mode: 0
LetterboxInBreaks: 0
WidescreenStoryboard: 1

[Editor]
DistanceSpacing: 1
BeatDivisor: 4
GridSize: 4

[Metadata]
Title:Himitsu no Door kara Ai ni Kite (TV Size)
TitleUnicode:秘密の扉から会いにきて (TV Size)
Artist:Tamura Yukari
ArtistUnicode:田村ゆかり
Creator:Flower
Version:Easy
Source:No-Rin
Tags:nourin のうりん opening
BeatmapID:358819
BeatmapSetID:144464

[Difficulty]
HPDrainRate:1
CircleSize:3
OverallDifficulty:2
ApproachRate:3
SliderMultiplier:0.8
SliderTickRate:1

[Events]
//Background and Video events
0,0,"bg123.jpg",0,0
Video,0,"nourin-op.avi"
//Break Periods
//Storyboard Layer 0 (Background)
//Storyboard Layer 1 (Fail)
//Storyboard Layer 2 (Pass)
//Storyboard Layer 3 (Foreground)
//Storyboard Sound Samples
//Background Colour Transformations
3,100,0,0,0

[TimingPoints]
-680,326.086956521739,4,2,1,60,1,0
5841,-100,4,2,1,60,0,1
8450,-100,4,3,1,50,0,1
11059,-100,4,2,1,30,0,0
12037,-100,4,2,1,60,0,0
22309,-100,4,2,1,40,0,0
30624,-100,4,2,1,50,0,0
31765,-100,4,2,1,40,0,0
33233,-100,4,2,1,60,0,0
43667,-100,4,2,1,50,0,0
53613,-100,4,3,1,50,0,0
54102,-100,4,2,1,60,0,1
74972,-100,4,2,1,30,0,0
75950,-100,4,2,1,60,0,0
81493,-100,4,2,1,50,0,0
82635,-100,4,2,1,60,0,0
85406,-100,4,2,1,50,0,0
86059,-100,4,2,1,40,0,0
86711,-100,4,2,1,30,0,0
87363,-100,4,2,1,20,0,0

[Colours]
Combo1 : 255,147,74
Combo2 : 169,216,241
Combo3 : 220,81,255
Combo4 : 255,211,164

[HitObjects]
72,288,624,2,0,P|104:324|224:328,1,160,2|0,0:0|0:0,0:0:0:0:
256,268,1602,1,0,0:0:0:0:
301,335,1928,2,0,P|380:338|440:288,1,160,0|0,0:0|0:0,0:0:0:0:
448,128,3233,6,0,B|368:112|368:112|332:36,1,160,4|0,0:0|0:0,0:0:0:0:
256,64,4211,1,2,0:0:0:0:
177,41,4537,2,0,B|144:112|144:112|100:120,2,120,4|4|2,0:0|0:0|0:0,0:0:0:0:
256,64,5841,6,0,L|256:228,1,160,4|0,0:0|0:0,0:0:0:0:
160,352,7146,1,0,0:0:0:0:
24,268,7798,1,0,0:0:0:0:
256,192,8450,12,0,11059,0:0:0:0:
336,348,12363,6,0,P|344:284|428:244,1,160,4|0,0:0|0:0,0:0:0:0:
484,192,13341,1,8,0:0:0:0:
422,140,13667,2,0,P|350:110|335:35,1,160,2|0,0:0|0:0,0:0:0:0:
256,24,14646,1,8,0:0:0:0:
180,52,14972,6,0,B|104:72|104:72|116:120|84:156,1,160,2|0,0:0|0:0,0:0:0:0:
20,192,15950,1,8,0:0:0:0:
92,232,16276,2,0,L|100:312,1,80,4|4,0:0|0:0,0:0:0:0:
176,288,16928,2,0,L|168:208,1,80,4|0,0:0|0:0,0:0:0:0:
200,136,17580,6,0,P|248:124|332:188,1,160,4|0,0:0|0:0,0:0:0:0:
340,264,18559,1,8,0:0:0:0:
388,328,18885,2,0,P|460:308|484:224,1,160,2|0,0:0|0:0,0:0:0:0:
416,192,19863,1,8,0:0:0:0:
486,150,20189,6,0,P|461:77|388:56,1,160,0|0,3:0|3:0,0:0:0:0:
320,100,21167,1,4,0:0:0:0:
256,148,21493,2,0,B|248:192|248:192|264:228|264:228|256:276,2,120,4|0|0,0:0|0:0|0:0,0:0:0:0:
192,100,22798,6,0,B|144:120|144:120|108:68|40:80,1,160,4|0,0:0|0:0,0:0:0:0:
20,236,24102,2,0,B|44:316|44:316|80:292|120:300,1,160,2|0,0:0|0:0,0:0:0:0:
184,344,25080,1,0,3:0:0:0:
256,304,25406,6,0,B|244:252|244:252|268:204|268:204|252:148,1,160,2|2,0:0|0:0,0:0:0:0:
300,88,26385,1,0,0:0:0:0:
376,60,26711,2,0,L|468:56,1,80,4|0,0:0|0:0,0:0:0:0:
476,136,27363,2,0,L|384:140,1,80,0|2,3:0|0:0,0:0:0:0:
336,192,28015,6,0,P|360:256|308:328,1,160,4|0,0:0|0:0,0:0:0:0:
184,228,29319,2,0,P|160:164|212:92,1,160,2|0,0:0|0:0,0:0:0:0:
256,28,30298,1,8,3:0:0:0:
304,92,30624,6,0,B|348:100|348:100|380:88|380:88|428:96,2,120,4|4|0,0:0|0:0|3:0,0:0:0:0:
256,156,31928,2,0,B|256:236|256:236|280:248|296:268,2,120,4|0|0,0:0|0:0|3:0,0:0:0:0:
220,84,33233,6,0,P|171:64|68:102,1,160,4|4,0:0|0:3,0:0:0:0:
24,160,34211,1,8,0:0:0:0:
68,228,34537,2,0,B|148:252|148:252|188:332,1,160,4|4,0:3|0:3,0:0:0:0:
256,292,35515,1,8,0:0:0:0:
329,320,35841,6,0,B|364:252|364:252|444:228,1,160,4|0,0:3|0:0,0:0:0:0:
492,164,36819,1,8,0:0:0:0:
420,128,37146,2,0,L|400:48,1,80,4|2,0:0|0:0,0:0:0:0:
320,52,37798,2,0,L|340:132,1,80,2|2,0:0|0:0,0:0:0:0:
268,168,38450,6,0,B|248:90|248:90|160:70,1,160,4|0,0:0|0:0,0:0:0:0:
92,52,39428,1,8,0:0:0:0:
32,104,39754,2,0,P|16:140|76:244,1,160,4|4,0:3|0:3,0:0:0:0:
148,236,40733,1,8,0:0:0:0:
188,308,41059,6,0,B|227:322|255:350|255:350|284:322|323:308,2,160,4|4|0,0:3|0:3|0:0,0:0:0:0:
476,168,43667,6,0,P|484:116|424:32,1,160,4|4,0:0|0:3,0:0:0:0:
276,88,44972,2,0,P|268:140|328:224,1,160,4|2,0:3|0:0,0:0:0:0:
256,364,46276,5,4,0:0:0:0:
96,360,46928,1,4,0:3:0:0:
12,224,47580,2,0,B|-4:184|20:144|20:144|60:136,2,120,4|4|0,0:0|0:0|0:0,0:0:0:0:
80,268,48885,6,0,P|152:252|188:172,1,160,4|0,0:0|0:0,0:0:0:0:
256,136,49863,1,8,0:0:0:0:
323,179,50189,2,0,P|356:249|432:268,1,160,4|0,0:0|0:0,0:0:0:0:
500,224,51167,1,12,0:0:0:0:
508,144,51493,6,0,P|474:74|399:55,1,160,4|0,0:0|0:0,0:0:0:0:
328,92,52472,1,12,0:0:0:0:
256,128,52798,2,0,B|248:168|248:168|264:204|264:204|256:248,2,120,4|4|0,0:0|0:0|0:0,0:0:0:0:
200,68,54102,6,0,B|120:80|120:80|76:156,1,160,4|0,0:0|0:0,0:0:0:0:
148,192,55080,1,8,0:0:0:0:
80,235,55406,2,0,B|120:304|120:304|200:316,1,160,2|0,0:0|0:0,0:0:0:0:
256,260,56385,1,8,0:0:0:0:
300,328,56711,6,0,L|384:332,1,80,4|8,0:0|0:0,0:0:0:0:
456,304,57363,2,0,P|488:272|492:232,1,80,2|8,0:0|0:0,0:0:0:0:
428,192,58015,2,0,B|372:164|372:224|312:192,2,120,4|4|8,0:0|0:0|0:0,0:0:0:0:
488,136,59319,6,0,P|476:92|376:44,1,160,4|0,0:0|0:0,0:0:0:0:
308,80,60298,1,8,0:0:0:0:
256,140,60624,2,0,L|256:300,1,160,2|0,0:0|0:0,0:0:0:0:
188,344,61602,1,8,0:0:0:0:
108,344,61928,6,0,L|28:328,1,80,0|4,3:0|0:0,0:0:0:0:
36,248,62580,2,0,L|116:264,1,80,2|4,0:0|0:0,0:0:0:0:
192,240,63233,1,2,0:0:0:0:
188,160,63559,1,8,0:0:0:0:
112,132,63885,1,0,3:3:0:0:
256,60,64537,6,0,P|284:104|388:120,1,160,4|0,0:0|0:0,0:0:0:0:
424,192,65515,1,8,0:0:0:0:
384,262,65841,2,0,P|306:264|256:324,1,160,2|0,0:0|0:0,0:0:0:0:
180,344,66819,1,8,0:0:0:0:
108,304,67146,6,0,L|72:228,1,80,4|8,0:0|0:0,0:0:0:0:
73,152,67798,2,0,L|108:80,1,80,4|8,0:0|0:0,0:0:0:0:
180,40,68450,2,0,B|228:36|256:68|256:68|256:104,2,120,4|4|0,0:0|0:0|3:0,0:0:0:0:
176,120,69754,6,0,B|176:200|176:200|212:224|212:272,1,160,4|0,0:0|0:0,0:0:0:0:
256,336,70733,1,8,0:0:0:0:
300,267,71059,2,0,B|300:224|336:200|336:200|336:120,1,160,2|0,0:0|0:0,0:0:0:0:
376,52,72037,1,8,0:0:0:0:
452,80,72363,6,0,P|472:104|480:152,1,80,0|4,3:0|0:0,0:0:0:0:
480,232,73015,2,0,P|475:272|452:304,1,80,0|4,3:0|0:0,0:0:0:0:
376,324,73667,1,2,0:0:0:0:
316,272,73993,1,8,0:0:0:0:
256,324,74319,2,0,B|176:324|176:324|156:280|112:272,1,160,2|0,0:0|0:0,0:0:0:0:
336,40,76276,6,0,P|400:60|436:148,1,160,4|0,0:0|0:0,0:0:0:0:
376,192,77254,1,8,0:0:0:0:
436,243,77580,2,0,P|408:316|336:344,1,160,0|0,0:0|0:0,0:0:0:0:
256,344,78559,1,8,0:0:0:0:
176,344,78885,6,0,L|88:344,1,80,0|4,3:0|0:0,0:0:0:0:
82,265,79537,2,0,L|170:265,1,80,0|4,3:0|0:0,0:0:0:0:
204,196,80189,2,0,B|204:148|204:148|168:128|160:92,2,120,4|4|0,0:0|0:0|3:0,0:0:0:0:
256,256,81493,6,0,B|256:304|256:304|304:280|352:304|352:304|352:208|352:208|320:188,1,280,2|4,0:0|0:0,0:0:0:0:
256,192,82798,12,0,87934,0:0:0:0:
