osu file format v12

[General]
AudioFilename: 02 Hadashi no Princess.mp3
AudioLeadIn: 1500
PreviewTime: 51775
Countdown: 1
SampleSet: Normal
StackLeniency: 0.7
Mode: 0
LetterboxInBreaks: 0

[Editor]
DistanceSpacing: 1
BeatDivisor: 2
GridSize: 8

[Metadata]
Title:Hadashi no Princess (TV Size)
TitleUnicode:Hadashi no Princess (TV Size)
Artist:Tamura Yukari
ArtistUnicode:Tamura Yukari
Creator:Aunxfb
Version:Normal
Source:B Gata H Kei
Tags:Yamada Kosuda Takeshita Mayu
BeatmapID:246928
BeatmapSetID:91163

[Difficulty]
HPDrainRate:4
CircleSize:3
OverallDifficulty:4
ApproachRate:5
SliderMultiplier:1.4
SliderTickRate:1

[Events]
//Background and Video events
0,0,"wall306.jpg",0,0
Video,657,"ED.avi"
//Break Periods
//Storyboard Layer 0 (Background)
//Storyboard Layer 1 (Fail)
//Storyboard Layer 2 (Pass)
//Storyboard Layer 3 (Foreground)
//Storyboard Sound Samples
//Background Colour Transformations
3,100,163,162,255

[TimingPoints]
922,468.75,4,1,1,85,1,0
20375,-100,4,2,1,85,0,0
30922,-100,4,1,1,85,0,0
53422,-100,4,1,1,85,0,1
67953,-100,4,1,1,85,0,0
68422,-100,4,1,1,85,0,1
87172,-100,4,1,1,85,0,0

[Colours]
Combo1 : 0,0,64
Combo2 : 255,150,45
Combo3 : 119,0,119
Combo4 : 239,35,35

[HitObjects]
156,232,922,2,0,P|54:192|168:168,1,280,8|0,3:0|0:0,0:0:0:0:
205,100,2093,2,0,P|255:62|313:100,1,140,8|8,3:0|3:0,0:0:0:0:
362,149,2797,2,0,P|463:192|361:231,1,280,8|0,3:0|0:0,0:0:0:0:
312,280,3968,2,0,P|262:318|204:280,1,140,8|8,3:0|3:0,0:0:0:0:
154,230,4672,5,0,3:0:0:0:
184,96,5140,1,4,2:0:0:0:
328,96,5609,1,0,0:0:0:0:
358,230,6078,1,4,0:0:0:0:
498,230,6547,2,0,P|457:335|305:359,1,280,0|0,0:0|0:0,0:0:0:0:
206,259,7953,6,0,L|126:259,2,70,0|0|0,0:0|0:0|0:0,0:0:0:0:
346,259,8890,2,0,P|396:316|356:380,2,140,2|0|2,0:0|0:0|0:0,0:0:0:0:
246,159,10297,2,0,P|196:102|236:38,2,140,0|2|0,0:0|0:0|0:0,0:0:0:0:
346,259,11703,2,0,P|378:323|330:379,1,140,2|0,0:0|0:0,0:0:0:0:
202,373,12640,2,0,P|170:309|206:259,1,140,2|0,0:0|0:0,0:0:0:0:
305,159,13578,5,2,0:0:0:0:
305,159,13812,2,0,L|457:159,1,140,0|0,0:0|0:0,0:0:0:0:
494,208,14515,2,0,P|526:272|478:328,2,140,2|0|2,0:0|0:0|0:0,0:0:0:0:
256,192,15922,12,4,17797,0:0:0:0:
261,113,19672,5,0,2:0:0:0:
261,322,20375,1,0,0:0:0:0:
261,322,20609,2,0,P|357:322|381:274,1,140,0|8,0:0|0:0,0:0:0:0:
376,152,21547,2,0,P|280:152|256:200,1,140,0|0,0:0|0:0,0:0:0:0:
210,230,22250,1,0,0:0:0:0:
160,279,22484,2,0,P|140:307|44:307,2,140,0|8|0,0:0|0:0|0:0,0:0:0:0:
308,130,24125,5,0,0:0:0:0:
308,130,24359,2,0,P|404:130|428:178,1,140,0|8,0:0|0:0,0:0:0:0:
423,299,25297,2,0,P|327:299|303:251,1,140,0|0,0:0|0:0,0:0:0:0:
257,220,26000,1,0,0:0:0:0:
207,170,26234,2,0,P|187:141|91:141,2,140,0|8|0,0:0|0:0|0:0,0:0:0:0:
355,318,27875,5,0,0:0:0:0:
355,318,28109,2,0,P|422:306|465:253,1,140,0|8,0:0|0:0,0:0:0:0:
465,113,29047,2,0,P|421:60|354:48,1,140,0|0,0:0|0:0,0:0:0:0:
233,120,29984,2,0,P|209:184|233:248,1,140,0|8,0:0|0:0,0:0:0:0:
330,349,30922,6,0,P|240:385|136:350,1,210
87,301,31859,1,0,0:0:0:0:
24,179,32328,1,0,0:0:0:0:
157,179,32797,1,4,0:0:0:0:
255,80,33265,2,0,P|319:48|375:80,1,140,0|0,0:0|0:0,0:0:0:0:
474,179,34203,1,4,2:0:0:0:
374,277,34672,6,0,P|310:309|255:278,1,140,2|2,0:0|0:0,0:0:0:0:
157,179,35609,1,0,0:0:0:0:
157,179,35843,1,0,0:0:0:0:
157,179,36078,1,0,0:0:0:0:
255,80,36547,2,0,P|319:48|373:78,1,140,2|2,0:0|0:0,0:0:0:0:
373,149,37250,1,0,0:0:0:0:
374,219,37484,2,0,P|310:251|254:219,2,140
495,149,38890,5,2,0:0:0:0:
374,79,39359,2,0,L|278:79,1,70,0|0,0:0|0:0,0:0:0:0:
254,128,39828,2,0,L|158:128,1,70,2|0,0:0|0:0,0:0:0:0:
43,128,40531,5,0,0:0:0:0:
43,128,41000,2,0,L|115:200,1,70,0|0,0:0|0:0,0:0:0:0:
141,226,41468,2,0,L|190:275,1,70,0|0,0:0|0:0,0:0:0:0:
331,275,42172,6,0,P|395:299|459:274,1,140,2|2,0:0|0:0,0:0:0:0:
459,134,43109,1,0,0:0:0:0:
459,134,43343,1,0,0:0:0:0:
459,134,43578,2,0,P|394:109|330:133,1,140,0|2,0:0|0:0,0:0:0:0:
231,232,44515,2,0,L|181:282,1,70,2|0,0:0|0:0,0:0:0:0:
132,330,44983,2,0,L|61:330,2,70,0|0|0,0:0|0:0|0:0,0:0:0:0:
272,330,45922,6,0,P|360:324|360:220,1,210,0|0,0:0|0:0,0:0:0:0:
312,173,46859,1,0,0:0:0:0:
312,173,47328,1,6,0:0:0:0:
212,74,47797,2,0,P|124:80|124:186,1,210,0|0,0:0|0:0,0:0:0:0:
170,233,48734,2,0,L|250:313,2,105,0|0|0,0:0|0:0|0:0,0:0:0:0:
256,192,49672,12,8,53422,3:0:0:0:
256,280,54593,5,8,3:0:0:0:
256,280,54828,2,0,L|256:376,2,70,0|0|0,0:0|0:0|0:0,0:0:0:0:
256,104,56468,5,8,3:0:0:0:
256,104,56703,2,0,L|256:8,2,70,0|0|0,0:0|0:0|0:0,0:0:0:0:
156,203,57640,1,4,2:0:0:0:
255,302,58109,1,0,0:0:0:0:
354,202,58578,1,4,0:0:0:0:
373,63,59047,2,0,B|271:63|271:63|255:79|255:79|255:47|255:47|239:63|239:63|138:63,1,280,0|0,0:0|0:0,0:0:0:0:
156,203,60453,6,0,L|76:203,2,70,0|0|0,0:0|0:0|0:0,0:0:0:0:
296,203,61390,2,0,P|360:227|424:203,1,140,2|0,0:0|0:0,0:0:0:0:
424,62,62328,2,0,P|360:38|296:62,1,140,2|0,0:0|0:0,0:0:0:0:
172,128,63265,2,0,L|8:128,2,140,2|0|2,0:0|0:0|0:0,0:0:0:0:
313,128,64672,2,0,P|377:104|441:128,1,140,0|2,0:0|0:0,0:0:0:0:
463,266,65609,5,0,0:0:0:0:
413,315,65843,1,0,0:0:0:0:
342,315,66078,1,2,0:0:0:0:
291,266,66312,1,0,0:0:0:0:
192,165,66781,5,0,0:0:0:0:
192,165,67015,1,0,0:0:0:0:
92,65,67484,2,0,L|12:65,2,70,0|0|0,0:0|0:0|0:0,0:0:0:0:
232,65,68422,6,0,L|376:65,2,140,8|0|0,3:0|0:0|0:0,0:0:0:0:
162,65,69593,2,0,P|130:129|160:183,1,140,8|8,3:0|3:0,0:0:0:0:
231,183,70297,2,0,L|383:183,2,140,8|0|0,3:0|0:0|0:0,0:0:0:0:
161,183,71468,2,0,P|129:247|161:303,1,140,8|8,3:0|3:0,0:0:0:0:
232,310,72172,6,0,P|296:342|350:312,1,140,0|4,0:0|2:0,0:0:0:0:
350,170,73109,2,0,P|286:138|232:168,2,140,0|4|0,0:0|0:0|0:0,0:0:0:0:
449,269,74515,1,0,0:0:0:0:
505,310,74750,1,0,0:0:0:0:
484,376,74985,1,0,0:0:0:0:
414,376,75219,1,0,0:0:0:0:
392,310,75453,1,0,0:0:0:0:
292,210,75922,6,0,P|227:177|170:219,2,140,0|2|0,0:0|0:0|0:0,0:0:0:0:
292,350,77328,2,0,P|239:382|175:349,2,140,2|0|2,0:0|0:0|0:0,0:0:0:0:
292,210,78734,2,0,L|452:210,1,140,0|2,0:0|0:0,0:0:0:0:
432,350,79672,2,0,L|292:350,1,140,0|2,0:0|0:0,0:0:0:0:
152,350,80609,2,0,P|80:294|153:151,1,280,0|0,0:0|0:0,2:0:0:70:soft-slidertick.wav
293,151,82015,2,0,P|365:207|285:351,1,280,2|2,0:0|0:0,0:0:0:0:
256,192,83422,12,4,87172,0:0:0:0:
