osu file format v12

[General]
AudioFilename: 02 Hadashi no Princess.mp3
AudioLeadIn: 1500
PreviewTime: 51775
Countdown: 1
SampleSet: Normal
StackLeniency: 0.7
Mode: 0
LetterboxInBreaks: 0

[Editor]
DistanceSpacing: 1.1
BeatDivisor: 4
GridSize: 8

[Metadata]
Title:Hadashi no Princess (TV Size)
TitleUnicode:Hadashi no Princess (TV Size)
Artist:Tamura Yukari
ArtistUnicode:Tamura Yukari
Creator:Aunxfb
Version:Hard
Source:B Gata H Kei
Tags:Yamada Kosuda Takeshita Mayu
BeatmapID:246927
BeatmapSetID:91163

[Difficulty]
HPDrainRate:7
CircleSize:4
OverallDifficulty:6
ApproachRate:7
SliderMultiplier:1.6
SliderTickRate:1

[Events]
//Background and Video events
0,0,"wall306.jpg",0,0
Video,657,"ED.avi"
//Break Periods
//Storyboard Layer 0 (Background)
//Storyboard Layer 1 (Fail)
//Storyboard Layer 2 (Pass)
//Storyboard Layer 3 (Foreground)
//Storyboard Sound Samples
//Background Colour Transformations
3,100,163,162,255

[TimingPoints]
922,468.75,4,1,1,85,1,0
20375,-100,4,2,1,85,0,0
30922,-83.3333333333333,4,1,1,65,0,0
32797,-83.3333333333333,4,1,1,85,0,0
34672,-100,4,1,1,85,0,0
53422,-100,4,1,1,85,0,1
67953,-100,4,1,1,85,0,0
68422,-100,4,1,1,85,0,1
87172,-100,4,1,1,85,0,0

[Colours]
Combo1 : 0,0,64
Combo2 : 255,150,45
Combo3 : 119,0,119
Combo4 : 239,35,35

[HitObjects]
144,192,922,5,8,3:0:0:0:
200,135,1156,1,0,0:0:0:0:
256,192,1390,1,0,0:0:0:0:
312,135,1625,1,0,0:0:0:0:
368,192,1859,1,0,0:0:0:0:
424,135,2093,2,8,L|496:63,2,80,8|0|8,3:0|0:0|3:0,0:0:0:0:
368,192,2797,5,8,3:0:0:0:
312,249,3031,1,0,0:0:0:0:
256,192,3265,1,0,0:0:0:0:
200,249,3500,1,0,0:0:0:0:
144,192,3734,1,0,0:0:0:0:
88,249,3968,2,8,L|16:321,2,80,8|0|8,3:0|0:0|3:0,0:0:0:0:
144,192,4672,6,0,P|144:96|190:85,1,160,0|4,0:0|2:0,0:0:0:0:
256,131,5375,1,0,0:0:0:0:
321,85,5609,2,0,P|368:96|368:192,1,160,0|4,0:0|1:0,0:0:0:0:
256,306,6547,5,0,0:0:0:0:
256,306,7015,1,0,0:0:0:0:
186,266,7250,1,0,0:0:0:0:
186,186,7484,1,0,0:0:0:0:
255,146,7718,1,0,0:0:0:0:
325,185,7953,1,0,0:0:0:0:
325,265,8187,1,0,0:0:0:0:
256,306,8422,6,0,P|180:338|112:302,2,160,0|2|0,0:0|0:0|0:0,0:0:0:0:
369,192,9828,2,0,P|445:160|513:196,2,160,2|0|2,0:0|0:0|0:0,0:0:0:0:
311,247,11000,1,0,0:0:0:0:
256,306,11234,2,0,P|180:338|112:302,1,160,0|2,0:0|0:0,0:0:0:0:
58,248,11937,1,0,0:0:0:0:
58,248,12172,6,0,L|130:176,1,80,2|0,0:0|0:0,0:0:0:0:
194,191,12640,2,0,L|266:119,1,80,2|0,0:0|0:0,0:0:0:0:
307,77,13109,2,0,P|395:77|407:133,1,160,0|2,0:0|0:0,0:0:0:0:
408,214,13812,2,0,P|395:271|307:271,1,160,0|0,0:0|0:0,0:0:0:0:
250,214,14515,1,2,1:0:0:0:
193,271,14750,1,0,0:0:0:0:
135,327,14984,2,0,P|95:335|56:327,1,80
58,214,15453,2,0,P|98:206|137:214,1,80,2|0,0:0|0:0,0:0:0:0:
193,271,15922,6,0,P|281:271|316:216,1,160,4|2,0:0|0:0,0:0:0:0:
317,136,16625,1,0,0:0:0:0:
436,136,16859,1,0,1:0:0:0:
195,136,17328,2,0,P|155:208|194:264,1,160,2|4,0:0|0:0,0:0:0:0:
244,201,18031,5,0,0:0:0:0:
363,201,18265,1,0,0:0:0:0:
363,201,18734,2,0,L|475:201,2,80
122,201,19672,5,0,2:0:0:0:
363,201,20375,2,0,P|363:281|301:320,1,160
220,320,21078,1,8,0:0:0:0:
140,320,21312,2,0,P|79:281|79:201,2,160
300,320,22718,1,0,0:0:0:0:
356,263,22953,1,8,0:0:0:0:
299,206,23187,1,0,0:0:0:0:
299,125,23422,6,0,P|227:101|149:125,1,160,0|0,0:0|0:0,0:0:0:0:
149,205,24125,1,0,0:0:0:0:
92,261,24359,1,0,0:0:0:0:
148,317,24593,1,0,0:0:0:0:
204,260,24828,1,8,0:0:0:0:
260,316,25062,2,0,P|340:338|420:314,2,160
260,155,26468,1,0,0:0:0:0:
335,132,26702,1,8,0:0:0:0:
410,156,26936,1,0,0:0:0:0:
456,224,27172,6,0,P|491:149|455:87,1,160,0|0,0:0|0:0,0:0:0:0:
410,21,27875,1,0,0:0:0:0:
332,40,28109,1,0,0:0:0:0:
257,17,28343,1,0,0:0:0:0:
219,88,28578,2,0,P|180:155|213:224,1,160,8|0,0:0|0:0,0:0:0:0:
373,224,29515,5,0,0:0:0:0:
437,272,29750,1,0,0:0:0:0:
412,348,29985,1,0,0:0:0:0:
332,348,30219,1,0,0:0:0:0:
308,272,30453,1,8,0:0:0:0:
115,272,30922,6,0,P|66:268|37:233,1,95.9999970703126
115,176,31390,2,0,P|83:139|87:94,1,95.9999970703126
182,107,31859,2,0,P|185:58|220:29,1,95.9999970703126,0|0,0:0|0:0,0:0:0:0:
277,107,32328,2,0,P|313:75|358:79,1,95.9999970703126,0|0,0:0|0:0,0:0:0:0:
391,112,32679,1,0,0:0:0:0:
391,160,32797,6,0,P|361:194|313:198,1,95.9999970703126,4|0,0:0|0:0,0:0:0:0:
327,293,33265,2,0,P|281:296|245:265,1,95.9999970703126,0|0,0:0|0:0,0:0:0:0:
187,341,33734,2,0,P|152:311|148:263,1,95.9999970703126
54,277,34203,2,0,P|50:231|81:195,1,95.9999970703126,4|0,2:0|0:0,0:0:0:0:
148,126,34672,6,0,P|72:95|8:130,2,160,2|2|0,0:0|0:0|0:0,0:0:0:0:
204,183,35843,1,0,0:0:0:0:
256,244,36078,1,0,0:0:0:0:
308,183,36312,1,0,0:0:0:0:
364,126,36547,2,0,P|440:95|503:130,2,160,2|2|0,0:0|0:0|0:0,0:0:0:0:
308,183,37718,1,0,0:0:0:0:
364,240,37953,1,0,0:0:0:0:
308,297,38187,5,0,0:0:0:0:
280,325,38304,1,0,0:0:0:0:
252,353,38422,2,0,P|164:297|164:233,1,160,4|2,0:0|0:0,0:0:0:0:
215,192,39125,1,0,0:0:0:0:
272,136,39359,2,0,P|360:192|364:240,1,160,0|2,0:0|0:0,0:0:0:0:
364,320,40062,1,0,0:0:0:0:
335,348,40179,1,0,0:0:0:0:
306,376,40297,1,0,0:0:0:0:
226,376,40531,6,0,P|139:336|135:279,1,160,0|0,0:0|0:0,0:0:0:0:
213,297,41234,2,0,L|277:233,1,80
257,161,41703,2,0,P|344:201|348:255,2,160,0|2|2,0:0|0:0|0:0,0:0:0:0:
96,161,43109,5,0,0:0:0:0:
39,104,43343,1,0,0:0:0:0:
96,47,43578,1,0,0:0:0:0:
152,104,43812,2,0,L|208:160,1,80,0|2,0:0|0:0,0:0:0:0:
289,160,44281,2,0,L|345:103,1,80,0|2,0:0|0:0,0:0:0:0:
402,46,44750,5,0,0:0:0:0:
402,46,44867,1,0,0:0:0:0:
402,46,44984,1,0,0:0:0:0:
458,103,45218,1,0,0:0:0:0:
402,160,45453,1,2,0:0:0:0:
458,217,45687,1,0,0:0:0:0:
402,274,45922,6,0,P|352:295|291:275,2,120
346,217,46859,2,0,P|247:208|215:249,1,160,0|6,0:0|0:0,0:0:0:0:
230,328,47562,1,0,0:0:0:0:
230,328,47797,2,0,P|180:349|119:329,2,120
174,271,48734,2,0,P|113:251|63:272,2,120
256,192,49672,12,4,51547,0:0:0:0:
176,200,51781,5,0,0:0:0:0:
335,200,52015,1,0,0:0:0:0:
256,288,52250,1,0,0:0:0:0:
256,288,52367,1,0,0:0:0:0:
256,288,52484,2,0,L|256:376,2,80,0|0|0,0:0|0:0|0:0,0:0:0:0:
120,152,53422,5,8,3:0:0:0:
95,76,53656,1,0,0:0:0:0:
160,29,53890,1,0,0:0:0:0:
224,76,54125,1,0,0:0:0:0:
200,152,54359,1,0,0:0:0:0:
160,239,54593,5,8,3:0:0:0:
256,277,54828,1,0,0:0:0:0:
351,238,55062,1,0,0:0:0:0:
391,149,55297,5,0,0:0:0:0:
415,73,55531,1,0,0:0:0:0:
351,28,55766,1,0,0:0:0:0:
286,73,56000,1,0,0:0:0:0:
311,149,56234,1,0,0:0:0:0:
351,238,56468,5,8,3:0:0:0:
256,277,56702,1,0,0:0:0:0:
159,238,56937,1,0,0:0:0:0:
256,112,57172,5,0,0:0:0:0:
424,236,57640,1,4,2:0:0:0:
256,360,58109,1,0,0:0:0:0:
88,236,58578,1,4,1:0:0:0:
160,40,59047,2,0,B|216:24|296:52|320:120|256:160|192:120|216:52|296:24|352:40,1,320
376,140,60218,1,0,0:0:0:0:
256,192,60453,1,0,0:0:0:0:
136,140,60687,1,0,0:0:0:0:
136,140,60804,1,0,0:0:0:0:
136,140,60922,6,0,P|50:166|40:226,1,160,4|2,0:0|0:0,0:0:0:0:
96,282,61625,1,0,0:0:0:0:
152,338,61859,2,0,P|238:312|248:252,1,160,0|2,0:0|0:0,0:0:0:0:
191,195,62562,1,0,0:0:0:0:
136,140,62797,2,0,P|162:54|222:44,1,160,0|2,0:0|0:0,0:0:0:0:
278,100,63500,1,0,0:0:0:0:
335,44,63734,2,0,P|395:54|421:140,2,160,0|2|0,0:0|0:0|0:0,0:0:0:0:
256,44,64906,5,0,0:0:0:0:
256,44,65140,2,0,L|192:108,1,80,2|0,0:0|0:0,0:0:0:0:
257,158,65609,2,0,L|193:222,1,80
258,272,66078,2,0,L|194:336,2,80,2|0|0,0:0|0:0|0:0,0:0:0:0:
314,215,66781,5,0,0:0:0:0:
426,102,67015,1,0,0:0:0:0:
426,102,67484,2,0,L|490:38,2,80,0|0|4,0:0|0:0|0:0,0:0:0:0:
314,215,68422,6,0,L|257:272,1,80,8|0,3:0|0:0,0:0:0:0:
200,328,68890,2,0,L|272:400,2,80,0|0|0,0:0|0:0|0:0,0:0:0:0:
143,272,69593,2,8,L|71:344,2,80,0|0|0,0:0|0:0|0:0,3:0:0:0:
200,215,70297,6,0,L|143:158,1,80,8|0,3:0|0:0,0:0:0:0:
63,158,70765,2,0,L|-9:230,2,80,0|0|0,0:0|0:0|0:0,0:0:0:0:
104,88,71468,2,8,L|104:-13,2,80,0|0|0,0:0|0:0|0:0,3:0:0:0:
104,224,72172,6,0,P|128:304|195:315,1,160,0|4,0:0|2:0,0:0:0:0:
364,145,73109,2,0,P|352:77|272:53,2,160,0|4|0,0:0|0:0|0:0,0:0:0:0:
195,315,74515,1,0,0:0:0:0:
75,315,74750,1,0,0:0:0:0:
38,201,74984,1,0,0:0:0:0:
136,131,75218,1,0,0:0:0:0:
233,201,75453,1,0,0:0:0:0:
136,223,75687,5,0,0:0:0:0:
136,223,75804,1,0,0:0:0:0:
136,223,75922,1,4,0:0:0:0:
136,223,76390,2,0,L|136:135,1,80,2|0,0:0|0:0,0:0:0:0:
136,223,76859,2,0,L|212:267,1,80,0|0,0:0|0:0,0:0:0:0:
136,223,77328,2,0,L|59:267,2,80,2|0|0,0:0|0:0|0:0,0:0:0:0:
312,120,78265,6,0,P|392:104|451:147,1,160,2|0,0:0|0:0,0:0:0:0:
496,224,78968,1,0,0:0:0:0:
452,301,79203,2,0,P|392:344|312:328,2,160,2|0|2,0:0|0:0|0:0,0:0:0:0:
409,224,80375,1,0,0:0:0:0:
452,147,80609,2,0,L|388:83,1,80
307,90,81078,2,0,L|243:26,2,80,2|0|0,0:0|0:0|0:0,0:0:0:0:
369,152,81781,5,0,0:0:0:0:
369,152,82015,2,0,P|369:255|241:255,1,240,2|0,0:0|0:0,0:0:0:0:
198,210,82953,1,2,0:0:0:0:
142,153,83187,1,0,0:0:0:0:
63,74,83422,6,0,P|103:66|143:74,1,80
142,153,83890,2,0,P|182:161|222:153,1,80,2|0,0:0|0:0,0:0:0:0:
221,73,84359,2,0,P|261:65|301:73,1,80,0|0,0:0|0:0,0:0:0:0:
300,152,84828,2,0,P|340:160|380:152,1,80,2|0,0:0|0:0,0:0:0:0:
256,192,85297,12,4,87172,0:0:0:0:
