osu file format v12

[General]
AudioFilename: 02 Hadashi no Princess.mp3
AudioLeadIn: 1500
PreviewTime: 51775
Countdown: 1
SampleSet: Normal
StackLeniency: 0.7
Mode: 0
LetterboxInBreaks: 0

[Editor]
DistanceSpacing: 1
BeatDivisor: 2
GridSize: 8

[Metadata]
Title:Hadashi no Princess (TV Size)
TitleUnicode:Hadashi no Princess (TV Size)
Artist:Tamura Yukari
ArtistUnicode:Tamura Yukari
Creator:Aunxfb
Version:Easy
Source:B Gata H Kei
Tags:Yamada Kosuda Takeshita Mayu
BeatmapID:246926
BeatmapSetID:91163

[Difficulty]
HPDrainRate:2
CircleSize:3
OverallDifficulty:2
ApproachRate:2
SliderMultiplier:1
SliderTickRate:1

[Events]
//Background and Video events
0,0,"wall306.jpg",0,0
Video,657,"ED.avi"
//Break Periods
//Storyboard Layer 0 (Background)
//Storyboard Layer 1 (Fail)
//Storyboard Layer 2 (Pass)
//Storyboard Layer 3 (Foreground)
//Storyboard Sound Samples
//Background Colour Transformations
3,100,163,162,255

[TimingPoints]
922,468.75,4,1,1,85,1,0
20375,-100,4,2,1,85,0,0
30922,-100,4,1,1,85,0,0
53422,-100,4,1,1,85,0,1
67953,-100,4,1,1,85,0,0
68422,-100,4,1,1,85,0,1
87172,-100,4,1,1,85,0,0

[Colours]
Combo1 : 0,0,64
Combo2 : 255,150,45
Combo3 : 119,0,119
Combo4 : 239,35,35

[HitObjects]
192,288,922,2,0,P|256:352|320:288,1,200,8|0,3:0|0:0,0:0:0:0:
319,89,2797,2,0,P|255:25|191:89,1,200,8|0,3:0|0:0,0:0:0:0:
256,280,4672,6,0,P|304:296|349:281,1,100,0|4,0:0|2:0,0:0:0:0:
303,192,5609,2,0,P|348:177|396:193,1,100,0|4,0:0|0:0,0:0:0:0:
445,281,6547,2,0,P|488:160|453:109,1,200
353,109,7953,6,0,P|305:93|249:117,1,100
259,207,8890,2,0,P|307:223|363:199,2,100,2|0|2,0:0|0:0|0:0,0:0:0:0:
188,136,10297,1,0,0:0:0:0:
258,65,10765,2,0,P|306:49|362:73,1,100,2|0,0:0|0:0,0:0:0:0:
422,134,11703,1,2,0:0:0:0:
481,216,12172,6,0,P|521:125|473:45,2,200,0|0|0,1:0|0:0|0:0,2:0:0:70:soft-slidertick.wav
411,286,14515,1,2,0:0:0:0:
340,356,14984,1,0,0:0:0:0:
269,285,15453,1,2,0:0:0:0:
256,192,15922,12,0,19672,2:0:0:0:
88,69,20609,6,0,P|136:53|184:69,1,100,0|8,0:0|0:0,0:0:0:0:
252,138,21547,2,0,P|297:152|345:136,1,100,0|0,0:0|0:0,0:0:0:0:
416,64,22484,2,0,P|461:49|509:65,2,100,0|8|0,0:0|0:0|0:0,0:0:0:0:
274,205,24359,6,0,P|229:219|181:203,1,100,0|8,0:0|0:0,0:0:0:0:
109,131,25296,2,0,P|64:116|16:132,2,100,0|0|0,0:0|0:0|0:0,0:0:0:0:
181,203,26703,2,0,P|229:219|274:205,1,100,8|0,0:0|0:0,0:0:0:0:
416,63,28109,5,0,0:0:0:0:
416,63,28578,2,0,P|368:47|323:61,1,100,8|0,0:0|0:0,0:0:0:0:
251,132,29515,1,0,0:0:0:0:
321,202,29984,2,0,P|366:216|414:200,1,100,0|8,0:0|0:0,0:0:0:0:
489,132,30922,5,0,0:0:0:0:
416,63,31390,1,0,0:0:0:0:
316,63,31859,1,0,0:0:0:0:
251,132,32328,1,0,0:0:0:0:
186,208,32797,1,4,0:0:0:0:
121,284,33265,2,0,L|75:238,2,50
186,360,34203,6,0,L|306:360,1,100,0|2,0:0|0:0,0:0:0:0:
387,360,35140,1,2,0:0:0:0:
458,289,35609,2,0,P|474:241|460:196,1,100,0|0,0:0|0:0,0:0:0:0:
391,123,36547,1,2,0:0:0:0:
290,124,37015,2,0,L|190:124,2,100,2|0|0,0:0|0:0|0:0,0:0:0:0:
391,123,38422,5,4,0:0:0:0:
462,193,38890,1,2,0:0:0:0:
462,293,39359,2,0,P|422:349|342:349,1,150,0|0,1:0|1:0,2:0:0:70:soft-slidertick.wav
247,351,40531,2,0,P|175:351|132:292,1,150
132,192,41703,1,0,0:0:0:0:
203,121,42172,6,0,L|315:121,1,100,2|2,0:0|0:0,0:0:0:0:
374,191,43109,2,0,L|486:191,2,100,0|0|2,0:0|0:0|0:0,0:0:0:0:
304,261,44515,2,0,L|192:261,2,100,2|0|2,0:0|0:0|0:0,0:0:0:0:
404,261,45922,6,0,P|388:319|265:354,1,200
194,283,47328,1,6,0:0:0:0:
123,212,47797,2,0,P|139:154|262:119,1,200
332,189,49203,1,0,0:0:0:0:
256,192,49672,12,8,53422,3:0:0:0:
256,192,55297,1,0,0:0:0:0:
136,176,57172,5,0,0:0:0:0:
206,105,57640,1,4,2:0:0:0:
306,105,58109,1,0,0:0:0:0:
376,175,58578,1,4,0:0:0:0:
320,256,59047,2,0,P|256:320|192:256,1,200
192,156,60453,6,0,P|144:168|88:152,1,100,0|0,0:0|0:0,0:0:0:0:
95,56,61390,2,0,P|143:44|199:60,1,100,2|0,0:0|0:0,0:0:0:0:
192,156,62328,2,0,P|240:168|296:152,1,100,2|0,0:0|0:0,0:0:0:0:
288,56,63265,2,0,P|336:44|392:60,1,100,2|0,0:0|0:0,0:0:0:0:
455,126,64203,1,2,0:0:0:0:
384,196,64672,6,0,P|328:256|216:240,1,200,0|0,1:0|1:0,2:0:0:70:soft-slidertick.wav
288,168,66078,1,2,0:0:0:0:
191,141,66547,2,0,P|247:81|359:97,1,200
427,168,67953,1,4,0:0:0:0:
497,238,68422,6,0,P|481:326|377:310,1,200,8|0,3:0|0:0,0:0:0:0:
245,180,70297,2,0,P|261:92|354:95,1,200,8|0,3:0|0:0,0:0:0:0:
496,237,72172,6,0,P|448:249|392:233,1,100,0|4,0:0|2:0,0:0:0:0:
329,166,73109,2,0,P|280:154|232:166,1,100,0|4,0:0|1:0,0:0:0:0:
161,237,74047,2,0,P|113:249|57:233,2,100
232,166,75453,1,0,0:0:0:0:
302,95,75922,6,0,P|350:83|406:99,2,100,0|2|0,0:0|0:0|0:0,0:0:0:0:
232,166,77328,2,0,P|184:154|128:170,2,100,2|0|2,0:0|0:0|0:0,0:0:0:0:
302,236,78734,2,0,P|350:224|406:240,1,100,0|2,0:0|0:0,0:0:0:0:
352,320,79672,2,0,P|304:332|208:224,1,200,0|0,1:0|1:0,2:0:0:70:soft-slidertick.wav
207,136,81078,2,0,P|255:124|311:140,2,100,2|0|2,0:0|0:0|0:0,0:0:0:0:
136,206,82484,1,0,0:0:0:0:
206,276,82953,1,2,0:0:0:0:
256,192,83422,12,4,87172,0:0:0:0:
