osu file format v12

[General]
AudioFilename: 01.Fantastic future.mp3
AudioLeadIn: 1500
PreviewTime: 71425
Countdown: 0
SampleSet: Normal
StackLeniency: 0.7
Mode: 1
LetterboxInBreaks: 0
WidescreenStoryboard: 0

[Editor]
Bookmarks: 23113,34276,56601,71950,94276,105439,127764,143113,165439,176251,190555,214274,225437,236599
DistanceSpacing: 1
BeatDivisor: 4
GridSize: 32
TimelineZoom: 1

[Metadata]
Title:Fantastic future
TitleUnicode:Fantastic future
Artist:Tamura Yukari
ArtistUnicode:田村ゆかり
Creator:qoot8123
Version:Muzukashii
Source:Hentai Ouji to Warawanai Neko
Tags:opening j.c. staff Frointer Works Media Factory
BeatmapID:246616
BeatmapSetID:91027

[Difficulty]
HPDrainRate:5
CircleSize:5
OverallDifficulty:5
ApproachRate:5
SliderMultiplier:1.4
SliderTickRate:1

[Events]
//Background and Video events
0,0,"BG.png",0,75
//Break Periods
//Storyboard Layer 0 (Background)
//Storyboard Layer 1 (Fail)
//Storyboard Layer 2 (Pass)
//Storyboard Layer 3 (Foreground)
//Storyboard Sound Samples
//Background Colour Transformations
3,100,163,162,255

[TimingPoints]
786.03448275862,348.837209302326,4,1,0,70,1,0
71948,-100,4,1,0,70,0,1
94274,-100,4,1,0,70,0,0
143111,-100,4,1,0,70,0,1
165437,-100,4,1,0,70,0,0
214274,-100,4,1,0,70,0,1
225437,-100,4,1,0,70,0,0

[Colours]
Combo1 : 172,66,109
Combo2 : 160,83,138

[HitObjects]
256,192,786,5,4,0:0:0:0:
256,192,2181,1,0,0:0:0:0:
256,192,3576,1,0,0:0:0:0:
256,192,4972,1,0,0:0:0:0:
256,192,5669,1,0,0:0:0:0:
256,192,6367,1,4,0:0:0:0:
256,192,6716,1,0,0:0:0:0:
256,192,7065,1,0,0:0:0:0:
256,192,7413,1,0,0:0:0:0:
256,192,7588,1,8,0:0:0:0:
256,192,7762,1,0,0:0:0:0:
256,192,8111,1,0,0:0:0:0:
256,192,8460,1,0,0:0:0:0:
256,192,8809,1,0,0:0:0:0:
256,192,9158,1,8,0:0:0:0:
256,192,9332,1,0,0:0:0:0:
256,192,9506,1,0,0:0:0:0:
256,192,9681,1,0,0:0:0:0:
256,192,9855,1,8,0:0:0:0:
256,192,10030,1,0,0:0:0:0:
256,192,10204,1,0,0:0:0:0:
256,192,10379,1,8,0:0:0:0:
256,192,11599,1,8,0:0:0:0:
256,192,11948,1,4,0:0:0:0:
256,192,12297,1,0,0:0:0:0:
256,192,12646,1,8,0:0:0:0:
256,192,12995,1,8,0:0:0:0:
256,192,13169,1,0,0:0:0:0:
256,192,13518,1,0,0:0:0:0:
256,192,13693,1,8,0:0:0:0:
256,192,13867,1,8,0:0:0:0:
256,192,14041,1,0,0:0:0:0:
256,192,14390,1,0,0:0:0:0:
256,192,14739,1,8,0:0:0:0:
256,192,15088,1,8,0:0:0:0:
256,192,15262,1,0,0:0:0:0:
256,192,15437,1,8,0:0:0:0:
256,192,15611,1,0,0:0:0:0:
256,192,15786,1,0,0:0:0:0:
256,192,15960,1,8,0:0:0:0:
256,192,16309,1,8,0:0:0:0:
256,192,16483,1,8,0:0:0:0:
256,192,16658,1,0,0:0:0:0:
256,192,16832,1,8,0:0:0:0:
256,192,17006,1,0,0:0:0:0:
256,192,17181,1,8,0:0:0:0:
256,192,17530,1,12,0:0:0:0:
256,192,17879,1,0,0:0:0:0:
256,192,18227,1,8,0:0:0:0:
256,192,18576,1,8,0:0:0:0:
256,192,18751,1,0,0:0:0:0:
256,192,19099,1,0,0:0:0:0:
256,192,19274,1,8,0:0:0:0:
256,192,19448,1,8,0:0:0:0:
256,192,19623,1,0,0:0:0:0:
256,192,19972,1,8,0:0:0:0:
256,192,20320,1,8,0:0:0:0:
256,192,20495,1,0,0:0:0:0:
256,192,20669,1,0,0:0:0:0:
256,192,20844,1,0,0:0:0:0:
256,192,21018,1,8,0:0:0:0:
256,192,21193,1,0,0:0:0:0:
256,192,21367,1,0,0:0:0:0:
256,192,21541,1,8,0:0:0:0:
256,192,21890,1,0,0:0:0:0:
256,192,22065,1,4,0:0:0:0:
256,192,22413,1,4,0:0:0:0:
256,192,23111,1,4,0:0:0:0:
256,192,23460,1,8,0:0:0:0:
256,192,23809,1,0,0:0:0:0:
256,192,23983,1,0,0:0:0:0:
256,192,24158,1,8,0:0:0:0:
256,192,24506,1,0,0:0:0:0:
256,192,24855,1,8,0:0:0:0:
256,192,25204,1,8,0:0:0:0:
256,192,25379,1,0,0:0:0:0:
256,192,25553,1,8,0:0:0:0:
256,192,25902,1,0,0:0:0:0:
256,192,26251,1,8,0:0:0:0:
256,192,26599,1,0,0:0:0:0:
256,192,26774,1,0,0:0:0:0:
256,192,26948,1,8,0:0:0:0:
256,192,27297,1,0,0:0:0:0:
256,192,27646,1,0,0:0:0:0:
256,192,27820,1,0,0:0:0:0:
256,192,27995,1,8,0:0:0:0:
256,192,28169,1,0,0:0:0:0:
256,192,28344,1,8,0:0:0:0:
256,192,28693,1,4,0:0:0:0:
256,192,29041,1,8,0:0:0:0:
256,192,29390,1,0,0:0:0:0:
256,192,29565,1,0,0:0:0:0:
256,192,29739,1,8,0:0:0:0:
256,192,30088,1,0,0:0:0:0:
256,192,30437,1,0,0:0:0:0:
256,192,30611,1,8,0:0:0:0:
256,192,30786,1,8,0:0:0:0:
256,192,30960,1,0,0:0:0:0:
256,192,31134,1,0,0:0:0:0:
256,192,31483,1,4,0:0:0:0:
256,192,31832,1,0,0:0:0:0:
256,192,32006,1,8,0:0:0:0:
256,192,32181,1,4,0:0:0:0:
256,192,32530,1,8,0:0:0:0:
256,192,32704,1,0,0:0:0:0:
256,192,32879,1,4,0:0:0:0:
256,192,33053,1,0,0:0:0:0:
256,192,33227,1,0,0:0:0:0:
256,192,33402,1,0,0:0:0:0:
256,192,33576,1,0,0:0:0:0:
256,192,33663,1,0,0:0:0:0:
256,192,33751,1,0,0:0:0:0:
256,192,33925,1,8,0:0:0:0:
256,192,34099,1,0,0:0:0:0:
256,192,34274,1,0,0:0:0:0:
256,192,34623,1,0,0:0:0:0:
256,192,34972,1,8,0:0:0:0:
256,192,35146,1,0,0:0:0:0:
256,192,35320,1,0,0:0:0:0:
256,192,35495,1,8,0:0:0:0:
256,192,35844,1,8,0:0:0:0:
256,192,36193,1,8,0:0:0:0:
256,192,36541,1,0,0:0:0:0:
256,192,36890,1,8,0:0:0:0:
256,192,37065,1,8,0:0:0:0:
256,192,37239,1,0,0:0:0:0:
256,192,37413,1,8,0:0:0:0:
256,192,37588,1,0,0:0:0:0:
256,192,37937,1,0,0:0:0:0:
256,192,38111,1,8,0:0:0:0:
256,192,38460,1,0,0:0:0:0:
256,192,38634,1,0,0:0:0:0:
256,192,38809,1,8,0:0:0:0:
256,192,38983,1,0,0:0:0:0:
256,192,39158,1,0,0:0:0:0:
256,192,39332,1,8,0:0:0:0:
256,192,39506,1,8,0:0:0:0:
256,192,39855,1,0,0:0:0:0:
256,192,40204,1,0,0:0:0:0:
256,192,40553,1,8,0:0:0:0:
256,192,40727,1,8,0:0:0:0:
256,192,40902,1,0,0:0:0:0:
256,192,41076,1,8,0:0:0:0:
256,192,41425,1,0,0:0:0:0:
256,192,41774,1,8,0:0:0:0:
256,192,42123,1,8,0:0:0:0:
256,192,42297,1,0,0:0:0:0:
256,192,42472,1,8,0:0:0:0:
256,192,42646,1,8,0:0:0:0:
256,192,42820,1,8,0:0:0:0:
256,192,42995,1,0,0:0:0:0:
256,192,43169,1,8,0:0:0:0:
256,192,43518,1,0,0:0:0:0:
256,192,43693,1,8,0:0:0:0:
256,192,44041,1,8,0:0:0:0:
256,192,44390,1,8,0:0:0:0:
256,192,44739,1,0,0:0:0:0:
256,192,44913,1,0,0:0:0:0:
256,192,45088,1,8,0:0:0:0:
256,192,45262,1,8,0:0:0:0:
256,192,45437,1,4,0:0:0:0:
256,192,45786,1,8,0:0:0:0:
256,192,46134,1,0,0:0:0:0:
256,192,46309,1,0,0:0:0:0:
256,192,46483,1,8,0:0:0:0:
256,192,46658,1,0,0:0:0:0:
256,192,47006,1,0,0:0:0:0:
256,192,47181,1,8,0:0:0:0:
256,192,47355,1,8,0:0:0:0:
256,192,47704,1,0,0:0:0:0:
256,192,47879,1,0,0:0:0:0:
256,192,48053,1,8,0:0:0:0:
256,192,48227,1,0,0:0:0:0:
256,192,48576,1,0,0:0:0:0:
256,192,48751,1,8,0:0:0:0:
256,192,49099,1,8,0:0:0:0:
256,192,49274,1,0,0:0:0:0:
256,192,49623,1,8,0:0:0:0:
256,192,49797,1,0,0:0:0:0:
256,192,49972,1,8,0:0:0:0:
256,192,50146,1,8,0:0:0:0:
256,192,50320,1,0,0:0:0:0:
256,192,50669,1,0,0:0:0:0:
256,192,51018,1,0,0:0:0:0:
256,192,51367,1,8,0:0:0:0:
256,192,51541,1,0,0:0:0:0:
256,192,51716,1,8,0:0:0:0:
256,192,51890,1,0,0:0:0:0:
256,192,52065,1,8,0:0:0:0:
256,192,52239,1,8,0:0:0:0:
256,192,52413,1,0,0:0:0:0:
256,192,52762,1,0,0:0:0:0:
256,192,52937,1,8,0:0:0:0:
256,192,53111,1,8,0:0:0:0:
256,192,53286,1,0,0:0:0:0:
256,192,53460,1,0,0:0:0:0:
256,192,53634,1,8,0:0:0:0:
256,192,53809,1,4,0:0:0:0:
256,192,54158,1,8,0:0:0:0:
256,192,54506,1,4,0:0:0:0:
256,192,54855,1,0,0:0:0:0:
256,192,55030,1,0,0:0:0:0:
256,192,55204,1,12,0:0:0:0:
256,192,55553,1,12,0:0:0:0:
256,192,55902,1,0,0:0:0:0:
256,192,56076,1,0,0:0:0:0:
256,192,56251,1,8,0:0:0:0:
256,192,56425,1,8,0:0:0:0:
256,192,56599,1,4,0:0:0:0:
256,192,57123,1,0,0:0:0:0:
256,192,57297,1,0,0:0:0:0:
256,192,57646,1,8,0:0:0:0:
256,192,57820,1,0,0:0:0:0:
256,192,58169,1,0,0:0:0:0:
256,192,58518,1,8,0:0:0:0:
256,192,58693,1,0,0:0:0:0:
256,192,59390,1,0,0:0:0:0:
256,192,59913,1,0,0:0:0:0:
256,192,60088,1,0,0:0:0:0:
256,192,60437,1,0,0:0:0:0:
256,192,60611,1,8,0:0:0:0:
256,192,60960,1,8,0:0:0:0:
256,192,61309,1,0,0:0:0:0:
256,192,61483,1,8,0:0:0:0:
256,192,62181,1,4,0:0:0:0:
256,192,62704,1,0,0:0:0:0:
256,192,62879,1,0,0:0:0:0:
256,192,63227,1,8,0:0:0:0:
256,192,63402,1,0,0:0:0:0:
256,192,63751,1,0,0:0:0:0:
256,192,64099,1,8,0:0:0:0:
256,192,64274,1,0,0:0:0:0:
256,192,64448,1,0,0:0:0:0:
256,192,64623,1,8,0:0:0:0:
256,192,64797,1,0,0:0:0:0:
256,192,64884,1,0,0:0:0:0:
256,192,64972,1,0,0:0:0:0:
256,192,65320,1,8,0:0:0:0:
256,192,65669,1,0,0:0:0:0:
256,192,66018,1,8,0:0:0:0:
256,192,66367,1,0,0:0:0:0:
256,192,66716,1,8,0:0:0:0:
256,192,67065,1,8,0:0:0:0:
256,192,67239,1,0,0:0:0:0:
256,192,67413,1,8,0:0:0:0:
256,192,67588,1,8,0:0:0:0:
256,192,67762,1,0,0:0:0:0:
256,192,68111,1,8,0:0:0:0:
256,192,68286,1,8,0:0:0:0:
256,192,68460,1,0,0:0:0:0:
256,192,68809,1,8,0:0:0:0:
256,192,68983,1,0,0:0:0:0:
256,192,69158,1,8,0:0:0:0:
256,192,69332,1,8,0:0:0:0:
256,192,69506,1,8,0:0:0:0:
256,192,69681,1,8,0:0:0:0:
256,192,69855,1,0,0:0:0:0:
256,192,69943,1,0,0:0:0:0:
256,192,70030,1,0,0:0:0:0:
256,192,70204,1,8,0:0:0:0:
256,192,70379,1,0,0:0:0:0:
256,192,70553,1,0,0:0:0:0:
256,192,71599,1,8,0:0:0:0:
256,192,71948,1,4,0:0:0:0:
256,192,72297,1,8,0:0:0:0:
256,192,72472,1,0,0:0:0:0:
256,192,72646,1,8,0:0:0:0:
256,192,72995,1,0,0:0:0:0:
256,192,73169,1,8,0:0:0:0:
256,192,73518,1,8,0:0:0:0:
256,192,73693,1,0,0:0:0:0:
256,192,73867,1,0,0:0:0:0:
256,192,74041,1,8,0:0:0:0:
256,192,74390,1,8,0:0:0:0:
256,192,74739,1,8,0:0:0:0:
256,192,74913,1,0,0:0:0:0:
256,192,75088,1,8,0:0:0:0:
256,192,75262,1,8,0:0:0:0:
256,192,75437,1,8,0:0:0:0:
256,192,75611,1,0,0:0:0:0:
256,192,75786,1,0,0:0:0:0:
256,192,75960,1,8,0:0:0:0:
256,192,76309,1,8,0:0:0:0:
256,192,76483,1,8,0:0:0:0:
256,192,76658,1,0,0:0:0:0:
256,192,76832,1,8,0:0:0:0:
256,192,77006,1,0,0:0:0:0:
256,192,77181,1,8,0:0:0:0:
256,192,77530,1,4,0:0:0:0:
256,192,77879,1,8,0:0:0:0:
256,192,78053,1,0,0:0:0:0:
256,192,78227,1,8,0:0:0:0:
256,192,78576,1,0,0:0:0:0:
256,192,78751,1,8,0:0:0:0:
256,192,79099,1,0,0:0:0:0:
256,192,79274,1,8,0:0:0:0:
256,192,79448,1,8,0:0:0:0:
256,192,79623,1,0,0:0:0:0:
256,192,79972,1,8,0:0:0:0:
256,192,80320,1,0,0:0:0:0:
256,192,80495,1,8,0:0:0:0:
256,192,80669,1,8,0:0:0:0:
256,192,80844,1,0,0:0:0:0:
256,192,81018,1,8,0:0:0:0:
256,192,81193,1,8,0:0:0:0:
256,192,81367,1,0,0:0:0:0:
256,192,81541,1,8,0:0:0:0:
256,192,81890,1,0,0:0:0:0:
256,192,82065,1,0,0:0:0:0:
256,192,82239,1,0,0:0:0:0:
256,192,82413,1,0,0:0:0:0:
256,192,82501,1,0,0:0:0:0:
256,192,82588,1,0,0:0:0:0:
256,192,82762,1,8,0:0:0:0:
256,192,82937,1,0,0:0:0:0:
256,192,83111,1,12,0:0:0:0:
256,192,83460,1,8,0:0:0:0:
256,192,83634,1,0,0:0:0:0:
256,192,83809,1,8,0:0:0:0:
256,192,84158,1,8,0:0:0:0:
256,192,84332,1,0,0:0:0:0:
256,192,84681,1,0,0:0:0:0:
256,192,84855,1,8,0:0:0:0:
256,192,85030,1,8,0:0:0:0:
256,192,85204,1,0,0:0:0:0:
256,192,85553,1,8,0:0:0:0:
256,192,85902,1,8,0:0:0:0:
256,192,86076,1,8,0:0:0:0:
256,192,86251,1,8,0:0:0:0:
256,192,86425,1,0,0:0:0:0:
256,192,86599,1,8,0:0:0:0:
256,192,86774,1,0,0:0:0:0:
256,192,86948,1,0,0:0:0:0:
256,192,87123,1,8,0:0:0:0:
256,192,87472,1,8,0:0:0:0:
256,192,87646,1,8,0:0:0:0:
256,192,87820,1,0,0:0:0:0:
256,192,87995,1,8,0:0:0:0:
256,192,88169,1,0,0:0:0:0:
256,192,88344,1,8,0:0:0:0:
256,192,88693,1,12,0:0:0:0:
256,192,89041,1,8,0:0:0:0:
256,192,89216,1,0,0:0:0:0:
256,192,89390,1,8,0:0:0:0:
256,192,89739,1,8,0:0:0:0:
256,192,89913,1,0,0:0:0:0:
256,192,90262,1,0,0:0:0:0:
256,192,90437,1,8,0:0:0:0:
256,192,90611,1,8,0:0:0:0:
256,192,90786,1,0,0:0:0:0:
256,192,91134,1,8,0:0:0:0:
256,192,91483,1,8,0:0:0:0:
256,192,91658,1,0,0:0:0:0:
256,192,91832,1,0,0:0:0:0:
256,192,92006,1,0,0:0:0:0:
256,192,92181,1,8,0:0:0:0:
256,192,92268,1,8,0:0:0:0:
256,192,92355,1,8,0:0:0:0:
256,192,92530,1,0,0:0:0:0:
256,192,92704,1,8,0:0:0:0:
256,192,92879,1,4,0:0:0:0:
256,192,93227,1,4,0:0:0:0:
256,192,93576,1,4,0:0:0:0:
256,192,94274,1,4,0:0:0:0:
256,192,94623,1,8,0:0:0:0:
256,192,94972,1,0,0:0:0:0:
256,192,95146,1,0,0:0:0:0:
256,192,95320,1,8,0:0:0:0:
256,192,95669,1,0,0:0:0:0:
256,192,96018,1,8,0:0:0:0:
256,192,96367,1,0,0:0:0:0:
256,192,96541,1,0,0:0:0:0:
256,192,96716,1,8,0:0:0:0:
256,192,97065,1,0,0:0:0:0:
256,192,97413,1,0,0:0:0:0:
256,192,97588,1,8,0:0:0:0:
256,192,97937,1,8,0:0:0:0:
256,192,98111,1,0,0:0:0:0:
256,192,98460,1,0,0:0:0:0:
256,192,98809,1,0,0:0:0:0:
256,192,98983,1,0,0:0:0:0:
256,192,99158,1,8,0:0:0:0:
256,192,99332,1,0,0:0:0:0:
256,192,99506,1,8,0:0:0:0:
256,192,99855,1,4,0:0:0:0:
256,192,100204,1,8,0:0:0:0:
256,192,100553,1,0,0:0:0:0:
256,192,100727,1,0,0:0:0:0:
256,192,100902,1,8,0:0:0:0:
256,192,101251,1,0,0:0:0:0:
256,192,101599,1,0,0:0:0:0:
256,192,101774,1,8,0:0:0:0:
256,192,101948,1,8,0:0:0:0:
256,192,102123,1,0,0:0:0:0:
256,192,102297,1,8,0:0:0:0:
256,192,102646,1,4,0:0:0:0:
256,192,102995,1,0,0:0:0:0:
256,192,103169,1,8,0:0:0:0:
256,192,103344,1,4,0:0:0:0:
256,192,103693,1,8,0:0:0:0:
256,192,103867,1,0,0:0:0:0:
256,192,104041,1,4,0:0:0:0:
256,192,104216,1,0,0:0:0:0:
256,192,104390,1,0,0:0:0:0:
256,192,104565,1,0,0:0:0:0:
256,192,104739,1,0,0:0:0:0:
256,192,104826,1,0,0:0:0:0:
256,192,104913,1,0,0:0:0:0:
256,192,105088,1,8,0:0:0:0:
256,192,105262,1,0,0:0:0:0:
256,192,105437,1,4,0:0:0:0:
256,192,105611,1,0,0:0:0:0:
256,192,105786,1,0,0:0:0:0:
256,192,106134,1,8,0:0:0:0:
256,192,106309,1,0,0:0:0:0:
256,192,106483,1,0,0:0:0:0:
256,192,106658,1,8,0:0:0:0:
256,192,107006,1,8,0:0:0:0:
256,192,107355,1,0,0:0:0:0:
256,192,107704,1,8,0:0:0:0:
256,192,107879,1,0,0:0:0:0:
256,192,108053,1,8,0:0:0:0:
256,192,108227,1,4,0:0:0:0:
256,192,108402,1,0,0:0:0:0:
256,192,108576,1,0,0:0:0:0:
256,192,108925,1,0,0:0:0:0:
256,192,109099,1,8,0:0:0:0:
256,192,109274,1,8,0:0:0:0:
256,192,109448,1,0,0:0:0:0:
256,192,109797,1,0,0:0:0:0:
256,192,109972,1,8,0:0:0:0:
256,192,110320,1,8,0:0:0:0:
256,192,110495,1,0,0:0:0:0:
256,192,110844,1,8,0:0:0:0:
256,192,111018,1,4,0:0:0:0:
256,192,111193,1,0,0:0:0:0:
256,192,111367,1,0,0:0:0:0:
256,192,111716,1,8,0:0:0:0:
256,192,111890,1,0,0:0:0:0:
256,192,112065,1,0,0:0:0:0:
256,192,112239,1,8,0:0:0:0:
256,192,112588,1,8,0:0:0:0:
256,192,112937,1,0,0:0:0:0:
256,192,113286,1,0,0:0:0:0:
256,192,113460,1,8,0:0:0:0:
256,192,113634,1,8,0:0:0:0:
256,192,113809,1,4,0:0:0:0:
256,192,113983,1,0,0:0:0:0:
256,192,114158,1,0,0:0:0:0:
256,192,114506,1,0,0:0:0:0:
256,192,114681,1,0,0:0:0:0:
256,192,114768,1,0,0:0:0:0:
256,192,114855,1,0,0:0:0:0:
256,192,115030,1,12,0:0:0:0:
256,192,116599,1,4,0:0:0:0:
256,192,116948,1,8,0:0:0:0:
256,192,117297,1,0,0:0:0:0:
256,192,117472,1,0,0:0:0:0:
256,192,117646,1,8,0:0:0:0:
256,192,117820,1,0,0:0:0:0:
256,192,118169,1,0,0:0:0:0:
256,192,118344,1,8,0:0:0:0:
256,192,118693,1,8,0:0:0:0:
256,192,118867,1,0,0:0:0:0:
256,192,119041,1,0,0:0:0:0:
256,192,119216,1,8,0:0:0:0:
256,192,119390,1,0,0:0:0:0:
256,192,119739,1,0,0:0:0:0:
256,192,119913,1,8,0:0:0:0:
256,192,120262,1,8,0:0:0:0:
256,192,120437,1,0,0:0:0:0:
256,192,120786,1,8,0:0:0:0:
256,192,120960,1,0,0:0:0:0:
256,192,121134,1,8,0:0:0:0:
256,192,121309,1,8,0:0:0:0:
256,192,121483,1,0,0:0:0:0:
256,192,121832,1,0,0:0:0:0:
256,192,122006,1,8,0:0:0:0:
256,192,122181,1,0,0:0:0:0:
256,192,122530,1,8,0:0:0:0:
256,192,122879,1,8,0:0:0:0:
256,192,123053,1,0,0:0:0:0:
256,192,123227,1,8,0:0:0:0:
256,192,123402,1,8,0:0:0:0:
256,192,123576,1,0,0:0:0:0:
256,192,123925,1,0,0:0:0:0:
256,192,124099,1,8,0:0:0:0:
256,192,124274,1,8,0:0:0:0:
256,192,124448,1,0,0:0:0:0:
256,192,124623,1,0,0:0:0:0:
256,192,124797,1,8,0:0:0:0:
256,192,124972,1,4,0:0:0:0:
256,192,125320,1,8,0:0:0:0:
256,192,125669,1,4,0:0:0:0:
256,192,126018,1,0,0:0:0:0:
256,192,126193,1,0,0:0:0:0:
256,192,126367,1,12,0:0:0:0:
256,192,126716,1,12,0:0:0:0:
256,192,127065,1,8,0:0:0:0:
256,192,127239,1,0,0:0:0:0:
256,192,127413,1,8,0:0:0:0:
256,192,127588,1,8,0:0:0:0:
256,192,127762,1,4,0:0:0:0:
256,192,128286,1,0,0:0:0:0:
256,192,128460,1,0,0:0:0:0:
256,192,128809,1,8,0:0:0:0:
256,192,128983,1,0,0:0:0:0:
256,192,129332,1,0,0:0:0:0:
256,192,129681,1,8,0:0:0:0:
256,192,129855,1,0,0:0:0:0:
256,192,130553,1,0,0:0:0:0:
256,192,131076,1,0,0:0:0:0:
256,192,131251,1,0,0:0:0:0:
256,192,131599,1,0,0:0:0:0:
256,192,131774,1,8,0:0:0:0:
256,192,132123,1,8,0:0:0:0:
256,192,132472,1,0,0:0:0:0:
256,192,132646,1,8,0:0:0:0:
256,192,133344,1,4,0:0:0:0:
256,192,133867,1,0,0:0:0:0:
256,192,134041,1,0,0:0:0:0:
256,192,134390,1,8,0:0:0:0:
256,192,134565,1,0,0:0:0:0:
256,192,134913,1,0,0:0:0:0:
256,192,135262,1,8,0:0:0:0:
256,192,135437,1,0,0:0:0:0:
256,192,135611,1,0,0:0:0:0:
256,192,135786,1,8,0:0:0:0:
256,192,135960,1,0,0:0:0:0:
256,192,136047,1,0,0:0:0:0:
256,192,136134,1,0,0:0:0:0:
256,192,136483,1,8,0:0:0:0:
256,192,136832,1,0,0:0:0:0:
256,192,137181,1,8,0:0:0:0:
256,192,137530,1,0,0:0:0:0:
256,192,137879,1,8,0:0:0:0:
256,192,138227,1,0,0:0:0:0:
256,192,138402,1,0,0:0:0:0:
256,192,138576,1,8,0:0:0:0:
256,192,138751,1,8,0:0:0:0:
256,192,138925,1,0,0:0:0:0:
256,192,139274,1,8,0:0:0:0:
256,192,139448,1,8,0:0:0:0:
256,192,139623,1,0,0:0:0:0:
256,192,139972,1,8,0:0:0:0:
256,192,140146,1,0,0:0:0:0:
256,192,140320,1,0,0:0:0:0:
256,192,140495,1,0,0:0:0:0:
256,192,140669,1,8,0:0:0:0:
256,192,140844,1,8,0:0:0:0:
256,192,141018,1,0,0:0:0:0:
256,192,141105,1,0,0:0:0:0:
256,192,141193,1,0,0:0:0:0:
256,192,141367,1,8,0:0:0:0:
256,192,141541,1,8,0:0:0:0:
256,192,141716,1,0,0:0:0:0:
256,192,142762,1,8,0:0:0:0:
256,192,143111,1,4,0:0:0:0:
256,192,143460,1,8,0:0:0:0:
256,192,143634,1,0,0:0:0:0:
256,192,143809,1,8,0:0:0:0:
256,192,144158,1,0,0:0:0:0:
256,192,144332,1,8,0:0:0:0:
256,192,144681,1,8,0:0:0:0:
256,192,144855,1,0,0:0:0:0:
256,192,145030,1,0,0:0:0:0:
256,192,145204,1,8,0:0:0:0:
256,192,145553,1,8,0:0:0:0:
256,192,145902,1,8,0:0:0:0:
256,192,146076,1,0,0:0:0:0:
256,192,146251,1,8,0:0:0:0:
256,192,146425,1,8,0:0:0:0:
256,192,146599,1,8,0:0:0:0:
256,192,146774,1,0,0:0:0:0:
256,192,146948,1,0,0:0:0:0:
256,192,147123,1,8,0:0:0:0:
256,192,147472,1,8,0:0:0:0:
256,192,147646,1,8,0:0:0:0:
256,192,147820,1,0,0:0:0:0:
256,192,147995,1,8,0:0:0:0:
256,192,148344,1,8,0:0:0:0:
256,192,148693,1,4,0:0:0:0:
256,192,149041,1,8,0:0:0:0:
256,192,149216,1,0,0:0:0:0:
256,192,149390,1,8,0:0:0:0:
256,192,149739,1,0,0:0:0:0:
256,192,149913,1,8,0:0:0:0:
256,192,150262,1,0,0:0:0:0:
256,192,150437,1,8,0:0:0:0:
256,192,150611,1,8,0:0:0:0:
256,192,150786,1,0,0:0:0:0:
256,192,151134,1,8,0:0:0:0:
256,192,151483,1,0,0:0:0:0:
256,192,151658,1,8,0:0:0:0:
256,192,151832,1,8,0:0:0:0:
256,192,152006,1,0,0:0:0:0:
256,192,152181,1,8,0:0:0:0:
256,192,152355,1,8,0:0:0:0:
256,192,152530,1,0,0:0:0:0:
256,192,152704,1,8,0:0:0:0:
256,192,153053,1,0,0:0:0:0:
256,192,153227,1,0,0:0:0:0:
256,192,153402,1,0,0:0:0:0:
256,192,153576,1,0,0:0:0:0:
256,192,153663,1,0,0:0:0:0:
256,192,153751,1,0,0:0:0:0:
256,192,153925,1,8,0:0:0:0:
256,192,154099,1,0,0:0:0:0:
256,192,154274,1,12,0:0:0:0:
256,192,154623,1,8,0:0:0:0:
256,192,154797,1,0,0:0:0:0:
256,192,154972,1,8,0:0:0:0:
256,192,155320,1,8,0:0:0:0:
256,192,155495,1,0,0:0:0:0:
256,192,155844,1,0,0:0:0:0:
256,192,156018,1,8,0:0:0:0:
256,192,156193,1,8,0:0:0:0:
256,192,156367,1,0,0:0:0:0:
256,192,156716,1,8,0:0:0:0:
256,192,157065,1,8,0:0:0:0:
256,192,157239,1,8,0:0:0:0:
256,192,157413,1,8,0:0:0:0:
256,192,157588,1,0,0:0:0:0:
256,192,157762,1,8,0:0:0:0:
256,192,157937,1,0,0:0:0:0:
256,192,158111,1,0,0:0:0:0:
256,192,158286,1,8,0:0:0:0:
256,192,158634,1,8,0:0:0:0:
256,192,158809,1,8,0:0:0:0:
256,192,158983,1,0,0:0:0:0:
256,192,159158,1,8,0:0:0:0:
256,192,159332,1,0,0:0:0:0:
256,192,159506,1,8,0:0:0:0:
256,192,159855,1,12,0:0:0:0:
256,192,160204,1,8,0:0:0:0:
256,192,160379,1,0,0:0:0:0:
256,192,160553,1,8,0:0:0:0:
256,192,160902,1,8,0:0:0:0:
256,192,161076,1,0,0:0:0:0:
256,192,161425,1,0,0:0:0:0:
256,192,161599,1,8,0:0:0:0:
256,192,161774,1,8,0:0:0:0:
256,192,161948,1,0,0:0:0:0:
256,192,162297,1,8,0:0:0:0:
256,192,162472,1,0,0:0:0:0:
256,192,162646,1,8,0:0:0:0:
256,192,162820,1,0,0:0:0:0:
256,192,162995,1,0,0:0:0:0:
256,192,163169,1,0,0:0:0:0:
256,192,163344,1,8,0:0:0:0:
256,192,163431,1,8,0:0:0:0:
256,192,163518,1,8,0:0:0:0:
256,192,163693,1,0,0:0:0:0:
256,192,163867,1,8,0:0:0:0:
256,192,164041,1,4,0:0:0:0:
256,192,164390,1,4,0:0:0:0:
256,192,164739,1,4,0:0:0:0:
256,192,165437,1,4,0:0:0:0:
256,192,166832,1,0,0:0:0:0:
256,192,167181,1,8,0:0:0:0:
256,192,167704,1,8,0:0:0:0:
256,192,168053,1,8,0:0:0:0:
256,192,168751,1,0,0:0:0:0:
256,192,169274,1,8,0:0:0:0:
256,192,169797,1,8,0:0:0:0:
256,192,170146,1,0,0:0:0:0:
256,192,170495,1,8,0:0:0:0:
256,192,170844,1,0,0:0:0:0:
256,192,170931,1,0,0:0:0:0:
256,192,171018,1,0,0:0:0:0:
256,192,171367,1,0,0:0:0:0:
256,192,171716,1,0,0:0:0:0:
256,192,172065,1,0,0:0:0:0:
256,192,172413,1,0,0:0:0:0:
256,192,172762,1,0,0:0:0:0:
256,192,173111,1,0,0:0:0:0:
256,192,173460,1,0,0:0:0:0:
256,192,173634,1,0,0:0:0:0:
256,192,173809,1,0,0:0:0:0:
256,192,173983,1,8,0:0:0:0:
256,192,174158,1,0,0:0:0:0:
256,192,174332,1,8,0:0:0:0:
256,192,174506,1,0,0:0:0:0:
256,192,174681,1,8,0:0:0:0:
256,192,174855,1,0,0:0:0:0:
256,192,175030,1,0,0:0:0:0:
256,192,175204,1,12,0:0:0:0:
256,192,175553,1,0,0:0:0:0:
256,192,175902,1,4,0:0:0:0:
256,192,176076,1,4,0:0:0:0:
256,192,176251,1,4,0:0:0:0:
256,192,176599,1,4,0:0:0:0:
256,192,176774,1,0,0:0:0:0:
256,192,176948,1,8,0:0:0:0:
256,192,177123,1,0,0:0:0:0:
256,192,177297,1,0,0:0:0:0:
256,192,177472,1,0,0:0:0:0:
256,192,177646,1,8,0:0:0:0:
256,192,177820,1,0,0:0:0:0:
256,192,177995,1,0,0:0:0:0:
256,192,178169,1,0,0:0:0:0:
256,192,178344,1,8,0:0:0:0:
256,192,178518,1,0,0:0:0:0:
256,192,178693,1,0,0:0:0:0:
256,192,178867,1,0,0:0:0:0:
256,192,179041,1,8,0:0:0:0:
256,192,179390,1,8,0:0:0:0:
256,192,179565,1,0,0:0:0:0:
256,192,179739,1,0,0:0:0:0:
256,192,179913,1,8,0:0:0:0:
256,192,180088,1,0,0:0:0:0:
256,192,180262,1,0,0:0:0:0:
256,192,180437,1,8,0:0:0:0:
256,192,180611,1,0,0:0:0:0:
256,192,180786,1,0,0:0:0:0:
256,192,180960,1,8,0:0:0:0:
256,192,181134,1,0,0:0:0:0:
256,192,181309,1,8,0:0:0:0:
256,192,181483,1,0,0:0:0:0:
256,192,181658,1,8,0:0:0:0:
256,192,181832,1,8,0:0:0:0:
256,192,182181,1,8,0:0:0:0:
256,192,182355,1,0,0:0:0:0:
256,192,182530,1,8,0:0:0:0:
256,192,182704,1,0,0:0:0:0:
256,192,182879,1,8,0:0:0:0:
256,192,183053,1,8,0:0:0:0:
256,192,183227,1,0,0:0:0:0:
256,192,183402,1,0,0:0:0:0:
256,192,183576,1,8,0:0:0:0:
256,192,183751,1,0,0:0:0:0:
256,192,183925,1,8,0:0:0:0:
256,192,184099,1,0,0:0:0:0:
256,192,184274,1,8,0:0:0:0:
256,192,184448,1,8,0:0:0:0:
256,192,184623,1,8,0:0:0:0:
256,192,184797,1,8,0:0:0:0:
256,192,184972,1,0,0:0:0:0:
256,192,185320,1,0,0:0:0:0:
256,192,185495,1,8,0:0:0:0:
256,192,185669,1,0,0:0:0:0:
256,192,185844,1,0,0:0:0:0:
256,192,186018,1,8,0:0:0:0:
256,192,186367,1,0,0:0:0:0:
256,192,186541,1,0,0:0:0:0:
256,192,186716,1,0,0:0:0:0:
256,192,186890,1,0,0:0:0:0:
256,192,187065,1,8,0:0:0:0:
256,192,187239,1,8,0:0:0:0:
256,192,187413,1,8,0:0:0:0:
256,192,187588,1,8,0:0:0:0:
256,192,187762,1,0,0:0:0:0:
256,192,187937,1,0,0:0:0:0:
256,192,188111,1,8,0:0:0:0:
256,192,188286,1,8,0:0:0:0:
256,192,188460,1,0,0:0:0:0:
256,192,188634,1,8,0:0:0:0:
256,192,188809,1,0,0:0:0:0:
256,192,188983,1,12,0:0:0:0:
256,192,189332,1,8,0:0:0:0:
256,192,189506,1,8,0:0:0:0:
256,192,189681,1,0,0:0:0:0:
256,192,189855,1,0,0:0:0:0:
256,192,189943,1,0,0:0:0:0:
256,192,190030,1,0,0:0:0:0:
256,192,190204,1,8,0:0:0:0:
256,192,190379,1,8,0:0:0:0:
256,192,190553,1,0,0:0:0:0:
256,192,190902,1,8,0:0:0:0:
256,192,191251,1,0,0:0:0:0:
256,192,191425,1,8,0:0:0:0:
256,192,191599,1,0,0:0:0:0:
256,192,191774,1,8,0:0:0:0:
256,192,192123,1,8,0:0:0:0:
256,192,192472,1,0,0:0:0:0:
256,192,192820,1,0,0:0:0:0:
256,192,193169,1,8,0:0:0:0:
256,192,193344,1,8,0:0:0:0:
256,192,193518,1,0,0:0:0:0:
256,192,193693,1,8,0:0:0:0:
256,192,193867,1,8,0:0:0:0:
256,192,194216,1,8,0:0:0:0:
256,192,194390,1,0,0:0:0:0:
256,192,194565,1,8,0:0:0:0:
256,192,194739,1,0,0:0:0:0:
256,192,195088,1,8,0:0:0:0:
256,192,195437,1,0,0:0:0:0:
256,192,195611,1,0,0:0:0:0:
256,192,195786,1,8,0:0:0:0:
256,192,195960,1,0,0:0:0:0:
256,192,196134,1,8,0:0:0:0:
256,192,196483,1,8,0:0:0:0:
256,192,196658,1,0,0:0:0:0:
256,192,196832,1,8,0:0:0:0:
256,192,197181,1,8,0:0:0:0:
256,192,197355,1,0,0:0:0:0:
256,192,197530,1,8,0:0:0:0:
256,192,197879,1,8,0:0:0:0:
256,192,198053,1,0,0:0:0:0:
256,192,198227,1,8,0:0:0:0:
256,192,198402,1,0,0:0:0:0:
256,192,198576,1,8,0:0:0:0:
256,192,198751,1,8,0:0:0:0:
256,192,198925,1,0,0:0:0:0:
256,192,199274,1,8,0:0:0:0:
256,192,199448,1,8,0:0:0:0:
256,192,199623,1,0,0:0:0:0:
256,192,199972,1,8,0:0:0:0:
256,192,200146,1,0,0:0:0:0:
256,192,200320,1,0,0:0:0:0:
256,192,200495,1,0,0:0:0:0:
256,192,200669,1,0,0:0:0:0:
256,192,200844,1,0,0:0:0:0:
256,192,201018,1,0,0:0:0:0:
256,192,201105,1,0,0:0:0:0:
256,192,201193,1,0,0:0:0:0:
256,192,201367,1,8,0:0:0:0:
256,192,201541,1,0,0:0:0:0:
256,192,201716,1,0,0:0:0:0:
256,192,202762,1,8,0:0:0:0:
256,192,203111,1,4,0:0:0:0:
256,192,204506,1,0,0:0:0:0:
256,192,205902,1,0,0:0:0:0:
256,192,207297,1,0,0:0:0:0:
256,192,207995,1,0,0:0:0:0:
256,192,208344,1,8,0:0:0:0:
256,192,208693,1,4,0:0:0:0:
256,192,209041,1,0,0:0:0:0:
256,192,209390,1,0,0:0:0:0:
256,192,209739,1,0,0:0:0:0:
256,192,209913,1,8,0:0:0:0:
256,192,210088,1,0,0:0:0:0:
256,192,210437,1,0,0:0:0:0:
256,192,210786,1,0,0:0:0:0:
256,192,211134,1,0,0:0:0:0:
256,192,211309,1,0,0:0:0:0:
256,192,211483,1,12,0:0:0:0:
256,192,211658,1,0,0:0:0:0:
256,192,211832,1,0,0:0:0:0:
256,192,212006,1,0,0:0:0:0:
256,192,212181,1,8,0:0:0:0:
256,192,212355,1,0,0:0:0:0:
256,192,212443,1,0,0:0:0:0:
256,192,212530,1,0,0:0:0:0:
256,192,212704,1,8,0:0:0:0:
256,192,213925,1,8,0:0:0:0:
256,192,214274,1,12,0:0:0:0:
256,192,214623,1,8,0:0:0:0:
256,192,214797,1,0,0:0:0:0:
256,192,214972,1,8,0:0:0:0:
256,192,215320,1,8,0:0:0:0:
256,192,215495,1,0,0:0:0:0:
256,192,215844,1,0,0:0:0:0:
256,192,216018,1,8,0:0:0:0:
256,192,216193,1,8,0:0:0:0:
256,192,216367,1,0,0:0:0:0:
256,192,216716,1,8,0:0:0:0:
256,192,217065,1,8,0:0:0:0:
256,192,217239,1,8,0:0:0:0:
256,192,217413,1,8,0:0:0:0:
256,192,217588,1,0,0:0:0:0:
256,192,217762,1,8,0:0:0:0:
256,192,217937,1,0,0:0:0:0:
256,192,218111,1,0,0:0:0:0:
256,192,218286,1,8,0:0:0:0:
256,192,218634,1,8,0:0:0:0:
256,192,218809,1,8,0:0:0:0:
256,192,218983,1,0,0:0:0:0:
256,192,219158,1,8,0:0:0:0:
256,192,219332,1,0,0:0:0:0:
256,192,219506,1,8,0:0:0:0:
256,192,219855,1,12,0:0:0:0:
256,192,220204,1,8,0:0:0:0:
256,192,220379,1,0,0:0:0:0:
256,192,220553,1,8,0:0:0:0:
256,192,220902,1,8,0:0:0:0:
256,192,221076,1,0,0:0:0:0:
256,192,221425,1,0,0:0:0:0:
256,192,221599,1,8,0:0:0:0:
256,192,221774,1,8,0:0:0:0:
256,192,221948,1,0,0:0:0:0:
256,192,222297,1,8,0:0:0:0:
256,192,222646,1,8,0:0:0:0:
256,192,222820,1,0,0:0:0:0:
256,192,222995,1,0,0:0:0:0:
256,192,223169,1,0,0:0:0:0:
256,192,223344,1,8,0:0:0:0:
256,192,223431,1,8,0:0:0:0:
256,192,223518,1,8,0:0:0:0:
256,192,223693,1,0,0:0:0:0:
256,192,223867,1,8,0:0:0:0:
256,192,224041,1,4,0:0:0:0:
256,192,224390,1,4,0:0:0:0:
256,192,224739,1,4,0:0:0:0:
256,192,225437,1,4,0:0:0:0:
256,192,225786,1,8,0:0:0:0:
256,192,226134,1,0,0:0:0:0:
256,192,226309,1,0,0:0:0:0:
256,192,226483,1,8,0:0:0:0:
256,192,226832,1,0,0:0:0:0:
256,192,227181,1,8,0:0:0:0:
256,192,227530,1,0,0:0:0:0:
256,192,227704,1,8,0:0:0:0:
256,192,227879,1,8,0:0:0:0:
256,192,228227,1,0,0:0:0:0:
256,192,228576,1,0,0:0:0:0:
256,192,228751,1,8,0:0:0:0:
256,192,229099,1,8,0:0:0:0:
256,192,229274,1,0,0:0:0:0:
256,192,229623,1,0,0:0:0:0:
256,192,229972,1,0,0:0:0:0:
256,192,230146,1,0,0:0:0:0:
256,192,230320,1,8,0:0:0:0:
256,192,230495,1,0,0:0:0:0:
256,192,230669,1,0,0:0:0:0:
256,192,231018,1,4,0:0:0:0:
256,192,231367,1,8,0:0:0:0:
256,192,231716,1,0,0:0:0:0:
256,192,231890,1,0,0:0:0:0:
256,192,232065,1,8,0:0:0:0:
256,192,232413,1,0,0:0:0:0:
256,192,232588,1,8,0:0:0:0:
256,192,232762,1,0,0:0:0:0:
256,192,232937,1,8,0:0:0:0:
256,192,233111,1,8,0:0:0:0:
256,192,233286,1,0,0:0:0:0:
256,192,233460,1,0,0:0:0:0:
256,192,233809,1,4,0:0:0:0:
256,192,234158,1,0,0:0:0:0:
256,192,234332,1,8,0:0:0:0:
256,192,234506,1,4,0:0:0:0:
256,192,234855,1,8,0:0:0:0:
256,192,235030,1,0,0:0:0:0:
256,192,235204,1,4,0:0:0:0:
256,192,235379,1,0,0:0:0:0:
256,192,235553,1,0,0:0:0:0:
256,192,235727,1,0,0:0:0:0:
256,192,235902,1,0,0:0:0:0:
256,192,235989,1,0,0:0:0:0:
256,192,236076,1,0,0:0:0:0:
256,192,236251,1,8,0:0:0:0:
256,192,236425,1,0,0:0:0:0:
256,192,236599,1,12,0:0:0:0:
256,192,236948,1,0,0:0:0:0:
256,192,237297,1,8,0:0:0:0:
256,192,237646,1,8,0:0:0:0:
256,192,237995,1,8,0:0:0:0:
256,192,238169,1,0,0:0:0:0:
256,192,238344,1,8,0:0:0:0:
256,192,238518,1,0,0:0:0:0:
256,192,238693,1,8,0:0:0:0:
256,192,239041,1,8,0:0:0:0:
256,192,239216,1,0,0:0:0:0:
256,192,239390,1,8,0:0:0:0:
256,192,239565,1,0,0:0:0:0:
256,192,239739,1,8,0:0:0:0:
256,192,239913,1,0,0:0:0:0:
256,192,240088,1,0,0:0:0:0:
256,192,240437,1,0,0:0:0:0:
256,192,240786,1,8,0:0:0:0:
256,192,241134,1,0,0:0:0:0:
256,192,241483,1,8,0:0:0:0:
256,192,241658,1,8,0:0:0:0:
256,192,241832,1,0,0:0:0:0:
256,192,242006,1,0,0:0:0:0:
256,192,242181,1,8,0:0:0:0:
256,192,242355,1,0,0:0:0:0:
256,192,242530,1,0,0:0:0:0:
256,192,242879,1,0,0:0:0:0:
256,192,243053,1,0,0:0:0:0:
256,192,243227,1,8,0:0:0:0:
256,192,243576,1,8,0:0:0:0:
256,192,243751,1,0,0:0:0:0:
256,192,243925,1,0,0:0:0:0:
256,192,244099,1,8,0:0:0:0:
256,192,244274,1,8,0:0:0:0:
256,192,244448,1,0,0:0:0:0:
256,192,244623,1,8,0:0:0:0:
256,192,244972,1,4,0:0:0:0:
256,192,245146,1,0,0:0:0:0:
256,192,245320,1,0,0:0:0:0:
256,192,245495,1,0,0:0:0:0:
256,192,245669,1,8,0:0:0:0:
256,192,245756,1,8,0:0:0:0:
256,192,245844,1,8,0:0:0:0:
256,192,246018,1,8,0:0:0:0:
256,192,246193,1,0,0:0:0:0:
256,192,246367,1,4,0:0:0:0:
256,192,246716,1,4,0:0:0:0:
256,192,247065,1,4,0:0:0:0:
