osu file format v12

[General]
AudioFilename: 01.Fantastic future.mp3
AudioLeadIn: 1500
PreviewTime: 71425
Countdown: 0
SampleSet: Normal
StackLeniency: 0.7
Mode: 1
LetterboxInBreaks: 0
WidescreenStoryboard: 0

[Editor]
Bookmarks: 23113,34276,56601,71950,94276,105439,127764,143113,165439,176251,190555,214274,225437,236599
DistanceSpacing: 1
BeatDivisor: 4
GridSize: 32
TimelineZoom: 1

[Metadata]
Title:Fantastic future
TitleUnicode:Fantastic future
Artist:Tamura Yukari
ArtistUnicode:田村ゆかり
Creator:qoot8123
Version:Futsuu
Source:Hentai Ouji to Warawanai Neko
Tags:opening j.c. staff Frointer Works Media Factory
BeatmapID:246613
BeatmapSetID:91027

[Difficulty]
HPDrainRate:4
CircleSize:5
OverallDifficulty:4
ApproachRate:5
SliderMultiplier:1.4
SliderTickRate:1

[Events]
//Background and Video events
0,0,"BG.png",0,75
//Break Periods
//Storyboard Layer 0 (Background)
//Storyboard Layer 1 (Fail)
//Storyboard Layer 2 (Pass)
//Storyboard Layer 3 (Foreground)
//Storyboard Sound Samples
//Background Colour Transformations
3,100,163,162,255

[TimingPoints]
786.03448275862,348.837209302326,4,1,0,70,1,0
71948,-100,4,1,0,70,0,1
94274,-100,4,1,0,70,0,0
143111,-100,4,1,0,70,0,1
165437,-100,4,1,0,70,0,0
214274,-100,4,1,0,70,0,1
225437,-100,4,1,0,70,0,0

[Colours]
Combo1 : 172,66,109
Combo2 : 160,83,138

[HitObjects]
256,192,786,5,4,0:0:0:0:
256,192,2181,1,0,0:0:0:0:
256,192,3576,1,0,0:0:0:0:
256,192,4972,1,0,0:0:0:0:
256,192,5669,1,0,0:0:0:0:
256,192,6367,1,4,0:0:0:0:
256,192,7762,1,4,0:0:0:0:
256,192,9158,1,0,0:0:0:0:
256,192,9506,1,8,0:0:0:0:
256,192,9855,1,0,0:0:0:0:
256,192,10379,1,12,0:0:0:0:
256,192,11599,1,8,0:0:0:0:
256,192,11948,1,4,0:0:0:0:
256,192,12646,1,8,0:0:0:0:
256,192,13344,1,8,0:0:0:0:
256,192,13693,1,0,0:0:0:0:
256,192,14041,1,8,0:0:0:0:
256,192,14739,1,8,0:0:0:0:
256,192,15088,1,0,0:0:0:0:
256,192,15437,1,8,0:0:0:0:
256,192,15786,1,8,0:0:0:0:
256,192,16134,1,0,0:0:0:0:
256,192,16832,1,0,0:0:0:0:
256,192,17181,1,8,0:0:0:0:
256,192,17530,1,12,0:0:0:0:
256,192,18227,1,8,0:0:0:0:
256,192,18925,1,8,0:0:0:0:
256,192,19274,1,0,0:0:0:0:
256,192,19623,1,8,0:0:0:0:
256,192,20320,1,4,0:0:0:0:
256,192,20669,1,0,0:0:0:0:
256,192,21018,1,8,0:0:0:0:
256,192,21367,1,8,0:0:0:0:
256,192,21716,1,0,0:0:0:0:
256,192,22065,1,0,0:0:0:0:
256,192,22413,1,4,0:0:0:0:
256,192,23111,1,4,0:0:0:0:
256,192,23809,1,0,0:0:0:0:
256,192,24506,1,0,0:0:0:0:
256,192,25204,1,0,0:0:0:0:
256,192,25553,1,8,0:0:0:0:
256,192,25902,1,0,0:0:0:0:
256,192,26599,1,8,0:0:0:0:
256,192,27297,1,0,0:0:0:0:
256,192,27646,1,8,0:0:0:0:
256,192,27995,1,0,0:0:0:0:
256,192,28344,1,8,0:0:0:0:
256,192,28693,1,4,0:0:0:0:
256,192,29390,1,0,0:0:0:0:
256,192,30088,1,0,0:0:0:0:
256,192,30437,1,8,0:0:0:0:
256,192,31134,1,8,0:0:0:0:
256,192,31483,1,0,0:0:0:0:
256,192,32181,1,8,0:0:0:0:
256,192,32530,1,8,0:0:0:0:
256,192,32879,1,4,0:0:0:0:
256,192,33576,1,0,0:0:0:0:
256,192,33925,1,8,0:0:0:0:
256,192,34274,1,0,0:0:0:0:
256,192,34972,1,0,0:0:0:0:
256,192,35669,1,0,0:0:0:0:
256,192,36367,1,8,0:0:0:0:
256,192,36716,1,0,0:0:0:0:
256,192,37065,1,0,0:0:0:0:
256,192,37762,1,0,0:0:0:0:
256,192,38460,1,0,0:0:0:0:
256,192,38809,1,8,0:0:0:0:
256,192,39158,1,0,0:0:0:0:
256,192,39506,1,8,0:0:0:0:
256,192,39855,1,0,0:0:0:0:
256,192,40553,1,0,0:0:0:0:
256,192,41251,1,8,0:0:0:0:
256,192,41948,1,0,0:0:0:0:
256,192,42297,1,8,0:0:0:0:
256,192,42646,1,8,0:0:0:0:
256,192,43344,1,8,0:0:0:0:
256,192,44041,1,8,0:0:0:0:
256,192,44390,1,0,0:0:0:0:
256,192,44739,1,8,0:0:0:0:
256,192,45088,1,8,0:0:0:0:
256,192,45437,1,4,0:0:0:0:
256,192,46134,1,0,0:0:0:0:
256,192,46483,1,8,0:0:0:0:
256,192,46832,1,0,0:0:0:0:
256,192,47530,1,0,0:0:0:0:
256,192,47879,1,8,0:0:0:0:
256,192,48227,1,8,0:0:0:0:
256,192,48925,1,8,0:0:0:0:
256,192,49274,1,8,0:0:0:0:
256,192,49623,1,0,0:0:0:0:
256,192,50320,1,0,0:0:0:0:
256,192,50669,1,8,0:0:0:0:
256,192,51018,1,0,0:0:0:0:
256,192,51716,1,8,0:0:0:0:
256,192,52413,1,0,0:0:0:0:
256,192,53111,1,8,0:0:0:0:
256,192,53460,1,8,0:0:0:0:
256,192,53809,1,4,0:0:0:0:
256,192,54506,1,4,0:0:0:0:
256,192,55204,1,12,0:0:0:0:
256,192,55902,1,8,0:0:0:0:
256,192,56251,1,8,0:0:0:0:
256,192,56599,1,4,0:0:0:0:
256,192,57123,1,0,0:0:0:0:
256,192,57297,1,0,0:0:0:0:
256,192,57820,1,0,0:0:0:0:
256,192,58693,1,0,0:0:0:0:
256,192,59390,1,0,0:0:0:0:
256,192,59913,1,0,0:0:0:0:
256,192,60088,1,0,0:0:0:0:
256,192,60611,1,0,0:0:0:0:
256,192,61483,1,8,0:0:0:0:
256,192,62181,1,0,0:0:0:0:
256,192,62704,1,0,0:0:0:0:
256,192,62879,1,0,0:0:0:0:
256,192,63402,1,0,0:0:0:0:
256,192,64274,1,0,0:0:0:0:
256,192,64623,1,8,0:0:0:0:
256,192,64972,1,0,0:0:0:0:
256,192,65669,1,0,0:0:0:0:
256,192,66367,1,8,0:0:0:0:
256,192,67065,1,0,0:0:0:0:
256,192,67413,1,8,0:0:0:0:
256,192,67762,1,0,0:0:0:0:
256,192,68460,1,0,0:0:0:0:
256,192,68809,1,8,0:0:0:0:
256,192,69158,1,0,0:0:0:0:
256,192,69506,1,0,0:0:0:0:
256,192,69855,12,0,70553,0:0:0:0:
256,192,71948,5,4,0:0:0:0:
256,192,72297,1,0,0:0:0:0:
256,192,72646,1,8,0:0:0:0:
256,192,72995,1,0,0:0:0:0:
256,192,73169,1,8,0:0:0:0:
256,192,73518,1,0,0:0:0:0:
256,192,73693,1,8,0:0:0:0:
256,192,73867,1,8,0:0:0:0:
256,192,74041,1,0,0:0:0:0:
256,192,74390,1,8,0:0:0:0:
256,192,74739,1,8,0:0:0:0:
256,192,75088,1,0,0:0:0:0:
256,192,75437,1,8,0:0:0:0:
256,192,75786,1,8,0:0:0:0:
256,192,76134,1,0,0:0:0:0:
256,192,76832,1,8,0:0:0:0:
256,192,77181,1,8,0:0:0:0:
256,192,77530,1,4,0:0:0:0:
256,192,77879,1,0,0:0:0:0:
256,192,78227,1,8,0:0:0:0:
256,192,78576,1,0,0:0:0:0:
256,192,78751,1,8,0:0:0:0:
256,192,79099,1,0,0:0:0:0:
256,192,79274,1,8,0:0:0:0:
256,192,79448,1,8,0:0:0:0:
256,192,79623,1,0,0:0:0:0:
256,192,79972,1,8,0:0:0:0:
256,192,80320,1,8,0:0:0:0:
256,192,80669,1,0,0:0:0:0:
256,192,81018,1,8,0:0:0:0:
256,192,81367,1,0,0:0:0:0:
256,192,81716,1,4,0:0:0:0:
256,192,82413,1,0,0:0:0:0:
256,192,82762,1,8,0:0:0:0:
256,192,83111,1,12,0:0:0:0:
256,192,83460,1,0,0:0:0:0:
256,192,83809,1,8,0:0:0:0:
256,192,84158,1,0,0:0:0:0:
256,192,84332,1,8,0:0:0:0:
256,192,84681,1,8,0:0:0:0:
256,192,84855,1,0,0:0:0:0:
256,192,85204,1,8,0:0:0:0:
256,192,85902,1,0,0:0:0:0:
256,192,86251,1,0,0:0:0:0:
256,192,86599,1,8,0:0:0:0:
256,192,86948,1,8,0:0:0:0:
256,192,87297,1,0,0:0:0:0:
256,192,87820,1,8,0:0:0:0:
256,192,87995,1,0,0:0:0:0:
256,192,88344,1,8,0:0:0:0:
256,192,88693,1,12,0:0:0:0:
256,192,89041,1,0,0:0:0:0:
256,192,89390,1,8,0:0:0:0:
256,192,89739,1,0,0:0:0:0:
256,192,89913,1,8,0:0:0:0:
256,192,90262,1,8,0:0:0:0:
256,192,90437,1,0,0:0:0:0:
256,192,90786,1,8,0:0:0:0:
256,192,91483,1,0,0:0:0:0:
256,192,91832,1,0,0:0:0:0:
256,192,92181,1,8,0:0:0:0:
256,192,92530,1,8,0:0:0:0:
256,192,92879,1,4,0:0:0:0:
256,192,93227,1,4,0:0:0:0:
256,192,93576,1,4,0:0:0:0:
256,192,94274,1,4,0:0:0:0:
256,192,94972,1,0,0:0:0:0:
256,192,95669,1,0,0:0:0:0:
256,192,96367,1,0,0:0:0:0:
256,192,96716,1,8,0:0:0:0:
256,192,97065,1,0,0:0:0:0:
256,192,97762,1,8,0:0:0:0:
256,192,98460,1,0,0:0:0:0:
256,192,98809,1,8,0:0:0:0:
256,192,99158,1,0,0:0:0:0:
256,192,99506,1,8,0:0:0:0:
256,192,99855,1,4,0:0:0:0:
256,192,100553,1,0,0:0:0:0:
256,192,101251,1,0,0:0:0:0:
256,192,101599,1,8,0:0:0:0:
256,192,102297,1,8,0:0:0:0:
256,192,102646,1,0,0:0:0:0:
256,192,102995,1,8,0:0:0:0:
256,192,103693,1,8,0:0:0:0:
256,192,104041,1,4,0:0:0:0:
256,192,104739,1,0,0:0:0:0:
256,192,105088,1,8,0:0:0:0:
256,192,105437,1,4,0:0:0:0:
256,192,105786,1,0,0:0:0:0:
256,192,106134,1,0,0:0:0:0:
256,192,106658,1,8,0:0:0:0:
256,192,108227,1,4,0:0:0:0:
256,192,108576,1,0,0:0:0:0:
256,192,108925,1,0,0:0:0:0:
256,192,109448,1,0,0:0:0:0:
256,192,111018,1,4,0:0:0:0:
256,192,111367,1,0,0:0:0:0:
256,192,111716,1,0,0:0:0:0:
256,192,112239,1,8,0:0:0:0:
256,192,113809,1,4,0:0:0:0:
256,192,114158,1,0,0:0:0:0:
256,192,114506,1,0,0:0:0:0:
256,192,115030,1,4,0:0:0:0:
256,192,116251,1,8,0:0:0:0:
256,192,116599,1,4,0:0:0:0:
256,192,117297,1,0,0:0:0:0:
256,192,117646,1,8,0:0:0:0:
256,192,117995,1,0,0:0:0:0:
256,192,118693,1,0,0:0:0:0:
256,192,119041,1,8,0:0:0:0:
256,192,119390,1,8,0:0:0:0:
256,192,120088,1,8,0:0:0:0:
256,192,120437,1,8,0:0:0:0:
256,192,120786,1,0,0:0:0:0:
256,192,121483,1,0,0:0:0:0:
256,192,121832,1,8,0:0:0:0:
256,192,122181,1,0,0:0:0:0:
256,192,122879,1,8,0:0:0:0:
256,192,123576,1,0,0:0:0:0:
256,192,124274,1,8,0:0:0:0:
256,192,124623,1,8,0:0:0:0:
256,192,124972,1,4,0:0:0:0:
256,192,125669,1,4,0:0:0:0:
256,192,126367,1,12,0:0:0:0:
256,192,127065,1,8,0:0:0:0:
256,192,127413,1,8,0:0:0:0:
256,192,127762,1,4,0:0:0:0:
256,192,128460,1,0,0:0:0:0:
256,192,129855,1,0,0:0:0:0:
256,192,130553,1,0,0:0:0:0:
256,192,131251,1,0,0:0:0:0:
256,192,132646,1,8,0:0:0:0:
256,192,133344,1,0,0:0:0:0:
256,192,134041,1,0,0:0:0:0:
256,192,135437,1,0,0:0:0:0:
256,192,135786,1,8,0:0:0:0:
256,192,136134,1,0,0:0:0:0:
256,192,136832,1,0,0:0:0:0:
256,192,137530,1,8,0:0:0:0:
256,192,138227,1,0,0:0:0:0:
256,192,138576,1,8,0:0:0:0:
256,192,138925,1,0,0:0:0:0:
256,192,139623,1,0,0:0:0:0:
256,192,139972,1,8,0:0:0:0:
256,192,140320,1,0,0:0:0:0:
256,192,140669,1,0,0:0:0:0:
256,192,141018,12,0,141716,0:0:0:0:
256,192,143111,5,4,0:0:0:0:
256,192,143460,1,0,0:0:0:0:
256,192,143809,1,8,0:0:0:0:
256,192,144506,1,8,0:0:0:0:
256,192,144855,1,8,0:0:0:0:
256,192,145204,1,0,0:0:0:0:
256,192,145902,1,8,0:0:0:0:
256,192,146251,1,0,0:0:0:0:
256,192,146599,1,8,0:0:0:0:
256,192,146948,1,8,0:0:0:0:
256,192,147297,1,0,0:0:0:0:
256,192,147995,1,8,0:0:0:0:
256,192,148344,1,8,0:0:0:0:
256,192,148693,1,4,0:0:0:0:
256,192,149041,1,0,0:0:0:0:
256,192,149390,1,8,0:0:0:0:
256,192,150088,1,8,0:0:0:0:
256,192,150437,1,8,0:0:0:0:
256,192,150786,1,0,0:0:0:0:
256,192,151483,1,8,0:0:0:0:
256,192,151832,1,0,0:0:0:0:
256,192,152181,1,8,0:0:0:0:
256,192,152530,1,0,0:0:0:0:
256,192,152879,1,4,0:0:0:0:
256,192,153576,1,0,0:0:0:0:
256,192,153925,1,8,0:0:0:0:
256,192,154274,1,12,0:0:0:0:
256,192,154623,1,0,0:0:0:0:
256,192,154972,1,8,0:0:0:0:
256,192,155669,1,8,0:0:0:0:
256,192,156018,1,0,0:0:0:0:
256,192,156367,1,8,0:0:0:0:
256,192,157065,1,0,0:0:0:0:
256,192,157413,1,0,0:0:0:0:
256,192,157762,1,8,0:0:0:0:
256,192,158111,1,8,0:0:0:0:
256,192,158460,1,0,0:0:0:0:
256,192,159158,1,0,0:0:0:0:
256,192,159506,1,8,0:0:0:0:
256,192,159855,1,12,0:0:0:0:
256,192,160204,1,0,0:0:0:0:
256,192,160553,1,8,0:0:0:0:
256,192,161251,1,8,0:0:0:0:
256,192,161599,1,0,0:0:0:0:
256,192,161948,1,8,0:0:0:0:
256,192,162646,1,0,0:0:0:0:
256,192,162995,1,0,0:0:0:0:
256,192,163344,1,8,0:0:0:0:
256,192,163693,1,8,0:0:0:0:
256,192,164041,1,4,0:0:0:0:
256,192,164390,1,4,0:0:0:0:
256,192,164739,1,4,0:0:0:0:
256,192,165437,1,4,0:0:0:0:
256,192,166832,1,8,0:0:0:0:
256,192,167879,1,0,0:0:0:0:
256,192,168227,1,8,0:0:0:0:
256,192,169274,1,8,0:0:0:0:
256,192,171018,1,4,0:0:0:0:
256,192,171716,1,0,0:0:0:0:
256,192,172413,1,0,0:0:0:0:
256,192,173111,1,0,0:0:0:0:
256,192,173460,1,0,0:0:0:0:
256,192,173809,1,0,0:0:0:0:
256,192,174158,1,8,0:0:0:0:
256,192,174506,1,0,0:0:0:0:
256,192,174855,1,8,0:0:0:0:
256,192,175204,1,4,0:0:0:0:
256,192,175553,1,8,0:0:0:0:
256,192,175902,1,12,0:0:0:0:
256,192,176251,1,12,0:0:0:0:
256,192,176599,1,0,0:0:0:0:
256,192,177297,1,0,0:0:0:0:
256,192,177995,1,0,0:0:0:0:
256,192,178693,1,0,0:0:0:0:
256,192,179041,1,8,0:0:0:0:
256,192,179390,1,0,0:0:0:0:
256,192,180088,1,0,0:0:0:0:
256,192,180786,1,0,0:0:0:0:
256,192,181483,1,0,0:0:0:0:
256,192,181832,1,8,0:0:0:0:
256,192,182181,1,0,0:0:0:0:
256,192,182879,1,0,0:0:0:0:
256,192,183576,1,0,0:0:0:0:
256,192,184274,1,0,0:0:0:0:
256,192,184623,1,8,0:0:0:0:
256,192,184972,1,8,0:0:0:0:
256,192,185495,1,8,0:0:0:0:
256,192,186018,1,8,0:0:0:0:
256,192,186367,1,0,0:0:0:0:
256,192,186716,1,8,0:0:0:0:
256,192,187065,1,0,0:0:0:0:
256,192,187413,1,8,0:0:0:0:
256,192,187762,1,0,0:0:0:0:
256,192,188460,1,8,0:0:0:0:
256,192,188809,1,8,0:0:0:0:
256,192,189158,1,0,0:0:0:0:
256,192,189506,1,0,0:0:0:0:
256,192,189855,1,8,0:0:0:0:
256,192,190204,1,0,0:0:0:0:
256,192,190553,1,4,0:0:0:0:
256,192,191251,5,0,0:0:0:0:
256,192,191948,1,0,0:0:0:0:
256,192,192646,1,0,0:0:0:0:
256,192,192995,1,0,0:0:0:0:
256,192,193344,1,8,0:0:0:0:
256,192,194041,1,8,0:0:0:0:
256,192,194739,1,0,0:0:0:0:
256,192,195088,1,0,0:0:0:0:
256,192,195437,1,8,0:0:0:0:
256,192,195786,1,8,0:0:0:0:
256,192,196134,1,0,0:0:0:0:
256,192,196832,1,8,0:0:0:0:
256,192,197530,1,0,0:0:0:0:
256,192,198227,1,0,0:0:0:0:
256,192,198576,1,8,0:0:0:0:
256,192,198925,1,0,0:0:0:0:
256,192,199623,1,0,0:0:0:0:
256,192,199972,1,8,0:0:0:0:
256,192,200320,1,0,0:0:0:0:
256,192,200669,1,0,0:0:0:0:
256,192,201018,1,8,0:0:0:0:
256,192,201367,1,8,0:0:0:0:
256,192,201716,1,0,0:0:0:0:
256,192,202762,1,8,0:0:0:0:
256,192,203111,1,4,0:0:0:0:
256,192,204506,1,0,0:0:0:0:
256,192,205902,1,0,0:0:0:0:
256,192,207297,1,0,0:0:0:0:
256,192,207995,1,0,0:0:0:0:
256,192,208344,1,8,0:0:0:0:
256,192,208693,1,4,0:0:0:0:
256,192,210088,1,4,0:0:0:0:
256,192,211483,1,4,0:0:0:0:
256,192,211832,1,0,0:0:0:0:
256,192,212181,1,0,0:0:0:0:
256,192,212530,1,8,0:0:0:0:
256,192,212879,1,0,0:0:0:0:
256,192,214274,1,12,0:0:0:0:
256,192,214623,1,0,0:0:0:0:
256,192,214972,1,8,0:0:0:0:
256,192,215669,1,8,0:0:0:0:
256,192,216018,1,8,0:0:0:0:
256,192,216367,1,0,0:0:0:0:
256,192,217065,1,0,0:0:0:0:
256,192,217413,1,8,0:0:0:0:
256,192,217762,1,8,0:0:0:0:
256,192,218111,1,0,0:0:0:0:
256,192,218460,1,8,0:0:0:0:
256,192,219158,1,0,0:0:0:0:
256,192,219506,1,8,0:0:0:0:
256,192,219855,1,12,0:0:0:0:
256,192,220204,1,0,0:0:0:0:
256,192,220553,1,8,0:0:0:0:
256,192,221251,1,8,0:0:0:0:
256,192,221599,1,8,0:0:0:0:
256,192,221948,1,0,0:0:0:0:
256,192,222646,1,0,0:0:0:0:
256,192,222995,1,0,0:0:0:0:
256,192,223344,1,8,0:0:0:0:
256,192,223693,1,8,0:0:0:0:
256,192,224041,1,4,0:0:0:0:
256,192,224390,1,4,0:0:0:0:
256,192,224739,1,4,0:0:0:0:
256,192,225437,1,4,0:0:0:0:
256,192,226134,1,0,0:0:0:0:
256,192,226832,1,0,0:0:0:0:
256,192,227530,1,0,0:0:0:0:
256,192,227879,1,8,0:0:0:0:
256,192,228227,1,0,0:0:0:0:
256,192,228925,1,8,0:0:0:0:
256,192,229623,1,0,0:0:0:0:
256,192,229972,1,8,0:0:0:0:
256,192,230320,1,0,0:0:0:0:
256,192,230669,1,8,0:0:0:0:
256,192,231018,1,4,0:0:0:0:
256,192,231716,1,0,0:0:0:0:
256,192,232413,1,0,0:0:0:0:
256,192,232762,1,8,0:0:0:0:
256,192,233460,1,8,0:0:0:0:
256,192,233809,1,0,0:0:0:0:
256,192,234158,1,8,0:0:0:0:
256,192,234855,1,8,0:0:0:0:
256,192,235204,1,0,0:0:0:0:
256,192,235553,1,0,0:0:0:0:
256,192,235902,1,8,0:0:0:0:
256,192,236251,1,8,0:0:0:0:
256,192,236599,1,4,0:0:0:0:
256,192,237297,1,0,0:0:0:0:
256,192,237646,1,0,0:0:0:0:
256,192,237995,1,8,0:0:0:0:
256,192,238693,1,8,0:0:0:0:
256,192,239041,1,8,0:0:0:0:
256,192,239390,1,0,0:0:0:0:
256,192,240088,1,0,0:0:0:0:
256,192,240786,1,0,0:0:0:0:
256,192,241134,1,0,0:0:0:0:
256,192,241483,1,8,0:0:0:0:
256,192,241832,1,8,0:0:0:0:
256,192,242181,1,0,0:0:0:0:
256,192,242879,1,0,0:0:0:0:
256,192,243576,1,0,0:0:0:0:
256,192,243925,1,8,0:0:0:0:
256,192,244274,1,0,0:0:0:0:
256,192,244623,1,8,0:0:0:0:
256,192,244972,1,4,0:0:0:0:
256,192,245669,1,8,0:0:0:0:
256,192,246367,1,4,0:0:0:0:
256,192,246716,1,4,0:0:0:0:
256,192,247065,1,4,0:0:0:0:
