osu file format v12

[General]
AudioFilename: Fantastic future.mp3
AudioLeadIn: 2000
PreviewTime: 66282
Countdown: 0
SampleSet: Soft
StackLeniency: 0.7
Mode: 0
LetterboxInBreaks: 1

[Editor]
DistanceSpacing: 1
BeatDivisor: 4
GridSize: 4

[Metadata]
Title:Fantastic future (TV size)
TitleUnicode:Fantastic future (TV size)
Artist:Tamura Yukari
ArtistUnicode:田村ゆかり
Creator:Kotone
Version:no cloth no play
Source:The "HENTAI" prince and the stony cat.
Tags:Hentai Ouji to Warawanai Neko
BeatmapID:241095
BeatmapSetID:86790

[Difficulty]
HPDrainRate:5
CircleSize:4
OverallDifficulty:5
ApproachRate:7
SliderMultiplier:1.5
SliderTickRate:1

[Events]
//Background and Video events
0,0,"BG.jpg",1,1
Video,0,"hentaisan.avi"
//Break Periods
//Storyboard Layer 0 (Background)
//Storyboard Layer 1 (Fail)
//Storyboard Layer 2 (Pass)
//Storyboard Layer 3 (Foreground)
//Storyboard Sound Samples
//Background Colour Transformations
3,100,163,162,255

[TimingPoints]
701,348.837209302326,4,2,10,60,1,0
45526,-100,4,2,10,40,0,0
45701,-100,4,2,10,50,0,0
45875,-100,4,2,10,60,0,0
66282,-100,4,2,10,70,0,1
87910,-100,4,2,10,60,0,0

[Colours]
Combo1 : 240,5,5
Combo2 : 252,180,226
Combo3 : 255,128,64

[HitObjects]
146,278,701,6,0,P|197:295|298:279,1,150,4|2,0:0|0:0,0:0:0:0:
366,106,1398,2,0,P|314:88|213:104,1,150,0|2,0:0|0:0,0:0:0:0:
229,175,1921,6,0,P|274:156|283:60,1,150,0|2,0:0|0:0,0:0:0:0:
220,28,2445,2,0,L|60:28,1,150,0|0,0:0|0:0,0:0:0:0:
17,82,2968,1,2,0:0:0:0:
114,196,3317,1,2,0:0:0:0:
51,155,3491,6,0,L|203:155,1,150,0|2,0:0|0:0,0:0:0:0:
258,203,4014,1,0,0:0:0:0:
255,278,4189,2,0,P|235:312|203:335,1,75,0|2,0:0|0:0,0:0:0:0:
131,328,4538,1,0,0:0:0:0:
104,258,4712,6,0,L|260:258,1,150,2|0,0:0|0:0,0:0:0:0:
329,254,5235,2,0,P|354:215|356:184,1,75,2|0,0:0|0:0,0:0:0:0:
335,114,5584,5,0,0:0:0:0:
287,55,5759,1,2,0:0:0:0:
214,36,5933,1,0,0:0:0:0:
139,45,6107,1,2,0:0:0:0:
79,90,6282,6,0,L|79:250,1,150,4|0,0:0|1:0,0:0:0:0:
210,134,6980,1,0,0:0:0:0:
278,163,7154,1,2,0:0:0:0:
335,115,7328,1,0,1:0:0:0:
410,116,7503,6,0,P|468:148|486:233,1,150,2|0,0:0|0:0,0:0:0:0:
433,276,8026,2,0,L|276:277,1,150,0|0,1:0|0:0,0:0:0:0:
214,245,8549,1,2,0:0:0:0:
278,163,8724,1,2,0:0:0:0:
321,351,9073,6,0,L|170:351,1,150,4|0,0:0|1:0,0:0:0:0:
96,341,9596,1,0,0:0:0:0:
52,280,9770,2,0,P|43:247|51:200,1,75,0|2,0:0|0:0,0:0:0:0:
81,139,10119,1,0,1:0:0:0:
152,116,10294,5,4,0:0:0:0:
152,116,10642,2,0,L|232:116,1,75,2|0,0:0|0:0,0:0:0:0:
227,116,11166,5,0,1:0:0:0:
292,151,11340,1,0,0:0:0:0:
337,79,11514,1,8,0:0:0:0:
468,132,11863,6,0,L|312:132,1,150,4|0,0:0|1:0,0:0:0:0:
456,208,12561,2,0,P|418:213|385:232,1,75,2|0,0:0|0:0,0:0:0:0:
377,305,12910,1,0,1:0:0:0:
449,286,13084,6,0,P|467:238|419:154,1,150,2|0,0:0|0:0,0:0:0:0:
349,141,13607,2,0,L|193:141,1,150,0|0,1:0|0:0,0:0:0:0:
133,102,14131,1,8,0:0:0:0:
168,35,14305,2,0,P|200:41|236:61,1,75,8|0,0:0|0:0,0:0:0:0:
344,48,14654,6,0,P|355:96|309:187,1,150,2|0,0:0|1:0,0:0:0:0:
238,183,15177,1,2,0:0:0:0:
184,235,15352,1,0,0:0:0:0:
203,307,15526,1,2,0:0:0:0:
273,333,15701,1,0,1:0:0:0:
329,283,15875,6,0,P|393:260|486:288,1,150,2|0,0:0|0:0,0:0:0:0:
511,341,16398,1,0,1:0:0:0:
445,377,16573,1,0,0:0:0:0:
376,346,16747,2,0,L|376:191,1,150,2|0,0:0|1:0,0:0:0:0:
451,51,17445,6,0,P|403:32|294:57,1,150,4|0,0:0|1:0,0:0:0:0:
92,104,18142,2,0,L|172:104,1,75,2|0,0:0|0:0,0:0:0:0:
237,131,18491,1,0,1:0:0:0:
231,55,18666,6,0,P|203:95|222:190,1,150,2|0,0:0|0:0,0:0:0:0:
296,183,19189,2,0,L|374:183,1,75,0|0,1:0|0:0,0:0:0:0:
470,254,19538,2,0,L|392:254,1,75,0|8,0:0|0:0,0:0:0:0:
336,301,19887,1,8,0:0:0:0:
336,301,20061,1,0,0:0:0:0:
252,292,20235,6,0,P|265:192|245:140,1,150,4|0,0:0|1:0,0:0:0:0:
174,137,20759,1,0,0:0:0:0:
109,175,20933,2,0,L|109:250,2,75,2|0|0,0:0|0:0|1:0,0:0:0:0:
35,160,21456,6,0,P|11:118|66:34,1,150,4|0,0:0|0:0,0:0:0:0:
232,105,21980,2,0,L|80:105,1,150,0|2,1:0|0:0,0:0:0:0:
276,36,22677,2,0,P|304:70|313:119,1,75,2|0,0:0|0:0,0:0:0:0:
277,165,23026,6,0,B|297:210|352:229|408:207,1,150,4|0,0:0|1:0,0:0:0:0:
452,60,23724,2,0,P|415:85|396:119,1,75,0|0,0:0|1:0,0:0:0:0:
492,211,24073,2,0,P|488:166|468:133,1,75,8|0,0:0|0:0,0:0:0:0:
413,182,24421,6,0,L|262:182,1,150,0|0,0:0|1:0,0:0:0:0:
194,150,24945,1,2,0:0:0:0:
194,150,25032,1,0,0:0:0:0:
194,150,25119,2,0,P|222:116|259:106,1,75,0|0,0:0|0:0,0:0:0:0:
293,255,25468,2,0,P|265:289|228:299,1,75,0|0,1:0|0:0,0:0:0:0:
226,224,25817,6,0,P|149:219|109:161,1,150,0|0,0:0|1:0,0:0:0:0:
216,60,26514,2,0,L|130:60,2,75,0|0|8,0:0|1:0|0:0,0:0:0:0:
272,108,27038,1,0,0:0:0:0:
340,80,27212,6,0,L|420:80,1,75,4|2,0:0|0:0,0:0:0:0:
394,166,27561,2,0,L|474:166,1,75,0|2,1:0|0:0,0:0:0:0:
354,246,27910,2,0,L|274:246,1,75,0|2,0:0|0:0,0:0:0:0:
387,328,28259,2,0,L|307:328,1,75,0|2,1:0|0:0,0:0:0:0:
240,352,28607,6,0,B|160:352|160:352|120:352|100:316,1,150,4|0,0:0|1:0,0:0:0:0:
164,276,29131,1,0,0:0:0:0:
117,217,29305,2,0,L|30:218,1,75,2|0,0:0|0:0,0:0:0:0:
84,136,29654,2,0,L|4:136,2,75,0|2|0,1:0|0:0|0:0,0:0:0:0:
111,65,30177,6,0,L|187:64,1,75,2|0,0:0|1:0,0:0:0:0:
256,92,30526,2,0,B|268:128|304:136|304:136|388:136,1,150,2|0,0:0|0:0,0:0:0:0:
412,64,31049,2,0,P|452:96|460:124,1,75,0|0,1:0|0:0,0:0:0:0:
468,192,31398,6,0,P|442:250|359:286,1,150,2|0,0:0|1:0,0:0:0:0:
292,288,31921,2,0,L|140:288,1,150,2|0,0:0|0:0,0:0:0:0:
80,244,32445,2,0,P|72:204|80:168,1,75,0|0,1:0|0:0,0:0:0:0:
116,104,32794,5,0,0:0:0:0:
116,104,32968,1,2,0:0:0:0:
184,72,33142,1,0,1:0:0:0:
184,72,33317,1,0,0:0:0:0:
260,88,33491,2,0,P|296:96|332:88,1,75,0|2,0:0|0:0,0:0:0:0:
456,144,33840,2,0,P|420:136|384:144,1,75,0|0,1:0|0:0,0:0:0:0:
320,188,34189,6,0,P|256:216|184:188,1,150,0|0,0:0|1:0,0:0:0:0:
156,120,34712,1,2,0:0:0:0:
232,128,34887,2,0,P|256:160|220:256,1,150,0|0,0:0|1:0,0:0:0:0:
184,188,35410,6,0,P|148:232|180:316,1,150,2|0,0:0|0:0,0:0:0:0:
248,332,35933,2,0,L|404:332,1,150,0|0,1:0|0:0,0:0:0:0:
464,292,36456,1,2,0:0:0:0:
496,224,36631,2,0,P|500:180|492:140,1,75,0|0,1:0|0:0,0:0:0:0:
460,84,36980,6,0,P|400:60|320:80,1,150,0|0,0:0|1:0,0:0:0:0:
300,152,37503,1,2,0:0:0:0:
368,184,37677,2,0,P|384:232|364:340,1,150,0|0,0:0|1:0,0:0:0:0:
280,372,38200,1,2,0:0:0:0:
172,328,38375,5,0,0:0:0:0:
172,328,38724,1,0,1:0:0:0:
172,328,39073,1,0,0:0:0:0:
172,328,39421,2,0,L|232:256,1,75,0|0,1:0|0:0,0:0:0:0:
284,184,39770,6,0,P|268:136|164:120,1,150,4|0,0:0|1:0,0:0:0:0:
112,144,40294,1,2,0:0:0:0:
116,68,40468,2,0,P|164:91|160:200,1,150,0|0,0:0|1:0,0:0:0:0:
108,220,40991,2,0,P|59:196|64:88,1,150,2|0,0:0|0:0,0:0:0:0:
116,68,41514,6,0,L|268:68,1,150,0|0,1:0|0:0,0:0:0:0:
340,80,42038,1,2,0:0:0:0:
404,124,42212,2,0,P|412:168|400:208,1,75,0|0,1:0|0:0,0:0:0:0:
476,224,42561,6,0,P|444:264|352:252,1,150,2|0,0:0|1:0,0:0:0:0:
316,188,43084,1,2,0:0:0:0:
316,188,43433,1,2,0:0:0:0:
240,176,43607,2,0,L|164:176,1,75,0|0,1:0|0:0,0:0:0:0:
120,236,43956,6,0,P|92:192|136:108,1,150,2|0,0:0|1:0,0:0:0:0:
204,96,44480,1,2,0:0:0:0:
272,60,44654,6,0,B|340:60|340:60|384:52|408:16,2,150,0|0|0,0:0|1:0|0:0,0:0:0:0:
204,96,45526,1,8,0:0:0:0:
220,168,45700,1,8,0:0:0:0:
288,136,45875,1,0,0:0:0:0:
364,132,46049,6,0,P|404:128|448:132,1,75,2|0,0:0|0:0,0:0:0:0:
488,228,46398,2,0,P|447:231|404:228,1,75,0|0,1:0|0:0,0:0:0:0:
340,208,46747,1,2,0:0:0:0:
248,328,47096,1,0,1:0:0:0:
173,320,47270,6,0,P|133:304|109:280,1,75,2|0,0:0|0:0,0:0:0:0:
80,212,47619,1,0,0:0:0:0:
106,142,47794,2,0,P|157:149|184:141,1,75,0|2,1:0|0:0,0:0:0:0:
232,89,48142,6,0,P|276:77|352:154,1,150,4|0,0:0|1:0,0:0:0:0:
324,209,48666,1,0,0:0:0:0:
275,151,48840,2,0,P|295:88|378:69,1,150,2|0,0:0|1:0,0:0:0:0:
441,90,49363,1,0,0:0:0:0:
486,149,49538,6,0,L|495:227,1,75,4|0,0:0|0:0,0:0:0:0:
423,323,49887,2,0,L|414:245,1,75,0|0,1:0|0:0,0:0:0:0:
326,144,50235,2,0,L|335:222,1,75,0|8,0:0|0:0,0:0:0:0:
263,318,50584,2,0,L|254:240,1,75,8|0,1:2|0:0,0:0:0:0:
211,181,50933,6,0,P|245:232|390:213,1,225,4|0,0:0|0:0,0:0:0:0:
442,266,51631,2,0,P|373:227|376:150,1,150,0|0,1:0|0:0,0:0:0:0:
432,122,52154,5,2,0:0:0:0:
432,122,52503,1,2,0:0:0:0:
432,122,52852,1,2,0:0:0:0:
432,122,53026,6,0,L|350:108,1,75,0|8,1:0|0:0,0:0:0:0:
312,49,53375,2,0,P|270:47|230:54,1,75,8|0,0:0|0:0,0:0:0:0:
243,127,53724,6,0,P|188:45|78:71,1,225,0|0,0:0|0:0,0:0:0:0:
4,55,54421,2,0,P|73:84|87:153,1,150,0|0,1:0|0:0,0:0:0:0:
36,207,54945,5,2,0:0:0:0:
36,207,55294,1,2,0:0:0:0:
36,207,55642,1,2,0:0:0:0:
36,207,55817,6,0,L|114:218,1,75,0|2,1:0|0:0,0:0:0:0:
168,264,56166,2,0,P|207:263|252:244,1,75,8|2,0:0|0:0,0:0:0:0:
294,198,56514,6,0,P|339:177|441:193,1,150
469,257,57038,1,0,0:0:0:0:
415,310,57212,2,0,L|450:155,1,150,0|0,1:0|0:0,0:0:0:0:
498,107,57735,5,2,0:0:0:0:
498,107,58084,1,2,0:0:0:0:
498,107,58433,1,2,0:0:0:0:
498,107,58607,6,0,P|454:121|416:118,1,75,0|8,1:0|0:0,0:0:0:0:
310,31,58956,2,0,P|355:40|386:62,1,75,2|8,0:0|0:0,0:0:0:0:
350,125,59305,6,0,P|333:163|342:208,1,75,4|0,0:0|0:0,0:0:0:0:
375,278,59654,1,0,1:0:0:0:
375,278,60003,6,0,L|295:292,1,75,2|0,0:0|0:0,0:0:0:0:
214,309,60352,1,0,1:0:0:0:
214,309,60700,6,0,P|183:278|168:235,1,75,2|0,0:0|0:0,0:0:0:0:
165,167,61049,5,0,1:0:0:0:
165,167,61398,6,0,L|233:134,1,75,2|0,0:0|0:0,0:0:0:0:
284,57,61747,2,0,P|329:58|368:81,1,75,0|0,1:0|0:0,0:0:0:0:
419,110,62096,6,0,P|453:157|444:249,1,150,4|0,0:0|1:0,0:0:0:0:
386,291,62619,5,0,0:0:0:0:
314,312,62794,2,0,P|269:302|240:278,1,75,0|2,0:0|0:0,0:0:0:0:
297,137,63142,2,0,P|342:146|370:170,1,75,0|0,1:0|0:0,0:0:0:0:
306,222,63491,6,0,L|159:175,1,150,4|0,0:0|1:0,0:0:0:0:
89,190,64014,1,0,0:0:0:0:
256,192,64189,12,0,65933,0:0:0:0:
337,148,66282,6,0,P|377:133|418:133,1,75,4|0,0:0|0:0,0:0:0:0:
427,204,66631,2,0,P|463:183|459:78,1,150,0|0,1:0|0:0,0:0:0:0:
409,34,67154,1,2,0:0:0:0:
335,48,67328,1,0,1:0:0:0:
301,115,67503,6,0,L|324:278,1,150,2|2,0:0|0:0,0:0:0:0:
357,329,68026,2,0,P|392:290|390:256,1,75,0|2,1:0|0:0,0:0:0:0:
376,196,68375,5,0,0:0:0:0:
315,151,68549,1,8,0:0:0:0:
240,154,68724,1,8,0:0:0:0:
185,206,68898,1,0,0:0:0:0:
179,280,69073,6,0,P|190:318|223:351,1,75
257,283,69421,2,0,P|288:308|333:315,1,75,0|2,1:0|0:0,0:0:0:0:
325,240,69770,2,0,P|365:242|406:222,2,75,0|2|0,0:0|0:0|1:0,0:0:0:0:
342,166,70294,6,0,P|302:138|314:36,1,150,2|2,0:0|0:0,0:0:0:0:
376,19,70817,1,0,1:0:0:0:
438,60,70991,1,0,0:0:0:0:
454,132,71166,2,0,L|408:274,1,150,2|0,0:0|1:0,0:0:0:0:
508,82,71863,6,0,P|476:110|366:122,1,150,4|0,0:0|1:0,0:0:0:0:
135,92,72561,2,0,P|170:81|211:74,1,75,0|2,0:0|0:0,0:0:0:0:
281,88,72910,1,0,1:0:0:0:
342,44,73084,6,0,P|305:81|309:180,1,150,2|2,0:0|0:0,0:0:0:0:
358,227,73607,2,0,P|369:258|363:308,1,75,0|0,1:0|0:0,0:0:0:0:
314,354,73956,5,0,0:0:0:0:
239,364,74131,1,8,0:0:0:0:
174,325,74305,1,8,0:0:0:0:
162,251,74480,1,0,0:0:0:0:
197,184,74654,6,0,L|351:183,1,150,0|0,0:0|1:0,0:0:0:0:
422,176,75177,1,2,0:0:0:0:
490,145,75352,2,0,P|496:101|485:67,1,75,0|2,0:0|0:0,0:0:0:0:
426,28,75701,1,0,1:0:0:0:
341,66,75875,5,4,0:0:0:0:
341,66,76224,2,0,L|266:65,1,75,2|0,0:0|0:0,0:0:0:0:
190,69,76573,1,0,0:0:0:0:
118,90,76747,2,0,P|98:143|122:234,1,150,2|0,0:0|1:0,0:0:0:0:
234,329,77445,6,0,L|386:329,1,150,4|0,0:0|1:0,0:0:0:0:
203,255,78142,2,0,P|165:287|158:321,1,75,0|2,0:0|0:0,0:0:0:0:
282,255,78491,1,0,1:0:0:0:
282,255,78666,6,0,P|261:204|174:181,1,150,2|2,0:0|0:0,0:0:0:0:
103,203,79189,1,0,1:0:0:0:
31,179,79363,5,2,0:0:0:0:
31,179,79451,1,0,0:0:0:0:
31,179,79538,2,0,P|20:139|23:102,1,75,0|2,0:0|0:0,0:0:0:0:
125,27,79887,2,0,P|136:67|133:104,1,75,0|2,1:0|0:0,0:0:0:0:
115,173,80235,6,0,P|109:216|182:290,1,150,0|0,0:0|1:0,0:0:0:0:
251,283,80759,1,2,0:0:0:0:
316,246,80933,2,0,P|363:243|401:257,2,75,0|2|0,0:0|0:0|1:0,0:0:0:0:
319,321,81456,6,0,P|349:241|317:182,1,150,2|2,0:0|0:0,0:0:0:0:
250,164,81980,2,0,L|164:163,1,75,0|2,1:0|0:0,0:0:0:0:
99,160,82328,1,0,0:0:0:0:
68,91,82503,1,8,0:0:0:0:
115,32,82677,1,8,0:0:0:0:
255,84,83026,6,0,P|263:137|214:224,1,150,4|0,0:0|1:0,0:0:0:0:
18,222,83724,2,0,L|102:183,1,75,0|2,0:0|0:0,0:0:0:0:
160,176,84073,1,0,1:0:0:0:
230,200,84247,6,0,P|297:220|375:200,1,150,2|2,0:0|0:0,0:0:0:0:
434,156,84770,2,0,P|442:114|439:81,1,75,0|0,1:0|0:0,0:0:0:0:
400,18,85119,5,0,0:0:0:0:
325,24,85294,1,8,0:0:0:0:
290,90,85468,1,8,0:0:0:0:
316,160,85642,1,0,0:0:0:0:
387,183,85817,6,0,P|438:210|452:304,1,150,4|0,0:0|1:0,0:0:0:0:
223,253,86514,2,0,L|305:234,2,75,0|2|0,0:0|0:0|1:0,0:0:0:0:
115,232,87038,5,4,0:0:0:0:
115,232,87387,1,2,0:0:0:0:
49,317,87561,1,0,1:0:0:0:
49,317,87910,1,4,0:0:0:0:
