osu file format v12

[General]
AudioFilename: Fantastic future.mp3
AudioLeadIn: 3000
PreviewTime: 66332
Countdown: 0
SampleSet: Soft
StackLeniency: 0.7
Mode: 3
LetterboxInBreaks: 0
SpecialStyle: 0

[Editor]
DistanceSpacing: 0.6
BeatDivisor: 4
GridSize: 4

[Metadata]
Title:Fantastic future (TV Size)
TitleUnicode:Fantastic future (TV Size)
Artist:Tamura Yukari
ArtistUnicode:田村ゆかり
Creator:victorica_db
Version:4K NM
Source:Hentai Ouji to Warawanai Neko
Tags:opening the "hentai" prince and the stony cat. j.c.staff yoto yokodera tsukiko tsutsukakushi azusa azuki tsukushi Lieselotte
BeatmapID:266940
BeatmapSetID:100501

[Difficulty]
HPDrainRate:5
CircleSize:4
OverallDifficulty:6
ApproachRate:5
SliderMultiplier:1.4
SliderTickRate:1

[Events]
//Background and Video events
0,0,"Hentai BG.jpg",0,0
Video,0,"Hentai.avi"
//Break Periods
//Storyboard Layer 0 (Background)
//Storyboard Layer 1 (Fail)
//Storyboard Layer 2 (Pass)
//Storyboard Layer 3 (Foreground)
//Storyboard Sound Samples
//Background Colour Transformations
3,100,163,162,255

[TimingPoints]
751,348.837209302326,4,2,0,50,1,0
11913,-100,4,2,0,50,0,1
22378,-100,4,2,0,50,0,0
66332,-100,4,2,0,50,0,1
88047,-100,4,2,0,50,0,0

[HitObjects]
192,192,402,1,0,0:0:0:0:
320,192,402,1,0,0:0:0:0:
64,192,751,1,0,0:0:0:0:
448,192,751,1,0,0:0:0:0:
192,192,1274,1,0,0:0:0:0:
192,192,1623,1,0,0:0:0:0:
192,192,1971,1,0,0:0:0:0:
64,192,2146,1,0,0:0:0:0:
448,192,2146,1,0,0:0:0:0:
320,192,2669,1,0,0:0:0:0:
320,192,3018,1,0,0:0:0:0:
320,192,3367,1,0,0:0:0:0:
448,192,3541,1,0,0:0:0:0:
64,192,3541,1,0,0:0:0:0:
320,192,4064,1,0,0:0:0:0:
192,192,4413,1,0,0:0:0:0:
320,192,4762,1,0,0:0:0:0:
64,192,4937,1,0,0:0:0:0:
448,192,4937,1,0,0:0:0:0:
192,192,5111,1,0,0:0:0:0:
320,192,5460,1,0,0:0:0:0:
64,192,5634,1,0,0:0:0:0:
192,192,5809,1,0,0:0:0:0:
320,192,5983,1,0,0:0:0:0:
64,192,6332,1,0,0:0:0:0:
192,192,6681,1,0,0:0:0:0:
64,192,7030,1,0,0:0:0:0:
320,192,7378,1,0,0:0:0:0:
64,192,7727,1,0,0:0:0:0:
448,192,7902,1,0,0:0:0:0:
64,192,8076,1,0,0:0:0:0:
192,192,8251,1,0,0:0:0:0:
192,192,8599,1,0,0:0:0:0:
320,192,8774,1,0,0:0:0:0:
64,192,9123,1,0,0:0:0:0:
320,192,9297,1,0,0:0:0:0:
64,192,9471,1,0,0:0:0:0:
320,192,9646,1,0,0:0:0:0:
192,192,9820,128,0,10518:0:0:0:0:
64,192,11564,1,0,0:0:0:0:
448,192,11564,1,0,0:0:0:0:
320,192,11913,1,0,0:0:0:0:
64,192,12262,1,0,0:0:0:0:
320,192,12611,1,0,0:0:0:0:
64,192,13134,1,0,0:0:0:0:
64,192,13483,1,0,0:0:0:0:
320,192,13657,1,0,0:0:0:0:
192,192,13832,1,0,0:0:0:0:
64,192,14006,1,0,0:0:0:0:
320,192,14181,1,0,0:0:0:0:
192,192,14355,1,0,0:0:0:0:
64,192,14530,1,0,0:0:0:0:
320,192,14704,1,0,0:0:0:0:
448,192,15053,1,0,0:0:0:0:
320,192,15402,1,0,0:0:0:0:
320,192,15751,1,0,0:0:0:0:
192,192,16099,1,0,0:0:0:0:
64,192,16448,1,0,0:0:0:0:
192,192,16797,1,0,0:0:0:0:
320,192,16797,1,0,0:0:0:0:
448,192,17146,1,0,0:0:0:0:
64,192,17146,1,0,0:0:0:0:
320,192,17495,1,0,0:0:0:0:
448,192,17844,1,0,0:0:0:0:
64,192,18192,1,0,0:0:0:0:
320,192,18716,1,0,0:0:0:0:
448,192,19064,1,0,0:0:0:0:
320,192,19239,1,0,0:0:0:0:
64,192,19413,1,0,0:0:0:0:
192,192,19588,1,0,0:0:0:0:
320,192,19762,1,0,0:0:0:0:
448,192,19937,1,0,0:0:0:0:
448,192,20111,1,0,0:0:0:0:
192,192,20285,128,0,20809:0:0:0:0:
320,192,20809,128,0,21157:0:0:0:0:
448,192,21332,1,0,0:0:0:0:
320,192,21506,1,0,0:0:0:0:
64,192,21681,1,0,0:0:0:0:
192,192,21681,1,0,0:0:0:0:
320,192,22030,1,0,0:0:0:0:
448,192,22030,1,0,0:0:0:0:
192,192,22378,1,0,0:0:0:0:
64,192,22378,1,0,0:0:0:0:
64,192,23076,128,0,24995:0:0:0:0:
320,192,23425,1,0,0:0:0:0:
448,192,23774,1,0,0:0:0:0:
320,192,24123,1,0,0:0:0:0:
448,192,24471,1,0,0:0:0:0:
192,192,24995,1,0,0:0:0:0:
320,192,25169,1,0,0:0:0:0:
192,192,25518,128,0,25867:0:0:0:0:
320,192,25867,128,0,26390:0:0:0:0:
448,192,26390,128,0,26913:0:0:0:0:
192,192,26913,1,0,0:0:0:0:
64,192,27262,1,0,0:0:0:0:
320,192,27437,1,0,0:0:0:0:
64,192,27611,1,0,0:0:0:0:
320,192,27785,1,0,0:0:0:0:
320,192,27960,128,0,28309:0:0:0:0:
448,192,28309,1,0,0:0:0:0:
64,192,28483,128,0,28657:0:0:0:0:
320,192,28657,1,0,0:0:0:0:
64,192,29006,1,0,0:0:0:0:
320,192,29006,1,0,0:0:0:0:
320,192,29355,1,0,0:0:0:0:
192,192,29704,1,0,0:0:0:0:
448,192,29704,1,0,0:0:0:0:
448,192,30053,1,0,0:0:0:0:
64,192,30402,1,0,0:0:0:0:
320,192,30402,1,0,0:0:0:0:
320,192,30751,1,0,0:0:0:0:
320,192,31099,1,0,0:0:0:0:
448,192,31099,1,0,0:0:0:0:
64,192,31448,1,0,0:0:0:0:
192,192,31448,1,0,0:0:0:0:
320,192,31797,1,0,0:0:0:0:
64,192,32146,1,0,0:0:0:0:
192,192,32146,1,0,0:0:0:0:
448,192,32495,1,0,0:0:0:0:
64,192,32844,1,0,0:0:0:0:
192,192,32844,1,0,0:0:0:0:
320,192,33192,1,0,0:0:0:0:
64,192,33541,1,0,0:0:0:0:
192,192,33890,1,0,0:0:0:0:
64,192,33890,1,0,0:0:0:0:
320,192,34239,1,0,0:0:0:0:
64,192,34588,1,0,0:0:0:0:
192,192,34588,1,0,0:0:0:0:
320,192,34937,1,0,0:0:0:0:
192,192,35285,1,0,0:0:0:0:
64,192,35285,1,0,0:0:0:0:
448,192,35634,1,0,0:0:0:0:
320,192,35983,1,0,0:0:0:0:
448,192,35983,1,0,0:0:0:0:
64,192,36332,1,0,0:0:0:0:
320,192,36681,1,0,0:0:0:0:
448,192,36681,1,0,0:0:0:0:
64,192,37030,1,0,0:0:0:0:
320,192,37378,1,0,0:0:0:0:
448,192,37378,1,0,0:0:0:0:
192,192,37727,1,0,0:0:0:0:
320,192,38076,1,0,0:0:0:0:
448,192,38076,1,0,0:0:0:0:
448,192,38425,128,0,38774:0:0:0:0:
320,192,38774,128,0,39123:0:0:0:0:
192,192,39123,128,0,39471:0:0:0:0:
64,192,39471,128,0,39820:0:0:0:0:
192,192,39820,1,0,0:0:0:0:
64,192,40169,1,0,0:0:0:0:
192,192,40518,1,0,0:0:0:0:
448,192,40867,1,0,0:0:0:0:
192,192,41041,1,0,0:0:0:0:
64,192,41041,1,0,0:0:0:0:
192,192,41390,1,0,0:0:0:0:
64,192,41390,1,0,0:0:0:0:
320,192,41739,1,0,0:0:0:0:
64,192,41739,1,0,0:0:0:0:
192,192,42088,1,0,0:0:0:0:
448,192,42088,1,0,0:0:0:0:
192,192,42437,1,0,0:0:0:0:
64,192,42611,1,0,0:0:0:0:
192,192,42960,1,0,0:0:0:0:
64,192,43483,1,0,0:0:0:0:
320,192,43657,1,0,0:0:0:0:
448,192,44006,128,0,44704:0:0:0:0:
64,192,44704,128,0,45402:0:0:0:0:
448,192,45402,128,0,46797:0:0:0:0:
64,192,46797,128,0,48192:0:0:0:0:
320,192,48192,128,0,48890:0:0:0:0:
192,192,48890,128,0,49588:0:0:0:0:
64,192,49588,128,0,49937:0:0:0:0:
192,192,49937,128,0,50285:0:0:0:0:
320,192,50285,128,0,50634:0:0:0:0:
448,192,50634,128,0,50983:0:0:0:0:
320,192,50983,128,0,51681:0:0:0:0:
64,192,51506,1,0,0:0:0:0:
192,192,51681,1,0,0:0:0:0:
320,192,52030,1,0,0:0:0:0:
64,192,52204,1,0,0:0:0:0:
192,192,52553,1,0,0:0:0:0:
320,192,52553,1,0,0:0:0:0:
64,192,52902,1,0,0:0:0:0:
320,192,53076,1,0,0:0:0:0:
320,192,53425,1,0,0:0:0:0:
448,192,53774,1,0,0:0:0:0:
64,192,53774,1,0,0:0:0:0:
448,192,54297,1,0,0:0:0:0:
192,192,54471,1,0,0:0:0:0:
64,192,54471,1,0,0:0:0:0:
448,192,54820,1,0,0:0:0:0:
64,192,54995,1,0,0:0:0:0:
192,192,54995,1,0,0:0:0:0:
192,192,55344,1,0,0:0:0:0:
64,192,55344,1,0,0:0:0:0:
192,192,55692,1,0,0:0:0:0:
64,192,55692,1,0,0:0:0:0:
448,192,55867,1,0,0:0:0:0:
448,192,56041,1,0,0:0:0:0:
448,192,56216,1,0,0:0:0:0:
64,192,56390,1,0,0:0:0:0:
320,192,56564,1,0,0:0:0:0:
64,192,57088,1,0,0:0:0:0:
448,192,57262,1,0,0:0:0:0:
320,192,57262,1,0,0:0:0:0:
448,192,57611,1,0,0:0:0:0:
320,192,57611,1,0,0:0:0:0:
64,192,57785,1,0,0:0:0:0:
320,192,58134,1,0,0:0:0:0:
448,192,58134,1,0,0:0:0:0:
64,192,58483,1,0,0:0:0:0:
320,192,58657,1,0,0:0:0:0:
320,192,59006,1,0,0:0:0:0:
448,192,59006,1,0,0:0:0:0:
448,192,59355,128,0,60751:0:0:0:0:
320,192,59355,1,0,0:0:0:0:
320,192,60053,128,0,60751:0:0:0:0:
192,192,60751,128,0,61448:0:0:0:0:
320,192,61448,128,0,61623:0:0:0:0:
448,192,61623,128,0,61797:0:0:0:0:
320,192,61797,128,0,62146:0:0:0:0:
192,192,62146,128,0,63541:0:0:0:0:
448,192,63541,1,0,0:0:0:0:
64,192,63716,1,0,0:0:0:0:
320,192,63890,1,0,0:0:0:0:
64,192,64064,1,0,0:0:0:0:
448,192,64239,128,0,64937:0:0:0:0:
64,192,65111,128,0,65983:0:0:0:0:
192,192,65983,1,0,0:0:0:0:
192,192,66332,1,0,0:0:0:0:
320,192,66681,1,0,0:0:0:0:
448,192,67030,1,0,0:0:0:0:
320,192,67378,1,0,0:0:0:0:
448,192,67727,1,0,0:0:0:0:
192,192,68076,1,0,0:0:0:0:
64,192,68251,1,0,0:0:0:0:
320,192,68425,1,0,0:0:0:0:
192,192,68599,1,0,0:0:0:0:
64,192,68774,1,0,0:0:0:0:
192,192,68948,1,0,0:0:0:0:
320,192,69123,1,0,0:0:0:0:
320,192,69471,1,0,0:0:0:0:
448,192,69471,1,0,0:0:0:0:
64,192,69820,1,0,0:0:0:0:
320,192,70169,1,0,0:0:0:0:
448,192,70169,1,0,0:0:0:0:
64,192,70518,1,0,0:0:0:0:
448,192,70518,1,0,0:0:0:0:
192,192,70692,1,0,0:0:0:0:
320,192,70867,1,0,0:0:0:0:
192,192,71216,1,0,0:0:0:0:
320,192,71216,1,0,0:0:0:0:
320,192,71564,1,0,0:0:0:0:
64,192,71913,1,0,0:0:0:0:
192,192,71913,1,0,0:0:0:0:
320,192,72262,1,0,0:0:0:0:
64,192,72611,1,0,0:0:0:0:
192,192,72611,1,0,0:0:0:0:
320,192,72960,1,0,0:0:0:0:
320,192,73309,1,0,0:0:0:0:
448,192,73309,1,0,0:0:0:0:
448,192,73657,1,0,0:0:0:0:
320,192,73657,1,0,0:0:0:0:
192,192,73832,1,0,0:0:0:0:
320,192,74006,1,0,0:0:0:0:
448,192,74181,1,0,0:0:0:0:
320,192,74355,1,0,0:0:0:0:
192,192,74530,1,0,0:0:0:0:
448,192,74704,1,0,0:0:0:0:
192,192,75053,1,0,0:0:0:0:
320,192,75402,1,0,0:0:0:0:
64,192,75751,1,0,0:0:0:0:
192,192,76099,1,0,0:0:0:0:
320,192,76274,1,0,0:0:0:0:
192,192,76448,1,0,0:0:0:0:
320,192,76623,1,0,0:0:0:0:
192,192,76797,128,0,77146:0:0:0:0:
448,192,77146,1,0,0:0:0:0:
320,192,77495,1,0,0:0:0:0:
192,192,77844,1,0,0:0:0:0:
64,192,78192,1,0,0:0:0:0:
448,192,78541,1,0,0:0:0:0:
64,192,78541,1,0,0:0:0:0:
448,192,78890,1,0,0:0:0:0:
448,192,79239,1,0,0:0:0:0:
320,192,79413,1,0,0:0:0:0:
64,192,79588,1,0,0:0:0:0:
320,192,79762,1,0,0:0:0:0:
448,192,79937,1,0,0:0:0:0:
320,192,80285,1,0,0:0:0:0:
64,192,80634,1,0,0:0:0:0:
448,192,80983,128,0,81681:0:0:0:0:
320,192,81681,1,0,0:0:0:0:
192,192,81855,1,0,0:0:0:0:
192,192,82204,1,0,0:0:0:0:
320,192,82378,1,0,0:0:0:0:
448,192,82553,1,0,0:0:0:0:
192,192,82727,1,0,0:0:0:0:
320,192,83076,1,0,0:0:0:0:
448,192,83076,1,0,0:0:0:0:
64,192,83425,1,0,0:0:0:0:
192,192,83425,1,0,0:0:0:0:
320,192,83774,1,0,0:0:0:0:
448,192,83774,1,0,0:0:0:0:
64,192,84123,1,0,0:0:0:0:
320,192,84471,1,0,0:0:0:0:
320,192,84820,1,0,0:0:0:0:
448,192,84995,1,0,0:0:0:0:
64,192,85169,1,0,0:0:0:0:
320,192,85344,1,0,0:0:0:0:
192,192,85518,1,0,0:0:0:0:
448,192,85692,1,0,0:0:0:0:
192,192,85867,1,0,0:0:0:0:
320,192,86041,1,0,0:0:0:0:
448,192,86216,1,0,0:0:0:0:
192,192,86390,1,0,0:0:0:0:
320,192,86564,128,0,87262:0:0:0:0:
192,192,87262,1,0,0:0:0:0:
320,192,87611,1,0,0:0:0:0:
320,192,87960,128,0,89355:0:0:0:0:
