osu file format v12

[General]
AudioFilename: Fantastic future.mp3
AudioLeadIn: 3000
PreviewTime: 66332
Countdown: 0
SampleSet: Soft
StackLeniency: 0.7
Mode: 3
LetterboxInBreaks: 0
SpecialStyle: 0

[Editor]
DistanceSpacing: 0.6
BeatDivisor: 4
GridSize: 4

[Metadata]
Title:Fantastic future (TV Size)
TitleUnicode:Fantastic future (TV Size)
Artist:Tamura Yukari
ArtistUnicode:田村ゆかり
Creator:victorica_db
Version:4K MX
Source:Hentai Ouji to Warawanai Neko
Tags:opening the "hentai" prince and the stony cat. j.c.staff yoto yokodera tsukiko tsutsukakushi azusa azuki tsukushi Lieselotte
BeatmapID:266662
BeatmapSetID:100501

[Difficulty]
HPDrainRate:7
CircleSize:4
OverallDifficulty:7
ApproachRate:5
SliderMultiplier:1.4
SliderTickRate:1

[Events]
//Background and Video events
0,0,"Hentai BG.jpg",0,0
Video,0,"Hentai.avi"
//Break Periods
//Storyboard Layer 0 (Background)
//Storyboard Layer 1 (Fail)
//Storyboard Layer 2 (Pass)
//Storyboard Layer 3 (Foreground)
//Storyboard Sound Samples
//Background Colour Transformations
3,100,163,162,255

[TimingPoints]
751,348.837209302326,4,2,0,50,1,0
11913,-100,4,2,0,50,0,1
22378,-100,4,2,0,50,0,0
66332,-100,4,2,0,50,0,1
88047,-100,4,2,0,50,0,0

[HitObjects]
192,192,402,1,0,0:0:0:0:
320,192,402,1,0,0:0:0:0:
64,192,751,1,0,0:0:0:0:
448,192,751,1,0,0:0:0:0:
320,192,1099,1,0,0:0:0:0:
192,192,1274,1,0,0:0:0:0:
320,192,1448,1,0,0:0:0:0:
192,192,1623,1,0,0:0:0:0:
320,192,1797,1,0,0:0:0:0:
448,192,1971,1,0,0:0:0:0:
64,192,2146,1,0,0:0:0:0:
448,192,2146,1,0,0:0:0:0:
192,192,2320,1,0,0:0:0:0:
320,192,2495,1,0,0:0:0:0:
192,192,2669,1,0,0:0:0:0:
320,192,2844,1,0,0:0:0:0:
192,192,3018,1,0,0:0:0:0:
64,192,3192,1,0,0:0:0:0:
320,192,3367,1,0,0:0:0:0:
448,192,3541,1,0,0:0:0:0:
64,192,3541,1,0,0:0:0:0:
192,192,3716,1,0,0:0:0:0:
448,192,3890,1,0,0:0:0:0:
320,192,4064,1,0,0:0:0:0:
320,192,4239,1,0,0:0:0:0:
192,192,4413,1,0,0:0:0:0:
64,192,4588,1,0,0:0:0:0:
320,192,4762,1,0,0:0:0:0:
64,192,4937,1,0,0:0:0:0:
448,192,4937,1,0,0:0:0:0:
192,192,5111,1,0,0:0:0:0:
64,192,5111,128,0,5460:0:0:0:0:
320,192,5460,1,0,0:0:0:0:
192,192,5460,128,0,5809:0:0:0:0:
64,192,5634,1,0,0:0:0:0:
448,192,5634,1,0,0:0:0:0:
320,192,5809,128,0,5983:0:0:0:0:
192,192,5983,128,0,6332:0:0:0:0:
320,192,6157,1,0,0:0:0:0:
64,192,6332,1,0,0:0:0:0:
448,192,6332,1,0,0:0:0:0:
320,192,6506,1,0,0:0:0:0:
192,192,6681,1,0,0:0:0:0:
320,192,6681,1,0,0:0:0:0:
192,192,6855,1,0,0:0:0:0:
64,192,7030,1,0,0:0:0:0:
448,192,7030,1,0,0:0:0:0:
320,192,7204,1,0,0:0:0:0:
192,192,7378,1,0,0:0:0:0:
320,192,7378,1,0,0:0:0:0:
192,192,7553,1,0,0:0:0:0:
64,192,7727,1,0,0:0:0:0:
448,192,7727,1,0,0:0:0:0:
192,192,7902,1,0,0:0:0:0:
320,192,8076,1,0,0:0:0:0:
448,192,8076,1,0,0:0:0:0:
192,192,8251,1,0,0:0:0:0:
64,192,8251,128,0,8599:0:0:0:0:
448,192,8425,1,0,0:0:0:0:
320,192,8425,1,0,0:0:0:0:
192,192,8599,1,0,0:0:0:0:
320,192,8774,1,0,0:0:0:0:
448,192,8774,1,0,0:0:0:0:
64,192,8774,1,0,0:0:0:0:
192,192,8948,1,0,0:0:0:0:
64,192,9123,1,0,0:0:0:0:
448,192,9123,1,0,0:0:0:0:
320,192,9297,1,0,0:0:0:0:
64,192,9297,1,0,0:0:0:0:
64,192,9471,1,0,0:0:0:0:
448,192,9471,1,0,0:0:0:0:
320,192,9646,1,0,0:0:0:0:
64,192,9646,1,0,0:0:0:0:
192,192,9820,1,0,0:0:0:0:
64,192,9820,1,0,0:0:0:0:
448,192,9907,1,0,0:0:0:0:
320,192,9907,1,0,0:0:0:0:
192,192,9995,1,0,0:0:0:0:
64,192,9995,1,0,0:0:0:0:
448,192,10082,1,0,0:0:0:0:
320,192,10082,1,0,0:0:0:0:
192,192,10169,1,0,0:0:0:0:
64,192,10169,1,0,0:0:0:0:
448,192,10256,1,0,0:0:0:0:
320,192,10256,1,0,0:0:0:0:
192,192,10344,1,0,0:0:0:0:
64,192,10344,1,0,0:0:0:0:
320,192,10431,1,0,0:0:0:0:
448,192,10431,128,0,10692:0:0:0:0:
64,192,10692,128,0,10867:0:0:0:0:
192,192,10867,128,0,11216:0:0:0:0:
64,192,11216,128,0,11390:0:0:0:0:
448,192,11216,128,0,11390:0:0:0:0:
192,192,11390,1,0,0:0:0:0:
320,192,11477,1,0,0:0:0:0:
64,192,11564,1,0,0:0:0:0:
448,192,11564,1,0,0:0:0:0:
192,192,11913,1,0,0:0:0:0:
448,192,11913,128,0,14006:0:0:0:0:
64,192,11913,1,0,0:0:0:0:
320,192,12088,1,0,0:0:0:0:
64,192,12262,1,0,0:0:0:0:
192,192,12262,1,0,0:0:0:0:
320,192,12437,1,0,0:0:0:0:
320,192,12611,1,0,0:0:0:0:
192,192,12611,1,0,0:0:0:0:
64,192,12785,1,0,0:0:0:0:
192,192,12960,1,0,0:0:0:0:
320,192,12960,1,0,0:0:0:0:
64,192,13134,1,0,0:0:0:0:
192,192,13309,1,0,0:0:0:0:
320,192,13309,1,0,0:0:0:0:
64,192,13483,1,0,0:0:0:0:
64,192,13657,1,0,0:0:0:0:
192,192,13657,1,0,0:0:0:0:
320,192,13832,1,0,0:0:0:0:
64,192,14006,1,0,0:0:0:0:
192,192,14006,1,0,0:0:0:0:
320,192,14181,1,0,0:0:0:0:
192,192,14268,1,0,0:0:0:0:
320,192,14355,1,0,0:0:0:0:
192,192,14442,1,0,0:0:0:0:
320,192,14530,1,0,0:0:0:0:
448,192,14704,128,0,15402:0:0:0:0:
64,192,14704,1,0,0:0:0:0:
320,192,14704,1,0,0:0:0:0:
192,192,14878,1,0,0:0:0:0:
64,192,15053,1,0,0:0:0:0:
320,192,15053,1,0,0:0:0:0:
192,192,15227,1,0,0:0:0:0:
320,192,15402,128,0,16099:0:0:0:0:
64,192,15402,1,0,0:0:0:0:
192,192,15402,1,0,0:0:0:0:
448,192,15576,1,0,0:0:0:0:
192,192,15751,1,0,0:0:0:0:
64,192,15751,1,0,0:0:0:0:
448,192,15925,1,0,0:0:0:0:
192,192,16099,1,0,0:0:0:0:
64,192,16099,1,0,0:0:0:0:
448,192,16187,1,0,0:0:0:0:
320,192,16274,1,0,0:0:0:0:
192,192,16361,1,0,0:0:0:0:
64,192,16448,1,0,0:0:0:0:
320,192,16448,1,0,0:0:0:0:
64,192,16623,1,0,0:0:0:0:
192,192,16797,1,0,0:0:0:0:
448,192,16797,1,0,0:0:0:0:
320,192,16971,1,0,0:0:0:0:
448,192,17059,1,0,0:0:0:0:
320,192,17146,1,0,0:0:0:0:
320,192,17320,1,0,0:0:0:0:
192,192,17495,128,0,18890:0:0:0:0:
64,192,17495,1,0,0:0:0:0:
448,192,17495,1,0,0:0:0:0:
320,192,17669,1,0,0:0:0:0:
320,192,17844,1,0,0:0:0:0:
448,192,17844,1,0,0:0:0:0:
64,192,18018,1,0,0:0:0:0:
448,192,18192,1,0,0:0:0:0:
64,192,18192,1,0,0:0:0:0:
320,192,18367,1,0,0:0:0:0:
64,192,18541,1,0,0:0:0:0:
448,192,18541,1,0,0:0:0:0:
320,192,18716,1,0,0:0:0:0:
320,192,18890,1,0,0:0:0:0:
448,192,18890,1,0,0:0:0:0:
448,192,19064,1,0,0:0:0:0:
320,192,19064,128,0,19413:0:0:0:0:
64,192,19152,128,0,19413:0:0:0:0:
448,192,19239,1,0,0:0:0:0:
192,192,19239,128,0,19413:0:0:0:0:
448,192,19413,128,0,19762:0:0:0:0:
320,192,19588,1,0,0:0:0:0:
64,192,19588,1,0,0:0:0:0:
320,192,19762,128,0,19937:0:0:0:0:
64,192,19762,1,0,0:0:0:0:
192,192,19937,128,0,20111:0:0:0:0:
448,192,19937,1,0,0:0:0:0:
64,192,19937,1,0,0:0:0:0:
64,192,20111,128,0,20285:0:0:0:0:
448,192,20111,1,0,0:0:0:0:
192,192,20285,128,0,20809:0:0:0:0:
448,192,20285,1,0,0:0:0:0:
320,192,20285,1,0,0:0:0:0:
320,192,20460,1,0,0:0:0:0:
448,192,20634,1,0,0:0:0:0:
64,192,20634,1,0,0:0:0:0:
320,192,20809,128,0,21157:0:0:0:0:
448,192,20809,1,0,0:0:0:0:
192,192,20983,1,0,0:0:0:0:
64,192,21070,1,0,0:0:0:0:
192,192,21157,1,0,0:0:0:0:
64,192,21245,1,0,0:0:0:0:
192,192,21332,1,0,0:0:0:0:
320,192,21419,1,0,0:0:0:0:
448,192,21506,1,0,0:0:0:0:
320,192,21594,1,0,0:0:0:0:
64,192,21681,1,0,0:0:0:0:
192,192,21681,128,0,22030:0:0:0:0:
320,192,22030,1,0,0:0:0:0:
448,192,22030,128,0,22378:0:0:0:0:
320,192,22378,128,0,22727:0:0:0:0:
192,192,22378,1,0,0:0:0:0:
64,192,22727,1,0,0:0:0:0:
448,192,22727,1,0,0:0:0:0:
192,192,22814,1,0,0:0:0:0:
320,192,22902,1,0,0:0:0:0:
448,192,22989,1,0,0:0:0:0:
64,192,23076,128,0,25169:0:0:0:0:
320,192,23076,1,0,0:0:0:0:
192,192,23076,1,0,0:0:0:0:
448,192,23251,1,0,0:0:0:0:
192,192,23425,1,0,0:0:0:0:
448,192,23425,1,0,0:0:0:0:
320,192,23599,1,0,0:0:0:0:
192,192,23774,1,0,0:0:0:0:
448,192,23774,1,0,0:0:0:0:
320,192,23948,1,0,0:0:0:0:
448,192,24123,1,0,0:0:0:0:
192,192,24123,1,0,0:0:0:0:
320,192,24297,1,0,0:0:0:0:
192,192,24471,1,0,0:0:0:0:
320,192,24471,1,0,0:0:0:0:
448,192,24646,1,0,0:0:0:0:
320,192,24820,1,0,0:0:0:0:
192,192,24820,1,0,0:0:0:0:
448,192,24995,1,0,0:0:0:0:
192,192,25169,128,0,25518:0:0:0:0:
320,192,25169,1,0,0:0:0:0:
448,192,25344,1,0,0:0:0:0:
320,192,25431,1,0,0:0:0:0:
64,192,25518,128,0,25867:0:0:0:0:
448,192,25518,1,0,0:0:0:0:
320,192,25605,1,0,0:0:0:0:
192,192,25692,1,0,0:0:0:0:
192,192,25867,128,0,26564:0:0:0:0:
320,192,25867,1,0,0:0:0:0:
448,192,25867,1,0,0:0:0:0:
64,192,26041,1,0,0:0:0:0:
320,192,26216,1,0,0:0:0:0:
448,192,26216,1,0,0:0:0:0:
64,192,26390,1,0,0:0:0:0:
448,192,26564,128,0,26913:0:0:0:0:
320,192,26564,1,0,0:0:0:0:
64,192,26739,1,0,0:0:0:0:
192,192,26913,1,0,0:0:0:0:
320,192,27001,1,0,0:0:0:0:
448,192,27088,1,0,0:0:0:0:
64,192,27262,1,0,0:0:0:0:
320,192,27262,128,0,28657:0:0:0:0:
448,192,27437,1,0,0:0:0:0:
64,192,27611,1,0,0:0:0:0:
448,192,27785,1,0,0:0:0:0:
64,192,27960,1,0,0:0:0:0:
448,192,28047,1,0,0:0:0:0:
192,192,28134,1,0,0:0:0:0:
448,192,28221,1,0,0:0:0:0:
64,192,28309,1,0,0:0:0:0:
192,192,28483,1,0,0:0:0:0:
448,192,28570,1,0,0:0:0:0:
192,192,28657,1,0,0:0:0:0:
64,192,29006,1,0,0:0:0:0:
320,192,29006,1,0,0:0:0:0:
192,192,29181,1,0,0:0:0:0:
320,192,29355,1,0,0:0:0:0:
64,192,29355,1,0,0:0:0:0:
192,192,29530,1,0,0:0:0:0:
192,192,29704,1,0,0:0:0:0:
448,192,29704,1,0,0:0:0:0:
320,192,29878,1,0,0:0:0:0:
320,192,30053,1,0,0:0:0:0:
448,192,30053,1,0,0:0:0:0:
192,192,30227,1,0,0:0:0:0:
64,192,30402,1,0,0:0:0:0:
320,192,30402,1,0,0:0:0:0:
192,192,30576,1,0,0:0:0:0:
192,192,30751,1,0,0:0:0:0:
320,192,30751,1,0,0:0:0:0:
192,192,30925,1,0,0:0:0:0:
320,192,31099,1,0,0:0:0:0:
448,192,31099,1,0,0:0:0:0:
192,192,31274,1,0,0:0:0:0:
64,192,31448,1,0,0:0:0:0:
320,192,31448,1,0,0:0:0:0:
192,192,31623,1,0,0:0:0:0:
320,192,31797,1,0,0:0:0:0:
448,192,31797,1,0,0:0:0:0:
192,192,31971,1,0,0:0:0:0:
64,192,31971,128,0,32844:0:0:0:0:
320,192,32146,1,0,0:0:0:0:
448,192,32146,1,0,0:0:0:0:
192,192,32320,1,0,0:0:0:0:
320,192,32495,1,0,0:0:0:0:
448,192,32495,1,0,0:0:0:0:
192,192,32669,1,0,0:0:0:0:
320,192,32844,1,0,0:0:0:0:
448,192,32844,1,0,0:0:0:0:
64,192,33018,128,0,33105:0:0:0:0:
320,192,33192,1,0,0:0:0:0:
448,192,33192,1,0,0:0:0:0:
64,192,33367,128,0,33454:0:0:0:0:
192,192,33541,1,0,0:0:0:0:
448,192,33541,1,0,0:0:0:0:
320,192,33628,1,0,0:0:0:0:
448,192,33716,128,0,33803:0:0:0:0:
192,192,33890,1,0,0:0:0:0:
64,192,33890,1,0,0:0:0:0:
320,192,34064,128,0,34152:0:0:0:0:
448,192,34064,1,0,0:0:0:0:
192,192,34239,1,0,0:0:0:0:
64,192,34239,1,0,0:0:0:0:
448,192,34413,128,0,34501:0:0:0:0:
320,192,34413,1,0,0:0:0:0:
320,192,34588,1,0,0:0:0:0:
64,192,34588,1,0,0:0:0:0:
448,192,34762,128,0,34849:0:0:0:0:
320,192,34762,1,0,0:0:0:0:
320,192,34937,1,0,0:0:0:0:
64,192,34937,1,0,0:0:0:0:
320,192,35111,128,0,35198:0:0:0:0:
192,192,35285,1,0,0:0:0:0:
64,192,35285,1,0,0:0:0:0:
448,192,35460,128,0,35547:0:0:0:0:
64,192,35634,1,0,0:0:0:0:
192,192,35634,1,0,0:0:0:0:
192,192,35809,1,0,0:0:0:0:
64,192,35809,128,0,35896:0:0:0:0:
320,192,35983,1,0,0:0:0:0:
448,192,35983,1,0,0:0:0:0:
192,192,36157,1,0,0:0:0:0:
64,192,36157,128,0,36245:0:0:0:0:
320,192,36332,1,0,0:0:0:0:
448,192,36332,1,0,0:0:0:0:
64,192,36506,1,0,0:0:0:0:
192,192,36506,128,0,36594:0:0:0:0:
320,192,36681,1,0,0:0:0:0:
448,192,36681,1,0,0:0:0:0:
64,192,36855,1,0,0:0:0:0:
192,192,36855,128,0,36942:0:0:0:0:
320,192,37030,1,0,0:0:0:0:
448,192,37030,1,0,0:0:0:0:
64,192,37030,128,0,37378:0:0:0:0:
192,192,37204,1,0,0:0:0:0:
320,192,37378,1,0,0:0:0:0:
448,192,37378,1,0,0:0:0:0:
64,192,37553,128,0,38425:0:0:0:0:
192,192,37553,128,0,37640:0:0:0:0:
448,192,37727,1,0,0:0:0:0:
320,192,37727,1,0,0:0:0:0:
192,192,37902,1,0,0:0:0:0:
448,192,38076,1,0,0:0:0:0:
320,192,38076,1,0,0:0:0:0:
192,192,38251,1,0,0:0:0:0:
192,192,38425,1,0,0:0:0:0:
320,192,38425,128,0,38774:0:0:0:0:
64,192,38599,1,0,0:0:0:0:
448,192,38774,1,0,0:0:0:0:
64,192,38774,128,0,39820:0:0:0:0:
192,192,38948,1,0,0:0:0:0:
320,192,39035,1,0,0:0:0:0:
448,192,39123,1,0,0:0:0:0:
192,192,39123,128,0,39820:0:0:0:0:
448,192,39297,1,0,0:0:0:0:
448,192,39471,128,0,39820:0:0:0:0:
320,192,39471,1,0,0:0:0:0:
320,192,39646,1,0,0:0:0:0:
320,192,39820,128,0,41216:0:0:0:0:
192,192,39995,1,0,0:0:0:0:
448,192,40169,1,0,0:0:0:0:
64,192,40169,1,0,0:0:0:0:
192,192,40344,1,0,0:0:0:0:
64,192,40518,1,0,0:0:0:0:
448,192,40518,1,0,0:0:0:0:
192,192,40692,1,0,0:0:0:0:
448,192,40867,1,0,0:0:0:0:
64,192,40867,1,0,0:0:0:0:
192,192,41041,1,0,0:0:0:0:
192,192,41216,1,0,0:0:0:0:
448,192,41216,1,0,0:0:0:0:
192,192,41390,1,0,0:0:0:0:
64,192,41564,1,0,0:0:0:0:
320,192,41564,1,0,0:0:0:0:
320,192,41739,1,0,0:0:0:0:
192,192,41913,1,0,0:0:0:0:
448,192,41913,1,0,0:0:0:0:
320,192,42088,1,0,0:0:0:0:
320,192,42262,1,0,0:0:0:0:
64,192,42262,1,0,0:0:0:0:
192,192,42437,1,0,0:0:0:0:
192,192,42611,1,0,0:0:0:0:
448,192,42611,1,0,0:0:0:0:
320,192,42611,128,0,44006:0:0:0:0:
64,192,42785,1,0,0:0:0:0:
192,192,42960,1,0,0:0:0:0:
64,192,42960,1,0,0:0:0:0:
448,192,43134,1,0,0:0:0:0:
448,192,43309,1,0,0:0:0:0:
192,192,43309,1,0,0:0:0:0:
192,192,43483,1,0,0:0:0:0:
192,192,43657,1,0,0:0:0:0:
64,192,43657,1,0,0:0:0:0:
448,192,43832,1,0,0:0:0:0:
192,192,44006,128,0,45402:0:0:0:0:
64,192,44006,1,0,0:0:0:0:
64,192,44181,1,0,0:0:0:0:
320,192,44355,1,0,0:0:0:0:
448,192,44530,1,0,0:0:0:0:
64,192,44704,128,0,48192:0:0:0:0:
320,192,44704,1,0,0:0:0:0:
448,192,44878,1,0,0:0:0:0:
320,192,45053,1,0,0:0:0:0:
448,192,45227,1,0,0:0:0:0:
320,192,45402,128,0,46797:0:0:0:0:
448,192,45402,1,0,0:0:0:0:
192,192,45576,1,0,0:0:0:0:
448,192,45751,1,0,0:0:0:0:
448,192,45925,1,0,0:0:0:0:
192,192,46099,1,0,0:0:0:0:
192,192,46274,1,0,0:0:0:0:
448,192,46448,1,0,0:0:0:0:
192,192,46623,1,0,0:0:0:0:
448,192,46797,128,0,48192:0:0:0:0:
192,192,46797,1,0,0:0:0:0:
320,192,46971,1,0,0:0:0:0:
192,192,47146,1,0,0:0:0:0:
192,192,47320,1,0,0:0:0:0:
320,192,47495,1,0,0:0:0:0:
192,192,47669,1,0,0:0:0:0:
320,192,47844,1,0,0:0:0:0:
192,192,48018,1,0,0:0:0:0:
192,192,48192,128,0,49588:0:0:0:0:
320,192,48192,1,0,0:0:0:0:
448,192,48367,1,0,0:0:0:0:
320,192,48541,1,0,0:0:0:0:
64,192,48716,1,0,0:0:0:0:
448,192,48890,128,0,49588:0:0:0:0:
64,192,48890,1,0,0:0:0:0:
320,192,49064,1,0,0:0:0:0:
320,192,49239,1,0,0:0:0:0:
64,192,49413,1,0,0:0:0:0:
64,192,49588,128,0,49937:0:0:0:0:
320,192,49588,128,0,49937:0:0:0:0:
448,192,49762,1,0,0:0:0:0:
192,192,49937,128,0,50285:0:0:0:0:
448,192,49937,128,0,50285:0:0:0:0:
64,192,50111,1,0,0:0:0:0:
64,192,50285,128,0,50634:0:0:0:0:
320,192,50285,128,0,50634:0:0:0:0:
192,192,50460,1,0,0:0:0:0:
448,192,50634,128,0,52378:0:0:0:0:
192,192,50634,1,0,0:0:0:0:
192,192,50809,1,0,0:0:0:0:
320,192,50983,1,0,0:0:0:0:
64,192,50983,1,0,0:0:0:0:
64,192,51506,1,0,0:0:0:0:
192,192,51506,1,0,0:0:0:0:
64,192,51681,1,0,0:0:0:0:
192,192,51681,1,0,0:0:0:0:
320,192,52030,1,0,0:0:0:0:
192,192,52204,1,0,0:0:0:0:
64,192,52204,1,0,0:0:0:0:
192,192,52553,1,0,0:0:0:0:
320,192,52553,1,0,0:0:0:0:
64,192,52640,1,0,0:0:0:0:
192,192,52727,1,0,0:0:0:0:
320,192,52814,1,0,0:0:0:0:
64,192,52902,1,0,0:0:0:0:
448,192,52902,1,0,0:0:0:0:
192,192,53076,1,0,0:0:0:0:
320,192,53076,1,0,0:0:0:0:
64,192,53251,1,0,0:0:0:0:
192,192,53338,1,0,0:0:0:0:
320,192,53425,1,0,0:0:0:0:
192,192,53599,1,0,0:0:0:0:
320,192,53687,1,0,0:0:0:0:
448,192,53774,1,0,0:0:0:0:
64,192,53774,1,0,0:0:0:0:
320,192,54297,1,0,0:0:0:0:
448,192,54297,1,0,0:0:0:0:
192,192,54471,1,0,0:0:0:0:
64,192,54471,1,0,0:0:0:0:
320,192,54471,1,0,0:0:0:0:
448,192,54646,1,0,0:0:0:0:
320,192,54733,1,0,0:0:0:0:
192,192,54820,1,0,0:0:0:0:
64,192,54820,1,0,0:0:0:0:
320,192,54995,1,0,0:0:0:0:
448,192,54995,1,0,0:0:0:0:
192,192,54995,1,0,0:0:0:0:
320,192,55169,1,0,0:0:0:0:
448,192,55256,1,0,0:0:0:0:
192,192,55344,1,0,0:0:0:0:
64,192,55344,1,0,0:0:0:0:
320,192,55344,1,0,0:0:0:0:
448,192,55431,1,0,0:0:0:0:
320,192,55518,1,0,0:0:0:0:
448,192,55605,1,0,0:0:0:0:
192,192,55692,1,0,0:0:0:0:
320,192,55692,1,0,0:0:0:0:
320,192,55867,1,0,0:0:0:0:
448,192,55867,128,0,56216:0:0:0:0:
192,192,55867,1,0,0:0:0:0:
64,192,56041,1,0,0:0:0:0:
192,192,56041,1,0,0:0:0:0:
320,192,56216,1,0,0:0:0:0:
192,192,56216,1,0,0:0:0:0:
64,192,56390,1,0,0:0:0:0:
192,192,56477,1,0,0:0:0:0:
320,192,56564,1,0,0:0:0:0:
448,192,56564,128,0,57088:0:0:0:0:
64,192,56739,1,0,0:0:0:0:
192,192,56913,1,0,0:0:0:0:
320,192,57088,1,0,0:0:0:0:
192,192,57262,1,0,0:0:0:0:
64,192,57262,1,0,0:0:0:0:
192,192,57611,1,0,0:0:0:0:
448,192,57611,1,0,0:0:0:0:
320,192,57785,1,0,0:0:0:0:
64,192,58134,1,0,0:0:0:0:
320,192,58134,1,0,0:0:0:0:
320,192,58483,1,0,0:0:0:0:
192,192,58657,1,0,0:0:0:0:
64,192,58657,1,0,0:0:0:0:
320,192,58832,1,0,0:0:0:0:
320,192,59006,1,0,0:0:0:0:
448,192,59006,1,0,0:0:0:0:
320,192,59181,1,0,0:0:0:0:
192,192,59268,1,0,0:0:0:0:
64,192,59355,1,0,0:0:0:0:
448,192,59355,128,0,60751:0:0:0:0:
320,192,59355,1,0,0:0:0:0:
192,192,59530,1,0,0:0:0:0:
192,192,59704,1,0,0:0:0:0:
320,192,59704,1,0,0:0:0:0:
64,192,59878,1,0,0:0:0:0:
320,192,60053,128,0,60751:0:0:0:0:
192,192,60053,1,0,0:0:0:0:
64,192,60227,1,0,0:0:0:0:
64,192,60402,1,0,0:0:0:0:
192,192,60576,1,0,0:0:0:0:
192,192,60751,128,0,61448:0:0:0:0:
64,192,60751,1,0,0:0:0:0:
320,192,60925,1,0,0:0:0:0:
320,192,61099,1,0,0:0:0:0:
448,192,61099,1,0,0:0:0:0:
64,192,61274,1,0,0:0:0:0:
64,192,61448,1,0,0:0:0:0:
448,192,61448,1,0,0:0:0:0:
320,192,61535,1,0,0:0:0:0:
448,192,61623,1,0,0:0:0:0:
64,192,61623,1,0,0:0:0:0:
320,192,61710,1,0,0:0:0:0:
192,192,61797,128,0,62146:0:0:0:0:
64,192,61797,1,0,0:0:0:0:
448,192,61971,1,0,0:0:0:0:
320,192,62146,128,0,63541:0:0:0:0:
64,192,62146,1,0,0:0:0:0:
448,192,62320,1,0,0:0:0:0:
64,192,62495,1,0,0:0:0:0:
192,192,62495,1,0,0:0:0:0:
448,192,62669,1,0,0:0:0:0:
192,192,62844,1,0,0:0:0:0:
64,192,62844,1,0,0:0:0:0:
448,192,63018,1,0,0:0:0:0:
192,192,63192,1,0,0:0:0:0:
64,192,63192,1,0,0:0:0:0:
448,192,63367,1,0,0:0:0:0:
192,192,63541,1,0,0:0:0:0:
448,192,63541,1,0,0:0:0:0:
448,192,63716,1,0,0:0:0:0:
192,192,63716,1,0,0:0:0:0:
64,192,63890,1,0,0:0:0:0:
448,192,63890,1,0,0:0:0:0:
192,192,64064,1,0,0:0:0:0:
448,192,64064,1,0,0:0:0:0:
320,192,64239,1,0,0:0:0:0:
64,192,64239,1,0,0:0:0:0:
192,192,64326,1,0,0:0:0:0:
448,192,64326,1,0,0:0:0:0:
320,192,64413,1,0,0:0:0:0:
64,192,64413,1,0,0:0:0:0:
192,192,64501,1,0,0:0:0:0:
448,192,64501,1,0,0:0:0:0:
320,192,64588,1,0,0:0:0:0:
64,192,64588,1,0,0:0:0:0:
192,192,64675,1,0,0:0:0:0:
448,192,64675,1,0,0:0:0:0:
320,192,64762,1,0,0:0:0:0:
64,192,64762,1,0,0:0:0:0:
192,192,64849,1,0,0:0:0:0:
448,192,64849,1,0,0:0:0:0:
192,192,65111,1,0,0:0:0:0:
448,192,65198,1,0,0:0:0:0:
320,192,65285,1,0,0:0:0:0:
64,192,65460,1,0,0:0:0:0:
448,192,65634,1,0,0:0:0:0:
320,192,65721,1,0,0:0:0:0:
192,192,65809,1,0,0:0:0:0:
320,192,65896,1,0,0:0:0:0:
448,192,65983,1,0,0:0:0:0:
64,192,65983,1,0,0:0:0:0:
64,192,66332,128,0,68425:0:0:0:0:
448,192,66332,1,0,0:0:0:0:
320,192,66332,1,0,0:0:0:0:
192,192,66506,1,0,0:0:0:0:
320,192,66681,1,0,0:0:0:0:
448,192,66681,1,0,0:0:0:0:
192,192,66855,1,0,0:0:0:0:
448,192,67030,1,0,0:0:0:0:
320,192,67030,1,0,0:0:0:0:
192,192,67204,1,0,0:0:0:0:
320,192,67378,1,0,0:0:0:0:
448,192,67378,1,0,0:0:0:0:
192,192,67553,1,0,0:0:0:0:
448,192,67727,1,0,0:0:0:0:
320,192,67727,1,0,0:0:0:0:
192,192,67902,1,0,0:0:0:0:
320,192,68076,1,0,0:0:0:0:
448,192,68076,1,0,0:0:0:0:
320,192,68251,1,0,0:0:0:0:
192,192,68338,1,0,0:0:0:0:
448,192,68425,1,0,0:0:0:0:
320,192,68425,1,0,0:0:0:0:
320,192,68599,1,0,0:0:0:0:
192,192,68687,1,0,0:0:0:0:
64,192,68774,1,0,0:0:0:0:
448,192,68774,1,0,0:0:0:0:
192,192,68861,1,0,0:0:0:0:
320,192,68948,1,0,0:0:0:0:
64,192,69123,1,0,0:0:0:0:
192,192,69123,1,0,0:0:0:0:
320,192,69123,128,0,69820:0:0:0:0:
448,192,69297,1,0,0:0:0:0:
64,192,69471,1,0,0:0:0:0:
192,192,69471,1,0,0:0:0:0:
448,192,69646,1,0,0:0:0:0:
64,192,69820,1,0,0:0:0:0:
192,192,69820,128,0,70518:0:0:0:0:
320,192,69995,1,0,0:0:0:0:
320,192,70169,1,0,0:0:0:0:
448,192,70169,1,0,0:0:0:0:
64,192,70344,1,0,0:0:0:0:
64,192,70518,1,0,0:0:0:0:
320,192,70518,1,0,0:0:0:0:
192,192,70692,1,0,0:0:0:0:
320,192,70867,1,0,0:0:0:0:
448,192,70867,1,0,0:0:0:0:
448,192,71041,1,0,0:0:0:0:
192,192,71216,1,0,0:0:0:0:
320,192,71216,1,0,0:0:0:0:
448,192,71390,1,0,0:0:0:0:
192,192,71564,1,0,0:0:0:0:
320,192,71564,1,0,0:0:0:0:
448,192,71739,1,0,0:0:0:0:
320,192,71826,1,0,0:0:0:0:
64,192,71913,1,0,0:0:0:0:
192,192,71913,1,0,0:0:0:0:
448,192,71913,128,0,73309:0:0:0:0:
320,192,72088,1,0,0:0:0:0:
192,192,72262,1,0,0:0:0:0:
64,192,72262,1,0,0:0:0:0:
320,192,72437,1,0,0:0:0:0:
64,192,72611,1,0,0:0:0:0:
192,192,72611,1,0,0:0:0:0:
320,192,72785,1,0,0:0:0:0:
192,192,72960,1,0,0:0:0:0:
64,192,72960,1,0,0:0:0:0:
320,192,73134,1,0,0:0:0:0:
64,192,73309,1,0,0:0:0:0:
192,192,73309,1,0,0:0:0:0:
320,192,73483,1,0,0:0:0:0:
448,192,73657,1,0,0:0:0:0:
320,192,73657,1,0,0:0:0:0:
320,192,73832,1,0,0:0:0:0:
192,192,74006,1,0,0:0:0:0:
448,192,74006,1,0,0:0:0:0:
64,192,74094,1,0,0:0:0:0:
192,192,74181,1,0,0:0:0:0:
320,192,74268,1,0,0:0:0:0:
192,192,74355,1,0,0:0:0:0:
448,192,74355,1,0,0:0:0:0:
320,192,74442,1,0,0:0:0:0:
192,192,74530,1,0,0:0:0:0:
448,192,74704,1,0,0:0:0:0:
64,192,74704,128,0,75402:0:0:0:0:
320,192,74704,1,0,0:0:0:0:
192,192,74878,1,0,0:0:0:0:
320,192,75053,1,0,0:0:0:0:
448,192,75053,1,0,0:0:0:0:
192,192,75227,1,0,0:0:0:0:
320,192,75402,1,0,0:0:0:0:
448,192,75402,1,0,0:0:0:0:
320,192,75576,1,0,0:0:0:0:
192,192,75751,1,0,0:0:0:0:
320,192,75925,1,0,0:0:0:0:
448,192,75925,128,0,76099:0:0:0:0:
192,192,76099,1,0,0:0:0:0:
64,192,76099,1,0,0:0:0:0:
320,192,76274,1,0,0:0:0:0:
448,192,76274,1,0,0:0:0:0:
192,192,76448,1,0,0:0:0:0:
64,192,76448,1,0,0:0:0:0:
320,192,76623,1,0,0:0:0:0:
448,192,76623,1,0,0:0:0:0:
192,192,76797,1,0,0:0:0:0:
320,192,76797,1,0,0:0:0:0:
64,192,76884,1,0,0:0:0:0:
448,192,76884,1,0,0:0:0:0:
320,192,76971,1,0,0:0:0:0:
192,192,76971,1,0,0:0:0:0:
64,192,77059,1,0,0:0:0:0:
448,192,77059,1,0,0:0:0:0:
320,192,77146,1,0,0:0:0:0:
192,192,77146,1,0,0:0:0:0:
192,192,77320,1,0,0:0:0:0:
64,192,77320,1,0,0:0:0:0:
320,192,77407,1,0,0:0:0:0:
192,192,77495,1,0,0:0:0:0:
64,192,77495,1,0,0:0:0:0:
448,192,77495,128,0,79413:0:0:0:0:
192,192,77844,1,0,0:0:0:0:
320,192,77844,1,0,0:0:0:0:
320,192,78018,1,0,0:0:0:0:
192,192,78192,1,0,0:0:0:0:
320,192,78192,1,0,0:0:0:0:
192,192,78367,1,0,0:0:0:0:
64,192,78541,1,0,0:0:0:0:
320,192,78541,1,0,0:0:0:0:
192,192,78716,1,0,0:0:0:0:
64,192,78890,1,0,0:0:0:0:
320,192,78890,1,0,0:0:0:0:
192,192,79064,1,0,0:0:0:0:
64,192,79239,1,0,0:0:0:0:
320,192,79239,1,0,0:0:0:0:
320,192,79413,1,0,0:0:0:0:
64,192,79588,1,0,0:0:0:0:
448,192,79588,1,0,0:0:0:0:
192,192,79762,1,0,0:0:0:0:
320,192,79849,1,0,0:0:0:0:
448,192,79937,1,0,0:0:0:0:
320,192,80024,1,0,0:0:0:0:
192,192,80111,1,0,0:0:0:0:
320,192,80285,1,0,0:0:0:0:
448,192,80285,1,0,0:0:0:0:
64,192,80285,128,0,80983:0:0:0:0:
192,192,80460,1,0,0:0:0:0:
320,192,80634,1,0,0:0:0:0:
448,192,80634,1,0,0:0:0:0:
192,192,80809,1,0,0:0:0:0:
448,192,80983,128,0,81681:0:0:0:0:
320,192,80983,1,0,0:0:0:0:
192,192,80983,1,0,0:0:0:0:
192,192,81157,1,0,0:0:0:0:
64,192,81332,1,0,0:0:0:0:
320,192,81332,1,0,0:0:0:0:
192,192,81506,1,0,0:0:0:0:
320,192,81681,1,0,0:0:0:0:
64,192,81681,1,0,0:0:0:0:
192,192,81855,1,0,0:0:0:0:
64,192,82030,1,0,0:0:0:0:
448,192,82030,1,0,0:0:0:0:
192,192,82204,1,0,0:0:0:0:
320,192,82378,1,0,0:0:0:0:
64,192,82378,1,0,0:0:0:0:
448,192,82553,1,0,0:0:0:0:
320,192,82640,1,0,0:0:0:0:
192,192,82727,1,0,0:0:0:0:
64,192,82727,1,0,0:0:0:0:
320,192,83076,1,0,0:0:0:0:
192,192,83076,1,0,0:0:0:0:
448,192,83076,128,0,84471:0:0:0:0:
64,192,83251,1,0,0:0:0:0:
64,192,83425,1,0,0:0:0:0:
192,192,83425,1,0,0:0:0:0:
320,192,83599,1,0,0:0:0:0:
320,192,83774,1,0,0:0:0:0:
192,192,83774,1,0,0:0:0:0:
64,192,83948,1,0,0:0:0:0:
192,192,84123,1,0,0:0:0:0:
64,192,84123,1,0,0:0:0:0:
320,192,84297,1,0,0:0:0:0:
64,192,84471,1,0,0:0:0:0:
192,192,84471,1,0,0:0:0:0:
320,192,84559,1,0,0:0:0:0:
192,192,84646,1,0,0:0:0:0:
64,192,84733,1,0,0:0:0:0:
192,192,84820,1,0,0:0:0:0:
320,192,84907,1,0,0:0:0:0:
448,192,84995,1,0,0:0:0:0:
64,192,85169,1,0,0:0:0:0:
192,192,85169,1,0,0:0:0:0:
192,192,85344,1,0,0:0:0:0:
320,192,85518,1,0,0:0:0:0:
448,192,85518,1,0,0:0:0:0:
64,192,85518,1,0,0:0:0:0:
192,192,85692,1,0,0:0:0:0:
192,192,85867,1,0,0:0:0:0:
64,192,85867,128,0,86564:0:0:0:0:
320,192,85867,1,0,0:0:0:0:
320,192,86041,1,0,0:0:0:0:
192,192,86041,1,0,0:0:0:0:
320,192,86216,1,0,0:0:0:0:
448,192,86216,1,0,0:0:0:0:
320,192,86390,1,0,0:0:0:0:
448,192,86390,1,0,0:0:0:0:
192,192,86564,1,0,0:0:0:0:
448,192,86652,1,0,0:0:0:0:
192,192,86739,1,0,0:0:0:0:
448,192,86826,1,0,0:0:0:0:
192,192,86913,1,0,0:0:0:0:
448,192,87001,1,0,0:0:0:0:
192,192,87088,1,0,0:0:0:0:
448,192,87175,1,0,0:0:0:0:
64,192,87262,1,0,0:0:0:0:
192,192,87262,1,0,0:0:0:0:
320,192,87262,128,0,87437:0:0:0:0:
64,192,87437,1,0,0:0:0:0:
320,192,87611,1,0,0:0:0:0:
448,192,87611,1,0,0:0:0:0:
192,192,87611,128,0,87785:0:0:0:0:
64,192,87785,1,0,0:0:0:0:
64,192,87960,128,0,88657:0:0:0:0:
192,192,87960,128,0,88832:0:0:0:0:
320,192,87960,128,0,89006:0:0:0:0:
448,192,87960,128,0,89181:0:0:0:0:
