osu file format v12

[General]
AudioFilename: Fantastic future.mp3
AudioLeadIn: 2000
PreviewTime: 66108
Countdown: 0
SampleSet: Normal
StackLeniency: 0.3
Mode: 0
LetterboxInBreaks: 0

[Editor]
DistanceSpacing: 1.1
BeatDivisor: 2
GridSize: 4

[Metadata]
Title:Fantastic future (TV Size)
TitleUnicode:Fantastic future (TV Size)
Artist:Tamura Yukari
ArtistUnicode:田村ゆかり
Creator:Ryafuka
Version:Normal
Source:Hentai Ouji to Warawanai Neko
Tags:opening
BeatmapID:242373
BeatmapSetID:88743

[Difficulty]
HPDrainRate:4
CircleSize:3
OverallDifficulty:4
ApproachRate:5
SliderMultiplier:1
SliderTickRate:1

[Events]
//Background and Video events
Video,0,"movie.avi"
0,0,"BG.jpg",0,0
//Break Periods
//Storyboard Layer 0 (Background)
//Storyboard Layer 1 (Fail)
//Storyboard Layer 2 (Pass)
//Storyboard Layer 3 (Foreground)
//Storyboard Sound Samples
//Background Colour Transformations
3,100,163,162,255

[TimingPoints]
-698,348.837209302326,4,2,1,55,1,0
6278,-100,4,1,1,60,0,0
9069,-100,4,2,1,20,0,0
10464,-100,4,2,1,5,0,0
11860,-100,4,1,1,65,0,0
28691,-100,4,1,1,55,0,0
50929,-100,4,1,1,50,0,0
56511,-100,4,1,1,55,0,0
59302,-100,4,1,1,60,0,0
60610,-100,4,1,1,65,0,0
60784,-100,4,1,1,60,0,0
63488,-100,4,2,1,20,0,0
64883,-100,4,2,1,5,0,0
66278,-100,4,1,1,70,0,1
77354,-100,4,1,1,70,0,0
77441,-100,4,1,1,75,0,1
87906,-100,4,1,1,75,0,0

[Colours]
Combo1 : 170,255,255
Combo2 : 255,170,170
Combo3 : 170,255,170
Combo4 : 255,255,170

[HitObjects]
164,92,697,1,4,1:0:0:0:
112,188,1046,2,0,L|128:288,2,100
216,220,2092,2,0,L|279:297,2,100,0|0|0,1:0|0:0|0:0,0:0:0:0:
80,44,3488,5,0,1:0:0:0:
136,140,3836,2,0,B|88:160|32:148|32:148,2,100
248,132,4883,2,0,L|356:160,1,100,0|0,1:0|0:0,0:0:0:0:
284,248,5581,2,0,L|381:274,1,100,0|0,1:0|0:0,0:0:0:0:
456,192,6278,6,0,B|480:148|476:92|476:92,2,100,4|0|0,0:0|0:0|0:0,0:0:0:0:
381,274,7325,1,0,0:0:0:0:
280,232,7674,2,0,L|240:328,2,100,4|0|0,0:0|0:0|0:0,0:0:0:0:
324,132,8720,1,0,0:0:0:0:
256,192,9069,12,0,10464,0:0:0:0:
332,292,11860,6,0,L|444:276,1,100,4|8,0:0|0:0,0:0:0:0:
408,172,12557,2,0,L|296:188,1,100,0|8,0:0|0:0,0:0:0:0:
208,140,13255,2,0,B|192:92|200:36|200:36,2,100,0|8|0,0:0|0:0|0:0,0:0:0:0:
264,236,14302,1,8,0:0:0:0:
192,320,14650,6,0,L|88:332,2,100,0|8|0,0:0|0:0|0:0,0:0:0:0:
264,236,15697,1,8,0:0:0:0:
332,320,16046,2,0,L|436:332,1,100,0|8,0:0|0:0,0:0:0:0:
444,224,16743,2,0,L|344:212,1,100,0|8,0:0|0:0,0:0:0:0:
248,156,17441,6,0,B|200:180|128:164|128:164,1,100,4|8,0:0|0:0,0:0:0:0:
149,277,18139,2,0,B|197:301|269:285|269:285,1,100,0|8,0:0|0:0,0:0:0:0:
352,252,18836,2,0,L|376:144,2,100,0|8|0,0:0|0:0|0:0,0:0:0:0:
276,332,19883,1,8,0:0:0:0:
184,272,20232,6,0,L|72:256,1,100,4|0,0:0|0:0,0:0:0:0:
136,160,20929,2,0,L|248:144,1,100
320,76,21627,5,4,0:0:0:0:
424,116,21976,1,2,0:0:0:0:
340,184,22325,1,6,0:0:0:0:
340,184,23022,6,0,B|292:204|236:192|236:192,1,100,4|0,0:0|0:0,0:0:0:0:
164,116,23720,2,0,B|116:96|60:108|60:108,1,100
24,208,24418,1,0,0:0:0:0:
88,296,24767,1,0,0:0:0:0:
196,308,25115,1,0,0:0:0:0:
284,244,25464,1,2,0:0:0:0:
232,148,25813,6,0,L|252:44,1,100,4|0,0:0|0:0,0:0:0:0:
356,76,26511,2,0,L|337:174,1,100,4|0,0:0|0:0,0:0:0:0:
276,264,27208,1,4,0:0:0:0:
356,336,27557,1,4,0:0:0:0:
460,304,27906,1,4,0:0:0:0:
460,83,28604,5,4,0:0:0:0:
368,140,28953,2,0,B|356:188|368:252|368:252,2,100,8|0|8,0:0|0:0|0:0,0:0:0:0:
276,76,29999,2,0,B|228:100|168:88|168:88,1,100,0|8,0:0|1:0,0:0:0:0:
178,199,30697,2,0,B|226:223|286:211|286:211,1,100,0|8,0:0|0:0,0:0:0:0:
384,240,31395,6,0,L|416:136,1,100,0|8,0:0|0:0,0:0:0:0:
306,117,32092,2,0,L|274:221,1,100,0|8,0:0|0:0,0:0:0:0:
210,300,32790,1,0,0:0:0:0:
107,262,33139,1,8,0:0:0:0:
107,152,33488,1,0,0:0:0:0:
212,124,33836,1,8,0:0:0:0:
277,212,34185,5,0,0:0:0:0:
308,312,34534,2,0,L|424:293,2,100,8|0|8,0:0|0:0|0:0,0:0:0:0:
200,288,35581,1,0,0:0:0:0:
120,212,35929,1,8,0:0:0:0:
192,128,36278,2,0,B|204:80|196:24|196:24,1,100,0|8,0:0|0:0,0:0:0:0:
296,80,36976,6,0,B|308:128|300:184|300:184,1,100,0|8,0:0|0:0,0:0:0:0:
240,272,37674,1,0,0:0:0:0:
132,296,38022,1,8,0:0:0:0:
36,244,38371,2,0,B|24:196|32:140|32:140,1,100,2|10,2:0|2:1,0:0:0:0:
140,116,39069,2,0,B|157:162|196:203|196:203,1,100,2|10,2:0|2:1,0:0:0:0:
284,136,39767,5,6,1:0:0:0:
320,240,40115,2,0,L|448:224,2,100,8|0|8,0:0|0:0|0:0,0:0:0:0:
232,304,41162,2,0,L|350:354,2,100,0|8|0,0:0|0:0|0:0,0:0:0:0:
144,236,42208,1,8,0:0:0:0:
176,136,42557,6,0,B|192:88|184:24|184:24,1,100,2|8,0:0|0:0,0:0:0:0:
84,80,43255,2,0,B|68:128|76:192|76:192,1,100,0|8,0:0|0:0,0:0:0:0:
132,272,43953,2,0,B|220:336|328:304|328:304,2,200,2|2|2,0:0|0:0|0:0,0:0:0:0:
116,164,45697,6,0,B|68:144|4:152|4:152,2,100,8|0|8,0:0|0:0|0:0,0:0:0:0:
208,108,46743,1,2,0:0:0:0:
200,324,47441,2,0,B|188:272|212:216|212:216,1,100,0|8,0:0|0:0,0:0:0:0:
304,280,48139,6,0,B|400:228|512:268|512:268,2,200,6|4|6,0:0|0:0|0:0,0:0:0:0:
216,344,49883,1,10,0:0:0:0:
144,260,50232,1,2,0:0:0:0:
156,152,50581,1,10,0:0:0:0:
240,80,50929,6,0,B|308:120|400:96|400:96,1,150,4|0,0:0|0:0,0:0:0:0:
436,72,51627,2,0,B|420:120|428:188|428:188,1,100,2|8,0:0|0:0,0:0:0:0:
436,224,52150,1,0,0:0:0:0:
360,304,52499,1,0,0:0:0:0:
260,256,52848,2,0,L|196:256,1,50
104,292,53371,1,8,0:0:0:0:
124,184,53720,6,0,B|96:108|140:28|140:28,1,150
184,72,54418,2,0,B|228:100|280:96|280:96,1,100,2|8,0:0|0:0,0:0:0:0:
328,72,54941,1,0,0:0:0:0:
372,172,55290,1,0,0:0:0:0:
280,232,55639,2,0,L|280:292,1,50
364,352,56162,1,8,0:0:0:0:
468,316,56511,6,0,L|468:160,1,150,4|0,0:0|0:0,0:0:0:0:
480,112,57208,2,0,B|432:132|376:120|376:120,1,100,2|8,0:0|0:0,0:0:0:0:
336,88,57732,1,0,0:0:0:0:
240,144,58081,1,0,0:0:0:0:
168,60,58429,2,0,L|100:60,1,50
44,140,58953,1,8,0:0:0:0:
44,140,59302,6,0,B|-12:228|28:336|28:336,2,200,6|2|6,0:0|0:0|0:0,0:0:0:0:
248,60,61395,1,2,0:0:0:0:
332,132,61743,1,8,0:0:0:0:
228,168,62092,2,0,B|216:220|228:288|228:288,2,100,4|8|4,0:0|0:0|0:0,0:0:0:0:
296,80,63139,1,8,0:0:0:0:
256,192,63488,12,0,64883,0:0:0:0:
208,124,66278,5,4,0:0:0:0:
172,228,66627,2,0,B|124:244|64:232|64:232,2,100,8|0|8,0:0|0:0|0:0,0:0:0:0:
260,296,67674,2,0,B|308:280|368:292|368:292,1,100,0|8,0:0|0:0,0:0:0:0:
460,332,68371,1,0,0:0:0:0:
460,332,68720,1,8,0:0:0:0:
440,224,69069,6,0,L|456:108,1,100,0|8,0:0|0:0,0:0:0:0:
368,56,69767,2,0,B|320:76|256:64|256:64,1,100,0|8,0:0|0:0,0:0:0:0:
160,64,70464,2,0,B|140:112|148:180|148:180,1,100,0|8,0:0|0:0,0:0:0:0:
212,252,71162,2,0,B|260:272|328:264|328:264,1,100,0|8,0:0|0:0,0:0:0:0:
380,180,71860,5,4,0:0:0:0:
472,240,72208,2,0,L|488:344,2,100,8|0|8,0:0|0:0|0:0,0:0:0:0:
380,180,73255,2,0,B|332:200|264:192|264:192,1,100,0|8,0:0|0:0,0:0:0:0:
196,124,73953,2,0,B|148:104|80:112|80:112,1,100,0|8,0:0|0:0,0:0:0:0:
20,188,74650,5,0,0:0:0:0:
48,296,74999,1,8,0:0:0:0:
148,340,75348,1,0,0:0:0:0:
256,320,75697,1,8,0:0:0:0:
316,228,76046,2,0,L|440:208,1,100,6|10,0:0|0:0,0:0:0:0:
414,102,76743,2,0,L|290:82,1,100,0|8,0:0|0:0,0:0:0:0:
224,152,77441,6,0,B|240:200|224:260|224:260,2,100,4|8|0,0:0|0:0|0:0,0:0:0:0:
184,48,78488,1,8,0:0:0:0:
292,64,78836,2,0,L|400:48,2,100,0|8|0,0:0|0:0|0:0,0:0:0:0:
224,152,79883,1,8,0:0:0:0:
132,92,80232,6,0,B|84:72|16:84|16:84,1,100,0|8,0:0|0:0,0:0:0:0:
32,192,80929,2,0,B|80:212|148:200|148:200,1,100,0|8,0:0|0:0,0:0:0:0:
200,116,81627,1,0,0:0:0:0:
302,155,81976,1,8,0:0:0:0:
296,265,82325,1,0,0:0:0:0:
190,293,82674,1,8,0:0:0:0:
130,201,83022,6,0,L|12:184,2,100,4|8|0,0:0|0:0|0:0,0:0:0:0:
224,260,84069,1,8,0:0:0:0:
332,240,84418,2,0,B|356:196|352:136|352:136,1,100,0|8,0:0|0:0,0:0:0:0:
460,112,85115,2,0,B|484:156|480:216|480:216,1,100,0|8,0:0|0:0,0:0:0:0:
436,312,85813,2,0,L|320:336,1,100,4|8,0:0|0:0,0:0:0:0:
320,224,86511,2,0,L|204:248,1,100,0|8,0:0|0:0,0:0:0:0:
132,308,87208,5,4,0:0:0:0:
32,264,87557,1,2,0:0:0:0:
120,196,87906,1,6,0:0:0:0:
