osu file format v12

[General]
AudioFilename: Fantastic future.mp3
AudioLeadIn: 2000
PreviewTime: 66108
Countdown: 0
SampleSet: Soft
StackLeniency: 0.3
Mode: 0
LetterboxInBreaks: 0

[Editor]
DistanceSpacing: 1.1
BeatDivisor: 2
GridSize: 4

[Metadata]
Title:Fantastic future (TV Size)
TitleUnicode:Fantastic future (TV Size)
Artist:Tamura Yukari
ArtistUnicode:田村ゆかり
Creator:Ryafuka
Version:Insane
Source:Hentai Ouji to Warawanai Neko
Tags:opening
BeatmapID:241695
BeatmapSetID:88743

[Difficulty]
HPDrainRate:7
CircleSize:4
OverallDifficulty:8
ApproachRate:9
SliderMultiplier:1.8
SliderTickRate:1

[Events]
//Background and Video events
Video,0,"movie.avi"
0,0,"BG.jpg",0,0
//Break Periods
//Storyboard Layer 0 (Background)
//Storyboard Layer 1 (Fail)
//Storyboard Layer 2 (Pass)
//Storyboard Layer 3 (Foreground)
//Storyboard Sound Samples
//Background Colour Transformations
3,100,163,162,255

[TimingPoints]
-698,348.837209302326,4,2,1,55,1,0
261,-125,4,2,1,65,0,0
522,-125,4,2,1,55,0,0
6278,-100,4,2,1,60,0,0
11860,-100,4,2,1,65,0,0
12993,-100,4,2,1,55,0,0
13168,-100,4,2,1,65,0,0
28691,-100,4,2,1,55,0,0
50929,-125,4,2,1,50,0,0
56511,-125,4,2,1,55,0,0
59302,-100,4,2,1,60,0,0
60610,-100,4,2,1,65,0,0
60784,-100,4,2,1,60,0,0
66278,-100,4,2,1,70,0,1
77354,-100,4,2,1,70,0,0
77441,-100,4,2,1,75,0,1
87906,-100,4,2,1,75,0,0

[Colours]
Combo1 : 170,255,255
Combo2 : 255,170,170
Combo3 : 170,255,170
Combo4 : 255,255,170

[HitObjects]
360,216,348,1,4,0:0:0:0:
412,324,697,5,0,1:0:0:0:
412,324,1046,2,0,B|376:340|340:332|340:332,1,72
268,264,1395,2,0,B|204:224|124:236|124:236,1,144
40,280,1918,2,0,L|24:364,2,72,0|0|0,0:0|1:0|0:0,0:0:0:0:
160,212,2441,2,0,B|172:176|168:136|168:136,1,72
96,68,2790,1,0,0:0:0:0:
160,212,2964,1,0,0:0:0:0:
104,296,3139,2,0,L|120:380,1,72
188,240,3488,6,0,B|256:208|332:228|332:228,1,144,0|0,1:0|0:0,0:0:0:0:
392,304,4011,1,0,0:0:0:0:
248,180,4185,2,0,B|236:144|244:100|244:100,1,72
300,28,4534,1,0,0:0:0:0:
248,180,4708,1,0,0:0:0:0:
324,248,4883,6,0,L|416:228,1,72,0|2,1:0|0:0,0:0:0:0:
492,208,5232,1,0,0:0:0:0:
492,208,5406,1,2,0:0:0:0:
244,320,5581,2,0,L|152:300,1,72,0|2,1:0|0:0,0:0:0:0:
76,280,5930,1,2,0:0:0:0:
76,280,6104,1,0,0:0:0:0:
192,88,6278,6,0,B|208:132|192:192|192:192,1,90,6|0,1:0|0:0,0:0:0:0:
169,273,6627,2,0,B|199:308|259:325|259:325,1,90,0|0,1:0|0:0,0:0:0:0:
344,308,6976,1,0,1:0:0:0:
428,256,7150,1,0,0:0:0:0:
456,352,7325,1,0,1:0:0:0:
320,212,7499,5,0,0:0:0:0:
320,212,7586,1,0,0:0:0:0:
320,212,7674,2,0,B|280:192|224:192|224:192,1,90,4|0,1:0|0:0,0:0:0:0:
80,340,8022,2,0,B|120:360|176:360|176:360,1,90,0|2,1:0|0:0,0:0:0:0:
256,312,8371,1,0,1:0:0:0:
132,208,8546,1,2,0:0:0:0:
256,312,8720,2,0,L|276:204,1,90,2|2,1:0|0:0,0:0:0:0:
112,84,9069,5,4,1:0:0:0:
272,240,9243,1,0,1:0:0:0:
152,204,9418,1,0,1:0:0:0:
368,160,9592,1,2,1:0:0:0:
284,64,9767,6,0,B|260:68|232:56|232:56,1,45,4|0,1:0|1:0,0:0:0:0:
208,32,9941,1,0,1:0:0:0:
188,68,10028,1,0,1:0:0:0:
180,108,10115,1,0,1:0:0:0:
184,148,10203,1,0,1:0:0:0:
204,184,10290,2,0,B|228:188|256:176|256:176,2,45,0|0|0,1:0|1:0|0:0,0:0:0:0:
264,280,10813,6,0,B|204:304|136:276|136:276|132:308|152:332,1,180
144,184,11336,2,0,L|127:130,2,45,0|0|4,1:0|1:0|1:2,0:0:0:0:
148,196,11598,1,0,0:0:0:0:
152,208,11685,1,0,0:0:0:0:
156,220,11772,1,0,0:0:0:0:
160,232,11860,6,0,B|176:136,1,90,4|0,1:0|0:0,0:0:0:0:
244,72,12208,2,0,B|288:56|336:64|336:64,1,90,8|0,1:0|0:0,0:0:0:0:
480,272,12557,2,0,B|412:296|340:260|340:260,1,135,0|0,1:0|0:0,0:0:0:0:
276,272,12906,2,0,L|261:183,1,90,8|4,1:0|0:0,0:0:0:0:
284,88,13255,1,0,1:0:0:0:
152,212,13429,1,0,0:0:0:0:
108,124,13604,6,0,L|12:104,1,90,8|0,1:0|0:0,0:0:0:0:
216,60,13953,1,0,1:0:0:0:
284,228,14127,1,2,0:0:0:0:
388,152,14302,1,8,1:0:0:0:
396,136,14389,1,0,0:0:0:0:
404,120,14476,1,2,0:0:0:0:
284,228,14650,6,0,B|328:288|416:280|416:280,1,135,0|0,1:0|0:0,0:0:0:0:
472,256,14999,2,0,L|512:164,1,90,8|0,1:0|0:0,0:0:0:0:
476,80,15348,1,0,1:0:0:0:
364,196,15522,1,0,0:0:0:0:
232,104,15697,1,8,1:0:0:0:
384,172,15871,5,0,0:0:0:0:
384,172,15958,1,0,0:0:0:0:
384,172,16046,2,0,B|400:216|384:280|384:280,1,90,0|2,1:0|0:0,0:0:0:0:
336,348,16395,1,8,1:0:0:0:
184,252,16569,1,2,0:0:0:0:
260,152,16743,2,0,B|272:108|260:56|260:56,1,90,0|2,1:0|0:0,0:0:0:0:
184,252,17092,1,10,1:0:0:0:
220,272,17179,1,0,0:0:0:0:
260,276,17267,1,0,0:0:0:0:
300,272,17354,1,0,0:0:0:0:
336,252,17441,6,0,B|292:232|244:240|244:240,1,90,4|0,1:0|0:0,0:0:0:0:
36,336,17790,2,0,B|84:339|126:315|126:315,1,90,8|0,1:0|0:0,0:0:0:0:
200,156,18139,2,0,L|180:48,2,90,0|0|8,1:0|0:0|1:0,0:0:0:0:
264,324,18662,1,0,0:0:0:0:
52,220,18836,6,0,B|92:240|144:236|144:236,1,90,0|0,1:0|0:0,0:0:0:0:
248,172,19185,2,0,B|312:140|392:160|392:160,1,135,8|0,1:0|0:0,0:0:0:0:
432,208,19534,1,0,1:0:0:0:
364,332,19708,1,2,0:0:0:0:
248,172,19883,1,10,1:0:0:0:
360,248,20057,1,2,0:0:0:0:
284,352,20232,6,0,B|236:358|184:340|184:340,1,90,6|0,1:0|0:0,0:0:0:0:
84,224,20581,2,0,L|100:312,1,90,8|0,1:0|0:0,0:0:0:0:
184,176,20929,2,0,L|196:124,1,45,0|0,1:0|1:0,0:0:0:0:
284,124,21104,2,0,L|294:80,1,45,0|0,1:0|1:0,0:0:0:0:
376,148,21278,2,0,L|386:104,1,45,0|0,1:0|1:0,0:0:0:0:
444,236,21453,2,0,L|454:192,1,45,0|0,1:0|1:0,0:0:0:0:
465,158,21627,5,4,1:0:0:0:
473,129,21976,1,2,1:0:0:0:
481,100,22325,1,6,1:0:0:0:
481,100,22674,5,0,1:0:0:0:
473,130,22761,1,0,1:0:0:0:
465,159,22848,1,0,1:0:0:0:
457,188,22935,1,0,1:0:0:0:
449,217,23022,6,0,B|403:227|351:203|351:203,1,90,4|0,1:0|0:0,0:0:0:0:
200,252,23371,2,0,L|180:164,1,90,0|0,1:0|0:0,0:0:0:0:
92,116,23720,1,0,1:0:0:0:
68,124,23807,1,0,0:0:0:0:
44,132,23895,1,0,0:0:0:0:
160,312,24069,2,0,B|180:272|176:224|176:224,1,90,0|0,1:0|0:0,0:0:0:0:
140,132,24418,5,0,1:0:0:0:
272,224,24592,1,0,0:0:0:0:
56,248,24767,1,0,1:0:0:0:
260,188,24941,1,0,0:0:0:0:
152,108,25115,2,0,L|136:20,1,90,0|0,1:0|0:0,0:0:0:0:
92,224,25464,2,0,L|76:312,1,90,0|0,1:0|0:0,0:0:0:0:
216,180,25813,6,0,B|256:204|320:196|320:196,1,90,4|0,1:0|0:0,0:0:0:0:
424,132,26162,2,0,B|456:196|432:268|432:268,1,135,0|0,1:0|0:0,0:0:0:0:
388,320,26511,1,4,1:0:0:0:
388,320,26685,1,0,0:0:0:0:
276,268,26860,2,0,L|176:248,1,90,0|0,1:0|0:0,0:0:0:0:
76,304,27208,5,4,1:0:0:0:
276,268,27383,1,0,1:0:0:0:
84,168,27557,1,0,1:0:0:0:
232,236,27732,1,0,1:0:0:0:
64,336,27906,1,4,1:0:0:0:
80,332,27993,1,0,1:0:0:0:
96,328,28081,1,0,1:0:0:0:
112,324,28168,1,0,1:0:0:0:
128,320,28255,1,4,1:0:0:0:
200,196,28429,5,0,1:0:0:0:
200,196,28517,1,0,1:0:0:0:
200,196,28604,1,4,1:0:0:0:
288,284,28778,1,0,0:0:0:0:
424,236,28953,2,0,B|440:192|432:140|432:140,1,90,8|0,1:0|0:0,0:0:0:0:
320,56,29302,1,0,1:0:0:0:
232,148,29476,1,0,0:0:0:0:
164,76,29650,2,0,B|120:56|68:64|68:64,1,90,8|0,1:0|0:0,0:0:0:0:
20,144,29999,1,0,1:0:0:0:
164,76,30174,5,0,0:0:0:0:
164,76,30348,1,8,1:0:0:0:
248,172,30522,2,0,L|232:264,1,90,0|0,0:0|1:0,0:0:0:0:
176,344,30871,1,0,0:0:0:0:
336,252,31046,2,0,B|380:240|436:248|436:248,1,90,8|0,1:0|0:0,0:0:0:0:
232,204,31395,6,0,B|168:240|92:220|92:220,1,135,0|0,1:0|0:0,0:0:0:0:
32,200,31743,2,0,L|16:104,1,90,8|0,1:0|0:0,0:0:0:0:
72,28,32092,1,0,1:0:0:0:
160,144,32267,1,0,0:0:0:0:
100,272,32441,1,8,1:0:0:0:
160,144,32615,2,0,B|204:128|260:136|260:136,1,90,0|0,0:0|1:0,0:0:0:0:
328,196,32964,1,0,0:0:0:0:
160,144,33139,6,0,L|176:252,1,90,8|0,1:0|0:0,0:0:0:0:
264,336,33488,1,0,1:0:0:0:
264,336,33575,1,0,0:0:0:0:
328,196,33749,1,0,0:0:0:0:
328,196,33836,1,8,1:0:0:0:
264,336,34011,1,0,0:0:0:0:
172,240,34185,6,0,B|128:224|80:228|80:228,1,90,0|0,1:0|0:0,0:0:0:0:
328,196,34534,2,0,B|372:180|420:184|420:184,2,90,8|0|0,1:0|0:0|1:0,0:0:0:0:
172,240,35057,1,0,0:0:0:0:
96,176,35232,2,0,L|84:76,1,90,8|0,1:0|0:0,0:0:0:0:
248,36,35581,6,0,L|260:136,1,90,0|0,1:0|0:0,0:0:0:0:
228,220,35929,1,8,1:0:0:0:
136,256,36104,1,0,0:0:0:0:
44,216,36278,2,0,L|32:116,1,90,0|0,1:0|0:0,0:0:0:0:
76,36,36627,1,8,1:0:0:0:
192,152,36802,1,0,0:0:0:0:
240,64,36976,6,0,B|304:32|388:52|388:52,1,135,0|0,1:0|0:0,0:0:0:0:
440,76,37325,2,0,L|468:172,1,90,8|0,1:0|0:0,0:0:0:0:
408,244,37674,1,0,1:0:0:0:
320,288,37848,1,0,0:0:0:0:
224,260,38022,1,8,1:0:0:0:
362,300,38197,1,0,0:0:0:0:
451,188,38371,5,2,1:0:0:0:
200,180,38720,2,0,L|299:200,1,90,10|0,1:0|0:0,0:0:0:0:
304,188,38982,1,0,1:0:0:0:
320,180,39069,1,2,1:0:0:0:
248,64,39243,1,0,1:0:0:0:
104,140,39418,2,0,B|92:184|104:232|104:232,1,90,10|0,1:0|1:0,0:0:0:0:
164,308,39767,5,6,1:0:0:0:
164,308,40115,2,0,L|268:296,1,90,8|0,1:0|0:0,0:0:0:0:
392,256,40464,2,0,L|496:268,2,90,0|0|8,1:0|0:0|1:0,0:0:0:0:
272,176,40988,2,0,B|256:132|268:84|268:84,1,90,0|0,0:0|1:0,0:0:0:0:
448,188,41336,2,0,B|447:234|420:275|420:275,1,90,0|8,0:0|1:0,0:0:0:0:
352,344,41685,2,0,L|264:328,1,90,0|0,0:0|1:0,0:0:0:0:
108,204,42034,1,0,0:0:0:0:
24,300,42208,1,8,1:0:0:0:
108,204,42383,1,0,0:0:0:0:
168,336,42557,6,0,B|232:368|316:348|316:348,1,135,2|0,1:0|0:0,0:0:0:0:
360,308,42906,1,8,1:0:0:0:
360,308,43081,2,0,L|372:204,1,90,0|0,0:0|1:0,0:0:0:0:
308,140,43429,1,0,0:0:0:0:
360,308,43604,1,8,1:0:0:0:
360,308,43953,6,0,B|316:328|268:316|268:316,1,90,2|0,1:0|0:0,0:0:0:0:
192,260,44302,1,8,1:0:0:0:
192,260,44476,1,0,0:0:0:0:
328,136,44650,2,0,B|323:184|288:219|288:219,1,90,2|0,1:0|0:0,0:0:0:0:
192,260,44999,1,8,1:0:0:0:
192,260,45173,1,0,0:0:0:0:
156,72,45348,6,0,B|195:100|208:147|208:147,1,90,2|0,1:0|0:0,0:0:0:0:
192,260,45697,1,8,1:0:0:0:
192,260,45871,1,0,0:0:0:0:
268,324,46046,2,0,L|376:300,1,90,0|0,1:0|0:0,0:0:0:0:
495,239,46395,2,0,L|408:220,1,90,8|0,1:0|0:0,0:0:0:0:
396,228,46656,1,0,0:0:0:0:
384,236,46743,6,0,B|400:192|392:144|392:144,1,90,2|0,1:0|0:0,0:0:0:0:
196,228,47092,2,0,B|187:274|204:319|204:319,1,90,8|0,1:0|0:0,0:0:0:0:
324,356,47441,1,0,1:0:0:0:
408,220,47615,1,0,0:0:0:0:
296,336,47790,1,8,1:0:0:0:
204,140,47964,1,0,0:0:0:0:
204,140,48052,1,0,0:0:0:0:
204,140,48139,6,0,L|92:112,1,90,6|0,1:0|0:0,0:0:0:0:
56,40,48488,1,8,1:0:0:0:
368,240,48836,6,0,L|257:271,1,90,6|0,1:0|0:0,0:0:0:0:
189,228,49185,1,8,1:0:0:0:
116,44,49534,6,0,B|104:88|120:144|120:144,1,90,6|0,1:0|0:0,0:0:0:0:
72,268,49883,1,14,1:0:0:0:
256,252,50057,1,0,0:0:0:0:
232,244,50145,1,0,1:0:0:0:
208,236,50232,1,2,1:0:0:0:
144,128,50406,1,0,1:0:0:0:
112,324,50581,1,10,1:0:0:0:
60,208,50755,1,0,1:0:0:0:
228,328,50929,5,4,1:0:0:0:
228,328,51453,2,0,L|316:316,1,72,0|2,1:0|1:0,0:0:0:0:
472,208,51976,1,8,1:0:0:0:
364,228,52150,2,0,L|200:192,2,144,0|0|0,1:0|1:0|1:0,0:0:0:0:
364,228,53022,1,0,1:0:0:0:
460,140,53197,1,0,0:0:0:0:
480,132,53284,1,0,0:0:0:0:
500,124,53371,1,8,1:0:0:0:
336,76,53546,1,0,1:0:0:0:
316,68,53633,1,0,1:0:0:0:
296,60,53720,5,0,1:0:0:0:
296,60,54243,2,0,L|212:80,1,72,0|2,1:0|1:0,0:0:0:0:
156,268,54767,1,8,1:0:0:0:
256,256,54941,6,0,L|404:296,2,144,0|0|0,1:0|1:0|1:0,0:0:0:0:
256,256,55813,1,0,1:0:0:0:
148,304,55988,1,0,1:0:0:0:
196,152,56162,1,8,1:0:0:0:
216,144,56249,1,0,0:0:0:0:
236,136,56336,1,0,1:0:0:0:
256,128,56424,1,0,1:0:0:0:
276,120,56511,5,4,1:0:0:0:
276,120,57034,2,0,L|188:104,1,72,0|2,1:0|1:0,0:0:0:0:
312,276,57557,1,8,1:0:0:0:
408,308,57732,2,0,B|448:240|424:164|424:164,2,144,0|0|0,1:0|1:0|1:0,0:0:0:0:
408,308,58604,1,0,1:0:0:0:
328,224,58778,1,0,1:0:0:0:
232,288,58953,1,8,1:0:0:0:
160,196,59127,5,0,1:0:0:0:
160,196,59214,1,0,1:0:0:0:
160,196,59302,2,0,L|148:92,1,90,6|0,1:0|0:0,0:0:0:0:
344,60,59650,2,0,L|332:164,1,90,8|0,1:0|0:0,0:0:0:0:
116,248,59999,2,0,L|104:144,1,90,2|0,1:0|0:0,0:0:0:0:
388,112,60347,2,0,L|376:216,1,90,8|0,1:0|0:0,0:0:0:0:
68,300,60697,2,0,L|56:196,1,90,6|0,1:0|0:0,0:0:0:0:
436,164,61045,2,0,L|424:268,1,90,8|0,1:0|0:0,0:0:0:0:
376,340,61395,5,2,1:0:0:0:
376,340,61569,1,2,0:0:0:0:
296,284,61743,2,0,B|252:268|200:272|200:272,1,90,8|0,1:0|0:0,0:0:0:0:
120,320,62092,5,6,1:0:0:0:
128,328,62441,1,8,1:0:0:0:
128,328,62615,1,0,0:0:0:0:
48,252,62790,2,0,L|64:156,2,90,4|0|8,1:0|0:0|1:0,0:0:0:0:
48,252,63313,1,0,0:0:0:0:
151,347,63488,5,0,1:0:0:0:
269,273,63662,1,0,1:0:0:0:
247,137,63836,1,12,1:0:0:0:
105,119,64011,1,0,1:0:0:0:
48,252,64185,1,0,1:0:0:0:
64,248,64272,1,0,1:0:0:0:
80,244,64360,1,2,1:0:0:0:
96,240,64447,1,0,1:0:0:0:
112,236,64534,1,12,1:0:0:0:
128,232,64621,1,0,1:0:0:0:
144,228,64708,1,2,1:0:0:0:
160,224,64796,1,0,1:0:0:0:
176,220,64883,2,0,L|184:191,4,22.5
176,219,65755,6,0,L|161:280,2,45,0|0|4,1:0|1:0|1:0,0:0:0:0:
184,193,66017,1,0,0:0:0:0:
192,167,66104,1,0,0:0:0:0:
200,141,66191,1,0,0:0:0:0:
208,115,66278,6,0,B|252:96|300:104|300:104,1,90,4|0,1:0|0:0,0:0:0:0:
488,192,66627,2,0,B|440:194|397:170|397:170,1,90,8|0,1:0|0:0,0:0:0:0:
336,96,66976,2,0,B|369:158|339:234|339:234,1,135,0|0,1:0|0:0,0:0:0:0:
288,276,67325,2,0,L|192:260,1,90,8|0,1:0|0:0,0:0:0:0:
124,328,67674,1,0,1:0:0:0:
288,276,67848,1,0,0:0:0:0:
224,168,68022,6,0,L|212:72,2,90,8|0|0,1:0|0:0|1:0,0:0:0:0:
124,284,68546,1,0,0:0:0:0:
308,216,68720,1,8,1:0:0:0:
332,224,68807,1,0,0:0:0:0:
356,232,68895,1,0,0:0:0:0:
210,312,69069,6,0,L|122:284|122:284,1,90,0|0,1:0|0:0,0:0:0:0:
48,220,69418,2,0,L|136:248|136:248,1,90,8|0,1:0|0:0,0:0:0:0:
232,228,69767,1,0,1:0:0:0:
160,104,69941,1,0,0:0:0:0:
48,220,70115,1,8,1:0:0:0:
180,76,70290,5,0,0:0:0:0:
180,76,70377,1,0,0:0:0:0:
180,76,70464,2,0,B|196:120|184:176|184:176,1,90,0|2,1:0|0:0,0:0:0:0:
132,248,70813,1,8,1:0:0:0:
248,336,70988,1,2,0:0:0:0:
132,248,71162,2,0,L|32:268,1,90,0|2,1:0|0:0,0:0:0:0:
108,124,71511,2,0,L|8:144,1,90,14|0,1:0|0:0,0:0:0:0:
240,192,71860,6,0,B|260:233|247:285|247:285,1,90,4|0,1:0|0:0,0:0:0:0:
312,356,72208,2,0,B|283:290|311:219|311:219,1,135,8|0,1:0|0:0,0:0:0:0:
354,165,72557,1,0,1:0:0:0:
410,278,72732,1,0,0:0:0:0:
312,356,72906,1,8,1:0:0:0:
204,292,73081,5,0,0:0:0:0:
204,292,73168,1,0,0:0:0:0:
204,292,73255,2,0,L|100:276,1,90,0|0,1:0|0:0,0:0:0:0:
354,165,73604,2,0,L|458:149,1,90,8|2,1:0|0:0,0:0:0:0:
256,220,73953,1,0,1:0:0:0:
188,116,74127,1,2,0:0:0:0:
163,107,74214,1,0,0:0:0:0:
139,100,74302,1,10,1:0:0:0:
256,220,74476,1,2,0:0:0:0:
40,180,74650,6,0,B|16:248|50:321|50:321,1,135,0|0,1:0|0:0,0:0:0:0:
104,356,74999,2,0,L|200:344,1,90,8|0,1:0|0:0,0:0:0:0:
40,180,75348,1,0,1:0:0:0:
194,345,75522,1,0,0:0:0:0:
412,288,75697,1,8,1:0:0:0:
252,160,75871,6,0,L|228:248,2,90,0|6|0,0:0|1:0|1:0,0:0:0:0:
204,44,76395,2,0,B|164:24|108:28|108:28,1,90,10|0,1:0|1:0,0:0:0:0:
40,180,76743,1,6,1:0:0:0:
56,176,76831,1,0,1:0:0:0:
72,172,76918,1,0,1:0:0:0:
88,168,77005,1,0,1:0:0:0:
104,164,77092,1,14,1:0:0:0:
288,292,77267,1,0,1:0:0:0:
272,284,77354,1,0,1:0:0:0:
256,276,77441,6,0,B|244:232|260:176|260:176,1,90,0|0,1:0|0:0,0:0:0:0:
116,72,77790,2,0,B|132:116|120:176|120:176,1,90,8|0,1:0|0:0,0:0:0:0:
104,284,78139,2,0,L|4:304,2,90,0|0|8,1:0|0:0|1:0,0:0:0:0:
220,172,78662,1,0,0:0:0:0:
392,224,78836,6,0,B|408:268|396:324|396:324,1,90,0|0,1:0|0:0,0:0:0:0:
276,348,79185,2,0,B|216:312|136:324|136:324,1,135,8|0,1:0|0:0,0:0:0:0:
80,356,79534,1,0,1:0:0:0:
24,204,79708,1,2,0:0:0:0:
180,292,79883,1,10,1:0:0:0:
48,344,80057,1,2,0:0:0:0:
136,184,80232,6,0,L|236:164,1,90,0|0,1:0|0:0,0:0:0:0:
160,316,80581,2,0,L|260:296,1,90,8|0,1:0|0:0,0:0:0:0:
352,348,80929,1,0,1:0:0:0:
416,220,81104,1,0,0:0:0:0:
492,340,81278,1,8,1:0:0:0:
284,284,81453,5,0,0:0:0:0:
284,284,81540,1,0,0:0:0:0:
284,284,81627,2,0,B|268:240|272:192|272:192,1,90,0|2,1:0|0:0,0:0:0:0:
340,124,81976,1,8,1:0:0:0:
284,284,82150,1,2,0:0:0:0:
144,172,82325,2,0,L|48:152,1,90,0|2,1:0|0:0,0:0:0:0:
368,116,82674,2,0,L|464:96,1,90,10|0,1:0|0:0,0:0:0:0:
284,284,83022,6,0,B|240:304|188:292|188:292,1,90,4|0,1:0|0:0,0:0:0:0:
120,192,83371,2,0,B|76:172|24:184|24:184,1,90,8|0,1:0|0:0,0:0:0:0:
68,276,83720,2,0,L|42:362,2,90,0|0|8,1:0|0:0|1:0,0:0:0:0:
108,100,84243,5,0,0:0:0:0:
108,100,84331,1,0,0:0:0:0:
108,100,84418,2,0,B|152:84|204:96|204:96,1,90,0|0,1:0|0:0,0:0:0:0:
392,236,84767,2,0,B|324:260|256:224|256:224,1,135,8|0,1:0|0:0,0:0:0:0:
232,160,85115,1,0,1:0:0:0:
392,236,85290,1,2,0:0:0:0:
196,256,85464,1,10,1:0:0:0:
384,212,85639,1,2,0:0:0:0:
244,348,85813,6,0,L|232:256,1,90,6|0,1:0|1:0,0:0:0:0:
435,214,86162,2,0,L|424:304,1,90,8|0,1:0|1:0,0:0:0:0:
328,152,86511,2,0,L|316:100,1,45,0|0,1:0|1:0,0:0:0:0:
228,100,86686,2,0,L|218:56,1,45,0|0,1:0|1:0,0:0:0:0:
136,124,86860,2,0,L|126:80,1,45,8|0,1:0|1:0,0:0:0:0:
68,212,87035,2,0,L|58:168,1,45,0|0,1:0|1:0,0:0:0:0:
49,133,87209,5,4,1:0:0:0:
39,98,87557,1,2,1:0:0:0:
31,62,87906,1,6,1:0:0:0:
