osu file format v12

[General]
AudioFilename: Fantastic future.mp3
AudioLeadIn: 2000
PreviewTime: 66108
Countdown: 0
SampleSet: Soft
StackLeniency: 0.3
Mode: 0
LetterboxInBreaks: 0

[Editor]
DistanceSpacing: 1.1
BeatDivisor: 2
GridSize: 4

[Metadata]
Title:Fantastic future (TV Size)
TitleUnicode:Fantastic future (TV Size)
Artist:Tamura Yukari
ArtistUnicode:田村ゆかり
Creator:Ryafuka
Version:Hard
Source:Hentai Ouji to Warawanai Neko
Tags:opening
BeatmapID:242372
BeatmapSetID:88743

[Difficulty]
HPDrainRate:6
CircleSize:4
OverallDifficulty:6
ApproachRate:7
SliderMultiplier:1.6
SliderTickRate:1

[Events]
//Background and Video events
Video,0,"movie.avi"
0,0,"BG.jpg",0,0
//Break Periods
//Storyboard Layer 0 (Background)
//Storyboard Layer 1 (Fail)
//Storyboard Layer 2 (Pass)
//Storyboard Layer 3 (Foreground)
//Storyboard Sound Samples
//Background Colour Transformations
3,100,163,162,255

[TimingPoints]
-698,348.837209302326,4,2,1,55,1,0
261,-125,4,2,1,65,0,0
522,-125,4,2,1,55,0,0
6278,-100,4,2,1,60,0,0
11860,-100,4,2,1,65,0,0
12993,-100,4,2,1,55,0,0
13168,-100,4,2,1,65,0,0
28691,-100,4,2,1,55,0,0
50929,-125,4,2,1,50,0,0
56511,-125,4,2,1,55,0,0
59302,-100,4,2,1,60,0,0
60610,-100,4,2,1,65,0,0
60784,-100,4,2,1,60,0,0
66278,-100,4,2,1,70,0,1
77354,-100,4,2,1,70,0,0
77441,-100,4,2,1,75,0,1
87906,-100,4,2,1,75,0,0

[Colours]
Combo1 : 170,255,255
Combo2 : 255,170,170
Combo3 : 170,255,170
Combo4 : 255,255,170

[HitObjects]
80,272,348,1,4,0:0:0:0:
80,272,697,6,0,B|132:316|204:300|204:300,1,128,0|0,1:0|0:0,0:0:0:0:
368,232,1395,2,0,L|436:252,2,64
288,276,1918,1,0,0:0:0:0:
288,276,2092,6,0,B|232:240|160:252|160:252,2,128,0|0|0,1:0|0:0|0:0,0:0:0:0:
368,232,2964,1,0,0:0:0:0:
316,156,3139,2,0,B|308:124|316:84|316:84,1,64
448,172,3488,6,0,B|472:236|448:300|448:300,1,128,0|0,1:0|0:0,0:0:0:0:
280,352,4185,2,0,L|200:336,2,64
368,332,4708,1,0,0:0:0:0:
368,332,4883,6,0,B|380:304|380:268|380:268,1,64,0|2,1:0|0:0,0:0:0:0:
280,280,5232,2,0,B|265:309|237:333|237:333,1,64,0|2,0:0|0:0,0:0:0:0:
196,200,5581,2,0,B|226:196|257:178|257:178,1,64,0|2,1:0|0:0,0:0:0:0:
160,280,5929,2,0,B|161:280|125:280|97:268|97:268,1,64,2|2,0:0|0:0,0:0:0:0:
32,212,6278,6,0,L|20:124,1,80,4|0,1:0|0:0,0:0:0:0:
56,52,6627,1,0,1:0:0:0:
56,52,6976,2,0,B|128:100|216:68|216:68,1,160,0|0,1:0|1:0,0:0:0:0:
288,28,7499,1,0,0:0:0:0:
368,68,7674,6,0,B|380:108|372:160|372:160,1,80,4|0,1:0|0:0,0:0:0:0:
304,280,8022,2,0,B|292:240|300:188|300:188,1,80,0|2,1:0|0:0,0:0:0:0:
460,160,8371,2,0,B|472:200|464:252|464:252,1,80,0|2,1:0|0:0,0:0:0:0:
432,320,8720,1,2,1:0:0:0:
352,352,8895,1,2,0:0:0:0:
268,320,9069,6,0,L|256:228,1,80,6|0,1:0|1:0,0:0:0:0:
188,96,9418,2,0,L|198:175,1,80,0|2,1:0|1:0,0:0:0:0:
136,236,9767,2,0,L|120:280,3,40,4|0|0|0,1:0|1:0|1:0|1:0,0:0:0:0:
176,324,10115,2,0,L|188:396,3,40,0|0|0|0,1:0|1:0|1:0|1:0,0:0:0:0:
196,136,11336,2,0,L|187:96,2,40,0|0|4,1:0|1:0|1:2,0:0:0:0:
156,256,11860,6,0,B|228:300|316:280|316:280,1,160,4|8,1:0|1:0,0:0:0:0:
416,140,12557,2,0,L|432:44,2,80,0|0|8,1:0|0:0|1:0,0:0:0:0:
352,204,13081,1,4,0:0:0:0:
280,156,13255,6,0,B|244:136|192:140|192:140,1,80,0|0,1:0|0:0,0:0:0:0:
56,180,13604,2,0,B|92:200|144:196|144:196,1,80,8|0,1:0|0:0,0:0:0:0:
203,139,13953,2,0,B|280:104|376:140|376:140,1,160,0|8,1:0|1:0,0:0:0:0:
468,272,14650,6,0,L|480:360,2,80,0|0|8,1:0|0:0|1:0,0:0:0:0:
412,204,15174,1,0,0:0:0:0:
412,204,15348,2,0,B|372:188|324:192|324:192,2,80,0|0|8,1:0|0:0|1:0,0:0:0:0:
476,140,15871,1,0,0:0:0:0:
424,68,16046,6,0,B|384:52|336:56|336:56,1,80,0|2,1:0|0:0,0:0:0:0:
264,92,16395,1,8,1:0:0:0:
248,180,16569,1,2,0:0:0:0:
272,264,16743,2,0,B|348:308|432:276|432:276,1,160,0|10,1:0|1:0,0:0:0:0:
220,192,17441,6,0,B|184:212|132:204|132:204,1,80,4|0,1:0|0:0,0:0:0:0:
200,320,17790,2,0,B|158:319|117:286|117:286,1,80,8|0,1:0|0:0,0:0:0:0:
40,272,18139,2,0,B|8:192|36:112|36:112,1,160,0|8,1:0|1:0,0:0:0:0:
168,60,18662,5,0,0:0:0:0:
168,60,18836,2,0,B|180:100|164:164|164:164,1,80,0|0,1:0|0:0,0:0:0:0:
200,224,19185,2,0,B|188:264|204:328|204:328,2,80,8|2|0,1:0|0:0|1:0,0:0:0:0:
256,156,19708,1,2,0:0:0:0:
344,144,19883,1,10,1:0:0:0:
428,172,20057,1,2,0:0:0:0:
488,236,20232,6,0,L|476:332,1,80,6|0,1:0|1:0,0:0:0:0:
396,180,20581,2,0,L|384:276,1,80,8|0,1:0|1:0,0:0:0:0:
334,330,20929,2,0,L|286:314,3,40,0|0|0|0,1:0|1:0|1:0|1:0,0:0:0:0:
224,308,21278,2,0,L|204:248,3,40,8|0|0|0,1:0|1:0|1:0|1:0,0:0:0:0:
196,228,21627,5,4,1:0:0:0:
120,184,21976,1,2,1:0:0:0:
196,140,22325,1,6,1:0:0:0:
196,140,22674,2,0,L|204:96,3,40,0|0|0|0,1:0|1:0|1:0|1:0,0:0:0:0:
228,64,23022,6,0,B|300:108|388:84|388:84,2,160,4|8|0,1:0|1:0|1:0,0:0:0:0:
148,24,23895,1,0,0:0:0:0:
76,76,24069,2,0,L|88:180,1,80,8|0,1:0|0:0,0:0:0:0:
160,288,24418,2,0,L|150:208,1,80,0|0,1:0|0:0,0:0:0:0:
32,124,24767,2,0,L|44:228,1,80,8|0,1:0|0:0,0:0:0:0:
216,324,25115,2,0,L|206:244,1,80,0|0,1:0|0:0,0:0:0:0:
240,164,25464,1,8,1:0:0:0:
240,164,25813,6,0,B|316:204|400:180|400:180,2,160,4|8|4,1:0|1:0|1:0,0:0:0:0:
108,48,26860,1,8,1:0:0:0:
40,208,27208,2,0,L|128:196,1,80,4|0,1:0|1:0,0:0:0:0:
52,304,27557,2,0,L|140:292,1,80,12|0,1:0|1:0,0:0:0:0:
216,320,27906,2,0,L|200:368,4,40,4|0|0|0|4,1:0|1:0|1:0|1:0|1:0,0:0:0:0:
276,256,28429,1,0,1:0:0:0:
288,252,28517,1,0,1:0:0:0:
300,248,28604,5,4,1:0:0:0:
448,156,28953,2,0,L|456:72,2,80,8|0|0,1:0|0:0|1:0,0:0:0:0:
388,220,29476,1,0,0:0:0:0:
336,148,29650,2,0,B|296:132|252:136|252:136,2,80,8|0|0,1:0|0:0|1:0,0:0:0:0:
388,220,30174,6,0,B|428:236|472:232|472:232,1,80,0|8,0:0|1:0,0:0:0:0:
336,292,30522,2,0,B|296:308|240:296|240:296,1,80,0|0,0:0|1:0,0:0:0:0:
168,312,30871,2,0,L|140:216,1,80,0|8,0:0|1:0,0:0:0:0:
88,168,31220,1,0,0:0:0:0:
88,168,31395,6,0,B|160:216|252:184|252:184,1,160,0|8,1:0|1:0,0:0:0:0:
316,236,31918,1,0,0:0:0:0:
388,184,32092,2,0,L|404:84,2,80,0|0|8,1:0|0:0|1:0,0:0:0:0:
316,236,32615,1,0,0:0:0:0:
336,320,32790,6,0,L|432:348,1,80,0|0,1:0|0:0,0:0:0:0:
360,224,33139,2,0,L|440:248,1,80,8|0,1:0|0:0,0:0:0:0:
376,132,33488,2,0,L|416:144,2,40,0|0|0,1:0|1:0|1:0,0:0:0:0:
304,80,33836,2,0,B|264:96|216:84|216:84,1,80,8|0,1:0|0:0,0:0:0:0:
160,28,34185,6,0,B|204:100|172:200|172:200,1,160,0|8,1:0|1:0,0:0:0:0:
112,244,34708,1,0,0:0:0:0:
148,324,34883,2,0,L|236:340,2,80,0|0|8,1:0|0:0|1:0,0:0:0:0:
68,284,35406,2,0,B|56:244|64:196|64:196,1,80,0|0,0:0|1:0,0:0:0:0:
144,96,35755,6,0,B|156:136|148:184|148:184,1,80,0|8,0:0|1:0,0:0:0:0:
236,296,36104,2,0,B|224:256|232:208|232:208,1,80,0|0,0:0|1:0,0:0:0:0:
260,132,36453,1,0,0:0:0:0:
260,132,36627,1,8,1:0:0:0:
340,96,36802,1,0,0:0:0:0:
340,96,36976,6,0,B|416:140|504:108|504:108,1,160,0|8,1:0|1:0,0:0:0:0:
495,110,37499,1,0,0:0:0:0:
428,168,37674,2,0,B|420:208|428:256|428:256,1,80,0|0,1:0|0:0,0:0:0:0:
340,352,38022,2,0,B|348:312|340:264|340:264,1,80,8|0,1:0|0:0,0:0:0:0:
308,192,38371,5,2,1:0:0:0:
196,56,38720,1,10,1:0:0:0:
132,116,38895,2,0,L|84:108,2,40,0|0|2,0:0|1:0|1:0,0:0:0:0:
208,160,39243,1,0,1:0:0:0:
164,236,39418,2,0,B|124:252|68:244|68:244,1,80,10|0,1:0|1:0,0:0:0:0:
24,180,39767,5,6,1:0:0:0:
148,52,40115,1,8,1:0:0:0:
208,116,40290,1,0,0:0:0:0:
208,116,40464,2,0,B|220:156|208:212|208:212,2,80,0|0|8,1:0|0:0|1:0,0:0:0:0:
260,44,40988,6,0,B|300:32|340:40|340:40,1,80,0|0,0:0|1:0,0:0:0:0:
472,112,41336,2,0,B|432:124|392:116|392:116,1,80,0|8,0:0|1:0,0:0:0:0:
256,192,41685,2,0,B|296:184|344:192|344:192,1,80,0|0,0:0|1:0,0:0:0:0:
384,280,42034,2,0,B|392:320|384:368|384:368,2,80,0|8|0,0:0|1:0|0:0,0:0:0:0:
312,232,42557,6,0,B|236:272|152:236|152:236,1,160,2|8,1:0|1:0,0:0:0:0:
88,180,43081,1,0,0:0:0:0:
140,108,43255,2,0,B|148:68|140:16|140:16,1,80,0|0,1:0|0:0,0:0:0:0:
208,168,43604,2,0,B|216:208|208:260|208:260,1,80,8|0,1:0|0:0,0:0:0:0:
264,316,43953,6,0,B|344:288|440:320|440:320,2,160,2|8|2,1:0|1:0|1:0,0:0:0:0:
188,356,44825,1,0,0:0:0:0:
104,336,44999,2,0,L|84:248,1,80,8|0,1:0|0:0,0:0:0:0:
108,172,45348,5,2,1:0:0:0:
108,172,45697,2,0,B|148:156|200:160|200:160,1,80,8|0,1:0|0:0,0:0:0:0:
368,224,46046,2,0,B|324:225|277:203|277:203,1,80,0|0,1:0|0:0,0:0:0:0:
264,124,46395,1,8,1:0:0:0:
108,172,46569,1,0,0:0:0:0:
194,190,46743,6,0,B|234:266|194:354|194:354,1,160,2|8,1:0|1:0,0:0:0:0:
197,345,47267,1,0,0:0:0:0:
266,291,47441,2,0,B|306:279|350:291|350:291,1,80,0|0,1:0|0:0,0:0:0:0:
432,272,47790,2,0,B|456:240|456:180|456:180,1,80,8|0,1:0|0:0,0:0:0:0:
416,116,48139,6,0,B|344:164|260:132|260:132,1,160,6|8,1:0|1:0,0:0:0:0:
176,288,48836,2,0,B|248:240|332:272|332:272,1,160,6|8,1:0|1:0,0:0:0:0:
400,328,49360,1,0,0:0:0:0:
488,316,49534,6,0,B|504:276|500:232|500:232,1,80,6|0,1:0|0:0,0:0:0:0:
452,164,49883,1,14,1:0:0:0:
368,188,50057,2,0,L|360:232,2,40,0|0|2,0:0|1:0|1:0,0:0:0:0:
344,104,50406,1,0,1:0:0:0:
268,60,50581,1,10,1:0:0:0:
180,56,50755,1,0,1:0:0:0:
112,116,50929,5,4,1:0:0:0:
112,116,51453,2,0,L|104:200,1,64,0|2,1:0|1:0,0:0:0:0:
176,344,51976,1,8,1:0:0:0:
240,280,52150,2,0,B|304:256|380:280|380:280,2,128,0|0|0,1:0|1:0|1:0,0:0:0:0:
176,344,53022,1,0,1:0:0:0:
64,204,53371,1,8,1:0:0:0:
108,128,53546,1,0,1:0:0:0:
116,116,53633,1,0,1:0:0:0:
124,104,53720,5,0,1:0:0:0:
124,104,54243,2,0,L|200:92,1,64,0|2,1:0|1:0,0:0:0:0:
360,144,54767,1,8,1:0:0:0:
300,212,54941,2,0,B|272:272|300:352|300:352,2,128,0|0|0,1:0|1:0|1:0,0:0:0:0:
360,144,55813,2,0,L|444:128,2,64,0|0|8,1:0|1:0|1:0,0:0:0:0:
272,128,56336,1,0,1:0:0:0:
260,120,56424,1,0,1:0:0:0:
248,112,56511,5,4,1:0:0:0:
248,112,57034,2,0,L|168:128,1,64,0|2,1:0|1:0,0:0:0:0:
108,288,57557,1,8,1:0:0:0:
192,256,57732,2,0,L|336:284,2,128,0|0|0,1:0|1:0|1:0,0:0:0:0:
108,288,58604,1,0,1:0:0:0:
64,208,58778,1,0,1:0:0:0:
72,120,58953,1,8,1:0:0:0:
132,52,59127,5,0,1:0:0:0:
132,52,59214,1,0,1:0:0:0:
132,52,59302,2,0,L|224:40,1,80,6|0,1:0|0:0,0:0:0:0:
144,136,59650,2,0,L|236:124,1,80,8|0,1:0|0:0,0:0:0:0:
372,192,59999,2,0,L|292:181,1,80,2|0,1:0|0:0,0:0:0:0:
359,275,60347,2,0,L|280:265,1,80,8|0,1:0|0:0,0:0:0:0:
196,240,60697,6,0,B|120:280|36:256|36:256,2,160,6|8|2,1:0|1:0|1:0,0:0:0:0:
280,264,61569,1,2,0:0:0:0:
280,264,61743,2,0,L|268:172,1,80,10|2,1:0|0:0,0:0:0:0:
220,112,62092,6,0,B|296:156|380:128|380:128,1,160,6|8,1:0|1:0,0:0:0:0:
436,64,62615,1,0,0:0:0:0:
436,64,62789,2,0,L|424:156,1,80,4|0,1:0|0:0,0:0:0:0:
352,192,63139,2,0,B|344:232|356:280|356:280,1,80,8|0,1:0|0:0,0:0:0:0:
412,336,63488,5,2,1:0:0:0:
412,336,63662,1,0,1:0:0:0:
296,360,63836,1,12,1:0:0:0:
296,360,64011,1,0,1:0:0:0:
252,248,64185,6,0,L|204:232,3,40,0|0|0|0,1:0|1:0|1:0|1:0,0:0:0:0:
160,284,64534,2,0,L|112:268,3,40,12|0|0|0,1:0|1:0|1:0|1:0,0:0:0:0:
140,120,65755,2,0,L|92:104,2,40,0|0|4,1:0|1:0|1:2,0:0:0:0:
264,64,66278,6,0,B|304:136|280:224|280:224,1,160,4|8,1:0|1:0,0:0:0:0:
228,292,66802,1,0,0:0:0:0:
228,292,66976,2,0,L|144:308,1,80,0|0,1:0|0:0,0:0:0:0:
72,264,67325,1,8,1:0:0:0:
60,176,67499,1,0,0:0:0:0:
120,112,67674,6,0,L|204:96,1,80,0|0,1:0|0:0,0:0:0:0:
272,240,68022,2,0,L|188:256,1,80,8|0,1:0|0:0,0:0:0:0:
148,80,68371,2,0,L|306:49,1,160,0|8,1:0|1:0,0:0:0:0:
305,49,69069,6,0,B|316:88|308:140|308:140,1,80,0|0,1:0|0:0,0:0:0:0:
380,268,69418,2,0,B|369:229|377:177|377:177,1,80,8|0,1:0|0:0,0:0:0:0:
448,136,69767,1,0,1:0:0:0:
460,224,69941,1,0,0:0:0:0:
310,129,70115,2,0,B|272:116|220:120|220:120,1,80,8|0,1:0|0:0,0:0:0:0:
176,188,70464,6,0,B|138:201|86:197|86:197,1,80,0|2,1:0|0:0,0:0:0:0:
32,136,70813,2,0,L|48:220,1,80,8|2,1:0|0:0,0:0:0:0:
116,80,71162,2,0,L|132:164,1,80,0|2,1:0|0:0,0:0:0:0:
200,24,71511,2,0,L|216:108,1,80,8|2,1:0|0:0,0:0:0:0:
276,168,71860,6,0,B|352:212|440:180|440:180,1,160,4|8,1:0|1:0,0:0:0:0:
431,182,72383,1,0,0:0:0:0:
352,220,72557,2,0,B|344:260|356:312|356:312,1,80,0|0,1:0|0:0,0:0:0:0:
276,168,72906,2,0,B|284:128|272:76|272:76,1,80,8|0,1:0|0:0,0:0:0:0:
344,36,73255,6,0,B|380:56|424:56|424:56,1,80,0|0,1:0|0:0,0:0:0:0:
275,88,73604,2,0,B|196:60|116:76|116:76,1,160,8|0,1:0|1:0,0:0:0:0:
40,32,74127,1,2,0:0:0:0:
80,108,74302,2,0,B|92:148|84:192|84:192,1,80,10|2,1:0|0:0,0:0:0:0:
20,268,74650,6,0,L|36:356,1,80,0|0,1:0|0:0,0:0:0:0:
128,304,74999,2,0,L|143:226,1,80,8|0,1:0|0:0,0:0:0:0:
196,360,75348,2,0,L|292:344,2,80,0|0|8,1:0|0:0|1:0,0:0:0:0:
128,304,75871,1,0,0:0:0:0:
168,224,76046,6,0,B|172:184|156:136|156:136,1,80,6|2,1:0|1:0,0:0:0:0:
240,108,76395,2,0,B|276:128|294:177|294:177,1,80,10|2,1:0|1:0,0:0:0:0:
344,240,76743,2,6,L|336:284,4,40,6|0|0|0|10,1:0|1:0|1:0|1:0|1:0,0:0:0:0:
400,172,77267,1,0,1:0:0:0:
416,164,77354,1,0,1:0:0:0:
432,156,77441,6,0,B|480:228|456:316|456:316,1,160,4|8,1:0|1:0,0:0:0:0:
380,352,77964,1,0,0:0:0:0:
380,352,78139,2,0,L|296:340,1,80,0|0,1:0|0:0,0:0:0:0:
392,264,78488,2,0,L|308:252,1,80,8|0,1:0|0:0,0:0:0:0:
236,208,78836,6,0,B|196:224|144:212|144:212,1,80,0|0,1:0|0:0,0:0:0:0:
92,152,79185,2,0,B|140:220|120:312|120:312,1,160,8|0,1:0|1:0,0:0:0:0:
121,305,79708,1,0,0:0:0:0:
176,236,79883,2,0,B|216:224|260:236|260:236,1,80,8|0,1:0|0:0,0:0:0:0:
308,304,80232,6,0,B|348:316|392:304|392:304,1,80,0|0,1:0|0:0,0:0:0:0:
452,244,80581,1,8,1:0:0:0:
452,244,80755,1,0,0:0:0:0:
420,160,80929,2,0,L|432:72,2,80,0|0|8,1:0|0:0|1:0,0:0:0:0:
420,160,81453,1,0,0:0:0:0:
352,216,81627,6,0,B|312:228|268:220|268:220,2,80,0|2|8,1:0|0:0|1:0,0:0:0:0:
424,120,82150,1,2,0:0:0:0:
484,224,82325,2,0,B|496:264|488:308|488:308,2,80,0|2|10,1:0|0:0|1:0,0:0:0:0:
424,120,82848,1,2,0:0:0:0:
352,216,83022,6,0,B|276:256|188:220|188:220,1,160,6|8,1:0|1:0,0:0:0:0:
136,156,83546,1,0,0:0:0:0:
136,156,83720,2,0,L|152:260,1,80,0|0,1:0|0:0,0:0:0:0:
68,272,84069,2,0,L|80:351,1,80,8|0,1:0|0:0,0:0:0:0:
176,196,84418,6,0,B|212:184|272:188|272:188,1,80,0|0,1:0|0:0,0:0:0:0:
304,116,84767,2,0,B|288:80|292:24|292:24,1,80,8|2,1:0|0:0,0:0:0:0:
392,156,85115,2,0,L|378:234,1,80,0|2,1:0|0:0,0:0:0:0:
313,354,85464,2,0,L|300:276,1,80,10|2,1:0|0:0,0:0:0:0:
260,200,85813,5,6,1:0:0:0:
184,156,85988,1,0,1:0:0:0:
96,160,86162,1,8,1:0:0:0:
28,216,86336,1,0,1:0:0:0:
60,300,86511,2,0,L|100:292,3,40,0|0|0|0,1:0|1:0|1:0|1:0,0:0:0:0:
156,336,86860,2,0,L|196:328,3,40,8|0|0|0,1:0|1:0|1:0|1:0,0:0:0:0:
238,319,87208,5,4,1:0:0:0:
320,352,87557,1,2,1:0:0:0:
308,264,87906,1,6,1:0:0:0:
