osu file format v12

[General]
AudioFilename: Fantastic future.mp3
AudioLeadIn: 2000
PreviewTime: 66108
Countdown: 0
SampleSet: Normal
StackLeniency: 0.3
Mode: 0
LetterboxInBreaks: 0

[Editor]
DistanceSpacing: 1
BeatDivisor: 2
GridSize: 4

[Metadata]
Title:Fantastic future (TV Size)
TitleUnicode:Fantastic future (TV Size)
Artist:Tamura Yukari
ArtistUnicode:田村ゆかり
Creator:Ryafuka
Version:Easy
Source:Hentai Ouji to Warawanai Neko
Tags:opening
BeatmapID:242371
BeatmapSetID:88743

[Difficulty]
HPDrainRate:2
CircleSize:3
OverallDifficulty:2
ApproachRate:3
SliderMultiplier:0.8
SliderTickRate:1

[Events]
//Background and Video events
Video,0,"movie.avi"
0,0,"BG.jpg",0,0
//Break Periods
//Storyboard Layer 0 (Background)
//Storyboard Layer 1 (Fail)
//Storyboard Layer 2 (Pass)
//Storyboard Layer 3 (Foreground)
//Storyboard Sound Samples
//Background Colour Transformations
3,100,163,162,255

[TimingPoints]
-698,348.837209302326,4,2,1,55,1,0
6278,-100,4,1,1,60,0,0
9069,-100,4,2,1,20,0,0
10464,-100,4,2,1,5,0,0
11860,-100,4,1,1,65,0,0
28691,-100,4,1,1,55,0,0
50929,-100,4,1,1,50,0,0
56511,-100,4,1,1,55,0,0
59302,-100,4,1,1,60,0,0
60610,-100,4,1,1,65,0,0
60784,-100,4,1,1,60,0,0
63488,-100,4,2,1,20,0,0
64883,-100,4,2,1,5,0,0
66278,-100,4,1,1,70,0,1
77354,-100,4,1,1,70,0,0
77441,-100,4,1,1,75,0,1
87906,-100,4,1,1,75,0,0

[Colours]
Combo1 : 170,255,255
Combo2 : 255,170,170
Combo3 : 170,255,170
Combo4 : 255,255,170

[HitObjects]
112,172,697,6,0,L|124:268,2,80,4|0|0,1:0|0:0|0:0,0:0:0:0:
256,240,2092,2,0,L|268:336,2,80,0|0|0,1:0|0:0|0:0,0:0:0:0:
308,86,3488,6,0,B|236:130|144:102|144:102,2,160,0|0|0,1:0|0:0|1:0,0:0:0:0:
468,92,5581,1,0,1:0:0:0:
468,172,5929,1,0,0:0:0:0:
440,248,6278,6,0,L|344:232,1,80,4|0,0:0|0:0,0:0:0:0:
281,219,6976,1,0,0:0:0:0:
224,68,7674,2,0,L|128:84,1,80,4|0,0:0|0:0,0:0:0:0:
67,98,8372,1,0,0:0:0:0:
256,192,9069,12,0,10464,0:0:0:0:
208,316,11860,5,4,0:0:0:0:
344,232,12557,1,8,0:0:0:0:
240,108,13255,2,0,L|224:12,2,80,0|0|8,0:0|0:0|0:0,0:0:0:0:
244,268,14650,6,0,B|168:308|84:280|84:280,2,160,0|8|0,0:0|0:0|0:0,0:0:0:0:
308,124,16743,1,8,0:0:0:0:
328,200,17092,1,0,0:0:0:0:
352,276,17441,5,4,0:0:0:0:
196,236,18139,1,8,0:0:0:0:
308,124,18836,2,0,L|420:104,2,80,0|0|8,0:0|0:0|0:0,0:0:0:0:
152,84,20232,2,0,B|200:152|180:252|180:252,1,160,4|8,0:0|0:0,0:0:0:0:
304,344,21627,5,4,0:0:0:0:
248,284,21976,1,6,0:0:0:0:
224,360,22325,1,2,0:0:0:0:
88,276,23022,5,4,0:0:0:0:
32,124,23720,1,8,0:0:0:0:
160,32,24418,2,0,L|260:32,1,80
240,112,25115,2,0,L|160:112,1,80,8|0,0:0|0:0,0:0:0:0:
104,168,25813,5,4,0:0:0:0:
204,296,26511,1,12,0:0:0:0:
364,284,27208,2,0,L|376:184,1,80,4|4,0:0|0:0,0:0:0:0:
292,196,27906,2,0,L|280:296,1,80,12|4,0:0|0:0,0:0:0:0:
204,296,28604,5,4,0:0:0:0:
49,255,29302,2,0,B|9:183|29:87|29:87,2,160,8|0|8,0:0|0:0|0:0,0:0:0:0:
176,352,31395,6,0,L|268:344,1,80
336,356,32092,2,0,B|404:300|404:204|404:204,1,160,8|0,0:0|0:0,0:0:0:0:
376,56,33488,1,8,0:0:0:0:
300,76,33836,1,0,0:0:0:0:
224,96,34185,6,0,L|60:68,2,160,0|8|0,0:0|0:0|0:0,0:0:0:0:
304,236,36278,1,8,0:0:0:0:
180,336,36976,2,0,L|16:308,1,160,0|8,0:0|0:0,0:0:0:0:
68,156,38371,5,2,2:0:0:0:
139,119,38720,1,2,2:0:0:0:
196,175,39069,1,2,2:0:0:0:
159,247,39418,1,2,2:0:0:0:
81,234,39767,5,6,2:1:0:0:
196,348,40464,1,8,0:0:0:0:
336,272,41162,1,0,0:0:0:0:
312,112,41860,1,8,0:0:0:0:
152,92,42557,6,0,B|120:268,1,160,0|8,0:0|0:0,0:0:0:0:
280,208,43953,1,2,0:0:0:0:
308,52,44650,1,10,0:0:0:0:
440,144,45348,6,0,B|472:320,2,160,2|8|2,0:0|0:0|0:0,0:0:0:0:
308,52,47441,1,8,0:0:0:0:
296,132,47790,1,0,0:0:0:0:
284,212,48139,5,6,0:0:0:0:
184,336,48836,1,14,0:0:0:0:
44,260,49534,2,0,B|31:222|39:171|39:171,1,80,6|14,0:0|0:0,0:0:0:0:
96,124,50232,2,0,B|133:136|184:128|184:128,1,80,2|2,0:0|0:0,0:0:0:0:
232,72,50929,5,4,0:0:0:0:
330,198,51627,2,0,B|342:258|318:318|318:318,1,120,2|0,0:0|0:0,0:0:0:0:
240,332,52499,2,0,B|184:312|120:324|120:324,1,120
44,352,53371,1,8,0:0:0:0:
56,272,53720,5,0,0:0:0:0:
168,156,54418,2,0,L|192:291,1,120,2|0,0:0|0:0,0:0:0:0:
248,328,55290,2,0,B|304:360|368:348|368:348,1,120,0|0,0:0|0:0,0:0:0:0:
440,320,56162,1,8,0:0:0:0:
380,268,56511,5,4,0:0:0:0:
353,110,57208,2,0,B|297:130|229:114|229:114,1,120,2|0,0:0|0:0,0:0:0:0:
157,137,58081,2,0,L|141:257,1,120
76,304,58953,1,8,1:0:0:0:
149,335,59302,6,0,L|325:315,1,160,4|10,0:0|0:0,0:0:0:0:
416,200,60697,2,0,L|240:180,1,160,6|10,0:0|0:0,0:0:0:0:
204,124,61743,1,0,0:0:0:0:
180,200,62092,6,0,B|184:240|176:304|176:304,1,80,4|0,0:0|0:0,0:0:0:0:
100,264,62790,2,0,B|96:304|104:368|104:368,1,80,12|0,0:0|0:0,0:0:0:0:
256,192,63488,12,0,64883,0:0:0:0:
348,256,66278,5,4,0:0:0:0:
200,316,66976,1,8,0:0:0:0:
216,156,67674,2,0,L|116:136,2,80,0|0|8,0:0|0:0|0:0,0:0:0:0:
292,132,68720,1,0,0:0:0:0:
368,108,69069,5,0,0:0:0:0:
460,236,69767,1,8,0:0:0:0:
300,256,70464,2,0,L|312:364,1,80
228,348,71162,2,0,L|216:240,1,80,8|0,0:0|0:0,0:0:0:0:
164,208,71860,5,4,0:0:0:0:
280,100,72557,1,8,0:0:0:0:
424,168,73255,2,0,B|436:208|428:256|428:256,2,80,0|0|8,0:0|0:0|0:0,0:0:0:0:
400,92,74302,1,0,0:0:0:0:
348,152,74650,6,0,B|272:192|160:148|160:148,1,160,0|8,0:0|0:0,0:0:0:0:
140,96,75697,1,0,0:0:0:0:
112,172,76046,2,0,L|80:256,2,80,4|0|12,0:0|0:0|0:0,0:0:0:0:
196,36,77441,5,4,0:0:0:0:
332,120,78139,1,8,0:0:0:0:
280,272,78836,2,0,L|312:356,2,80,0|0|8,0:0|0:0|0:0,0:0:0:0:
196,136,80232,6,0,B|268:184|356:160|356:160,1,160,0|8,0:0|0:0,0:0:0:0:
400,100,81278,1,0,0:0:0:0:
428,176,81627,2,0,B|440:216|432:276|432:276,1,80,0|0,0:0|0:0,0:0:0:0:
380,316,82325,2,0,B|340:328|280:320|280:320,1,80,8|0,0:0|0:0,0:0:0:0:
240,268,83022,5,4,0:0:0:0:
132,148,83720,1,8,0:0:0:0:
20,264,84418,2,0,L|32:360,1,80
108,332,85115,2,0,L|96:236,1,80,8|0,0:0|0:0,0:0:0:0:
124,176,85813,2,0,B|200:136|296:160|296:160,1,160,6|8,0:0|0:0,0:0:0:0:
384,280,87208,5,4,0:0:0:0:
396,200,87557,1,2,0:0:0:0:
408,120,87906,1,6,0:0:0:0:
