osu file format v12

[General]
AudioFilename: Hentai.mp3
AudioLeadIn: 2000
PreviewTime: 66188
Countdown: 0
SampleSet: Soft
StackLeniency: 0.7
Mode: 0
LetterboxInBreaks: 0

[Editor]
DistanceSpacing: 0.8
BeatDivisor: 4
GridSize: 4

[Metadata]
Title:Fantastic future (TV Size)
TitleUnicode:Fantastic future (TV Size)
Artist:Tamura Yukari
ArtistUnicode:田村ゆかり
Creator:Flask
Version:Normal
Source:Hentai Ouji to Warawanai Neko
Tags:opening The "HENTAI" prince and the stony cat. HENNEKO J.C.STAFF Yoto Yokodera Tsukiko Tsutsukakushi Azusa Azuki Tsukushi Tsutsukakushi mintong89 Sekai-nyan
BeatmapID:243351
BeatmapSetID:89366

[Difficulty]
HPDrainRate:4
CircleSize:3
OverallDifficulty:4
ApproachRate:5
SliderMultiplier:1.15
SliderTickRate:2

[Events]
//Background and Video events
0,0,"nyan.jpg",0,0
Video,0,"Hentai.avi"
//Break Periods
//Storyboard Layer 0 (Background)
//Storyboard Layer 1 (Fail)
//Storyboard Layer 2 (Pass)
//Storyboard Layer 3 (Foreground)
//Storyboard Sound Samples
//Background Colour Transformations
3,100,163,162,255

[TimingPoints]
-655,348.837209302326,4,2,1,80,1,0
478,-100,4,2,0,60,0,0
2134,-100,4,2,3,30,0,0
2221,-100,4,2,1,60,0,0
3006,-100,4,2,2,50,0,0
3093,-100,4,2,1,60,0,0
3355,-100,4,2,2,50,0,0
3442,-100,4,2,1,60,0,0
3529,-100,4,1,0,30,0,0
3616,-100,4,2,1,60,0,0
4925,-100,4,2,3,30,0,0
5012,-100,4,2,1,60,0,0
5622,-100,4,1,0,30,0,0
5709,-100,4,2,1,60,0,0
6669,-100,4,1,0,50,0,0
6756,-100,4,2,1,70,0,0
7018,-100,4,1,0,50,0,0
7105,-100,4,2,1,70,0,0
7366,-100,4,1,0,50,0,0
7454,-100,4,2,1,70,0,0
7715,-100,4,1,0,50,0,0
7802,-100,4,2,1,70,0,0
8064,-100,4,1,0,50,0,0
8151,-100,4,2,1,70,0,0
8413,-100,4,1,0,50,0,0
8500,-100,4,2,1,70,0,0
8762,-100,4,1,0,50,0,0
8849,-100,4,2,1,70,0,0
9198,-100,4,1,0,50,0,0
9198,-100,4,2,3,50,0,0
9634,-100,4,1,0,50,0,0
9808,-100,4,2,3,55,0,0
9983,-100,4,1,0,60,0,0
10157,-100,4,1,0,65,0,0
10332,-100,4,2,0,65,0,0
11378,-100,4,1,0,50,0,0
11552,-100,4,2,1,80,0,0
11903,-100,4,2,4,90,0,1
12599,-100,4,1,0,50,0,1
12686,-100,4,2,4,90,0,1
13297,-100,4,2,3,45,0,1
13384,-100,4,2,4,90,0,1
13994,-100,4,1,0,50,0,1
14082,-100,4,2,4,90,0,1
14692,-100,4,1,0,50,0,1
14779,-100,4,2,4,90,0,1
15390,-100,4,1,0,50,0,1
15477,-100,4,2,4,90,0,1
16087,-100,4,2,3,45,0,1
16175,-100,4,2,4,90,0,1
16785,-100,4,1,0,50,0,1
16872,-100,4,2,4,90,0,1
17308,-100,4,2,4,70,0,1
17483,-100,4,2,4,90,0,1
18180,-100,4,1,0,50,0,1
18268,-100,4,2,4,90,0,1
18878,-100,4,2,3,45,0,1
18965,-100,4,2,4,90,0,1
19401,-100,4,2,4,70,0,1
19576,-100,4,1,0,50,0,1
19663,-100,4,2,4,90,0,1
20273,-100,4,1,0,50,0,1
20448,-100,4,2,3,55,0,1
20622,-100,4,2,3,60,0,1
20797,-100,4,1,0,65,0,1
20884,-100,4,2,3,65,0,1
21320,-100,4,1,0,55,0,1
21669,-100,4,2,4,55,0,1
22715,-100,4,1,0,55,0,1
23065,-100,4,2,4,80,0,0
23413,-100,4,1,0,60,0,0
23500,-100,4,2,0,80,0,0
23762,-100,4,1,0,60,0,0
23849,-100,4,2,0,80,0,0
24111,-100,4,1,0,60,0,0
24198,-100,4,2,0,80,0,0
24459,-100,4,1,0,60,0,0
24547,-100,4,2,0,80,0,0
24808,-100,4,1,0,60,0,0
24895,-100,4,2,0,80,0,0
25157,-100,4,1,0,60,0,0
25244,-100,4,2,0,80,0,0
25506,-100,4,1,0,60,0,0
25593,-100,4,2,0,80,0,0
25855,-100,4,2,0,70,0,0
25942,-100,4,2,0,80,0,0
26204,-100,4,1,0,60,0,0
26291,-100,4,2,0,80,0,0
26552,-100,4,2,0,70,0,0
26640,-100,4,2,0,80,0,0
26901,-100,4,1,0,60,0,0
26989,-100,4,2,0,80,0,0
27250,-100,4,2,0,60,0,0
27425,-100,4,2,0,65,0,0
27599,-100,4,2,0,70,0,0
27773,-100,4,2,0,75,0,0
27948,-100,4,1,0,60,0,0
28122,-100,4,2,3,50,0,0
28297,-100,4,1,0,60,0,0
28645,-100,4,2,4,70,0,0
29343,-100,4,1,0,50,0,0
29430,-100,4,2,4,70,0,0
30041,-100,4,2,3,50,0,0
30128,-100,4,2,4,70,0,0
30739,-100,4,2,3,50,0,0
30826,-100,4,2,4,70,0,0
31087,-100,4,2,8,70,0,0
31175,-100,4,2,4,70,0,0
31436,-100,4,1,0,50,0,0
31523,-100,4,2,4,70,0,0
32134,-100,4,2,3,50,0,0
32221,-100,4,2,4,70,0,0
32832,-100,4,1,0,50,0,0
32919,-100,4,2,4,70,0,0
33529,-100,4,1,0,50,0,0
33704,-100,4,2,4,70,0,0
34227,-100,4,1,0,50,0,0
34314,-100,4,2,4,70,0,0
34925,-100,4,1,0,50,0,0
35012,-100,4,2,4,70,0,0
35623,-100,4,2,3,50,0,0
35710,-100,4,2,4,70,0,0
36320,-100,4,2,3,50,0,0
36407,-100,4,2,4,70,0,0
36669,-100,4,2,8,70,0,0
36756,-100,4,2,4,70,0,0
37018,-100,4,1,0,50,0,0
37105,-100,4,2,4,70,0,0
37715,-100,4,2,3,50,0,0
37802,-100,4,2,4,70,0,0
38936,-100,4,1,0,50,0,0
39285,-100,4,1,0,55,0,0
39459,-100,4,1,0,60,0,0
39808,-100,4,2,4,70,0,0
40506,-100,4,1,0,50,0,0
40594,-100,4,2,4,70,0,0
41204,-100,4,2,3,50,0,0
41291,-100,4,2,4,70,0,0
41902,-100,4,2,3,50,0,0
41989,-100,4,2,4,70,0,0
42250,-100,4,2,8,70,0,0
42337,-100,4,2,4,70,0,0
42599,-100,4,1,0,50,0,0
42687,-100,4,2,4,70,0,0
43297,-100,4,2,3,50,0,0
43384,-100,4,2,4,70,0,0
43994,-100,4,1,0,50,0,0
44082,-100,4,2,4,70,0,0
44692,-100,4,1,0,50,0,0
44780,-100,4,2,4,70,0,0
45390,-100,4,1,0,50,0,0
45477,-100,4,2,4,70,0,0
46087,-100,4,1,0,50,0,0
46175,-100,4,2,4,70,0,0
46785,-100,4,2,3,50,0,0
46873,-100,4,2,4,70,0,0
47483,-100,4,1,0,50,0,0
47570,-100,4,2,4,70,0,0
48529,-100,4,1,0,50,0,0
48617,-100,4,2,4,70,0,0
49227,-100,4,1,0,50,0,0
49314,-100,4,2,4,70,0,0
50273,-100,4,1,0,70,0,0
50361,-100,4,1,0,55,0,0
50448,-100,4,2,3,55,0,0
50535,-100,4,2,4,55,0,0
50622,-100,4,1,0,70,0,0
50709,-100,4,1,0,55,0,0
50970,-100,4,2,5,60,0,0
51494,-100,4,2,3,50,0,0
51669,-100,4,1,0,50,0,0
51756,-100,4,2,5,60,0,0
52192,-100,4,1,0,50,0,0
53152,-100,4,2,5,60,0,0
53587,-100,4,1,0,50,0,0
53849,-100,4,2,5,50,0,0
54285,-100,4,2,3,50,0,0
54547,-100,4,2,5,60,0,0
54983,-100,4,1,0,50,0,0
56204,-100,4,2,5,60,0,0
56378,-100,4,1,0,50,0,0
56552,-100,4,2,5,60,0,0
57076,-100,4,2,3,50,0,0
57250,-100,4,1,0,50,0,0
57599,-100,4,2,5,60,0,0
57773,-100,4,1,0,50,0,0
58994,-100,4,2,5,60,0,0
59169,-100,4,1,0,50,0,0
59342,-100,4,2,4,70,0,0
62483,-100,4,2,8,70,0,0
62570,-100,4,2,4,70,0,0
63529,-100,4,1,0,50,0,0
63616,-100,4,2,3,50,0,0
64227,-100,4,1,0,50,0,0
64925,-100,4,2,0,50,0,0
65099,-100,4,2,6,40,0,0
65273,-100,4,2,6,70,0,0
65448,-100,4,2,6,40,0,0
65797,-100,4,2,7,60,0,0
65970,-100,4,2,1,70,0,0
66321,-100,4,2,4,90,0,1
67018,-100,4,1,0,50,0,1
67105,-100,4,2,4,90,0,1
67714,-100,4,2,3,50,0,1
67803,-100,4,2,4,90,0,1
68413,-100,4,1,0,50,0,1
68500,-100,4,2,4,90,0,1
69111,-100,4,1,0,50,0,1
69198,-100,4,2,4,90,0,1
69808,-100,4,1,0,50,0,1
69896,-100,4,2,4,90,0,1
70506,-100,4,2,3,50,0,1
70594,-100,4,2,4,90,0,1
71204,-100,4,1,0,50,0,1
71291,-100,4,2,4,90,0,1
72599,-100,4,1,0,50,0,1
72687,-100,4,2,4,90,0,1
73297,-100,4,2,3,50,0,1
73384,-100,4,2,4,90,0,1
73994,-100,4,1,0,50,0,1
74082,-100,4,2,4,90,0,1
74692,-100,4,1,0,50,0,1
74780,-100,4,2,4,90,0,1
75390,-100,4,1,0,50,0,1
75477,-100,4,2,4,90,0,1
76088,-100,4,2,3,50,0,1
76349,-100,4,1,0,50,0,1
77133,-100,4,2,1,70,0,1
77397,-100,4,2,4,90,0,0
77484,-100,4,2,4,90,0,1
78180,-100,4,1,0,50,0,1
78268,-100,4,2,4,90,0,1
78878,-100,4,2,3,50,0,1
78966,-100,4,2,4,90,0,1
79576,-100,4,1,0,50,0,1
79663,-100,4,2,4,90,0,1
80273,-100,4,1,0,50,0,1
80361,-100,4,2,4,90,0,1
80971,-100,4,1,0,50,0,1
81059,-100,4,2,4,90,0,1
81669,-100,4,2,3,50,0,1
81756,-100,4,2,4,90,0,1
82366,-100,4,1,0,50,0,1
82454,-100,4,2,4,90,0,1
83762,-100,4,1,0,50,0,1
83849,-100,4,2,4,90,0,1
84460,-100,4,2,3,50,0,1
84547,-100,4,2,4,90,0,1
85157,-100,4,1,0,50,0,1
85244,-100,4,2,4,90,0,1
85855,-100,4,1,0,50,0,1
86030,-100,4,2,3,55,0,1
86204,-100,4,2,3,60,0,1
86378,-100,4,1,0,65,0,1
86465,-100,4,2,3,60,0,1
86901,-100,4,1,0,60,0,1
87250,-100,4,2,4,60,0,1
87949,-100,4,2,4,90,0,0

[Colours]
Combo1 : 255,255,51
Combo2 : 122,250,73
Combo3 : 255,169,83
Combo4 : 255,91,173

[HitObjects]
256,192,391,37,8,0:0:0:0:
203,260,740,38,0,P|256:280|308:260,2,115,4|2|2,0:0|0:0|0:0,0:0:0:0:
164,132,1961,2,0,P|88:100|28:168,1,172.5,2|2,0:0|0:0,0:0:0:0:
16,248,2833,2,0,P|4:308|28:360,1,115,2|2,0:0|0:0,0:0:0:0:
92,296,3531,6,0,L|208:276,1,115,0|2,0:0|0:0,0:0:0:0:
296,280,4228,2,0,L|320:340,2,57.5,2|0|0,0:0|0:0|0:0,0:0:0:0:
280,236,4751,2,0,B|260:180|260:180|284:116|232:72,1,172.5,2|2,0:0|0:0,0:0:0:0:
176,148,5624,2,0,L|60:188,1,115,0|2,0:0|0:0,0:0:0:0:
104,272,6321,6,0,L|220:232,1,115,4|0,0:0|0:0,0:0:0:0:
304,236,7019,2,0,L|413:274,1,115
476,340,7717,2,0,P|504:284|492:228,1,115,4|0,0:2|0:0,0:0:0:0:
456,152,8414,2,0,P|447:102|475:46,1,115
384,20,9112,6,0,P|360:100|376:188,2,172.5,4|0|0,0:0|0:0|0:0,0:0:0:0:
428,12,10333,6,0,L|252:36,1,172.5,2|2,0:0|0:0,0:0:0:0:
172,64,11205,2,0,P|124:92|100:152,1,115,2|8,0:0|0:0,0:0:0:0:
96,236,11903,6,0,P|120:289|168:317,2,115,4|8|0,0:0|0:0|0:0,0:0:0:0:
186,224,12949,1,8,0:0:0:0:
186,224,13124,2,0,B|235:181|235:181|304:196|339:133,1,172.5,2|8,0:0|0:0,0:0:0:0:
260,84,13996,2,0,P|318:50|377:68,1,115,0|8,0:0|0:0,0:0:0:0:
428,124,14693,6,0,P|428:191|383:233,1,115,0|8,0:0|0:0,0:0:0:0:
320,272,15391,2,0,L|332:336,2,57.5,0|2|8,0:0|0:0|0:0,0:0:0:0:
312,228,15914,2,0,P|260:160|176:172,1,172.5,2|8,0:0|0:0,0:0:0:0:
224,248,16786,2,0,L|176:352,1,115,0|8,0:0|0:0,0:0:0:0:
84,352,17484,6,0,L|36:248,2,115,4|8|0,0:0|0:0|0:0,0:0:0:0:
176,352,18531,1,8,0:0:0:0:
176,352,18705,2,0,P|260:356|320:288,1,172.5,2|8,0:0|0:0,0:0:0:0:
328,204,19577,2,0,P|332:144|372:104,1,115,0|8,0:0|0:0,0:0:0:0:
416,184,20275,6,0,L|252:112,2,172.5
484,248,21670,2,0,P|500:308|488:368,2,115,4|4|4,0:0|0:0|0:0,0:0:0:0:
496,156,22717,1,0,0:0:0:0:
440,84,23065,6,0,P|392:52|336:52,1,115,4|0,0:0|0:0,0:0:0:0:
272,116,23763,2,0,P|268:173|296:222,1,115
388,240,24461,2,0,P|439:214|467:165,2,115
344,248,25333,2,0,L|280:260,1,57.5,2|0,0:0|0:0,0:0:0:0:
204,296,25856,6,0,P|148:280|112:232,1,115,4|0,0:0|0:0,0:0:0:0:
113,147,26554,2,0,P|148:104|204:88,1,115,4|0,0:0|0:0,0:0:0:0:
296,100,27251,2,0,P|376:128|440:68,1,172.5,4|4,0:0|0:0,0:0:0:0:
460,36,27949,2,0,L|488:156,1,115
486,236,28647,6,0,L|460:348,1,115,4|8,0:0|0:0,0:0:0:0:
384,300,29344,2,0,L|400:240,2,57.5,0|2|8,0:0|0:0|0:0,0:0:0:0:
368,344,29868,2,0,P|316:364|264:328,1,115,2|2,0:0|0:0,0:0:0:0:
224,256,30565,2,0,P|176:227|124:247,2,115,2|2|2,0:0|0:0|0:0,0:0:0:0:
232,300,31438,6,0,L|264:176,1,115,0|8,0:0|0:0,0:0:0:0:
272,144,31961,2,0,P|320:72|412:80,1,172.5,2|8,0:0|0:0,0:0:0:0:
364,156,32833,2,0,L|392:212,2,57.5,0|2|8,0:0|0:0|0:0,0:0:0:0:
272,144,33531,2,0,L|244:200,2,57.5,0|2|8,0:0|0:0|0:0,0:0:0:0:
208,76,34228,6,0,L|104:136,1,115,0|8,0:0|0:0,0:0:0:0:
20,104,34926,2,0,L|28:32,2,57.5,0|2|8,0:0|0:0|0:0,0:0:0:0:
24,152,35449,2,0,P|32:208|16:268,1,115,2|2,0:0|0:0,0:0:0:0:
112,268,36147,2,0,P|133:215|176:171,2,115
128,312,37019,2,0,P|183:326|239:318,1,115,0|8,0:0|0:0,0:0:0:0:
280,296,37542,2,0,P|360:256|448:280,1,172.5,2|8,0:0|0:0,0:0:0:0:
480,192,38414,5,2,0:0:0:0:
402,144,38763,1,8,0:0:0:0:
332,205,39112,1,0,0:0:0:0:
368,290,39461,1,0,0:0:0:0:
461,282,39810,6,0,P|501:230|493:178,1,115,4|8,0:0|0:0,0:0:0:0:
460,100,40507,2,0,L|520:68,2,57.5,0|2|8,0:0|0:0|0:0,0:0:0:0:
416,116,41031,2,0,P|356:140|304:128,1,115,2|2,0:0|0:0,0:0:0:0:
248,64,41728,2,0,P|200:54|140:78,2,115,0|0|0,0:0|0:0|0:0,0:0:0:0:
268,104,42600,6,0,P|258:167|226:204,1,115,0|8,0:0|0:0,0:0:0:0:
180,208,43124,2,0,B|124:184|113:122|113:122|40:132,1,172.5,2|8,0:0|0:0,0:0:0:0:
52,220,43996,6,0,P|96:276|134:295,1,115,0|8,0:0|0:0,0:0:0:0:
204,352,44693,2,0,P|256:328|312:356,1,115,0|8,0:0|0:0,0:0:0:0:
382,295,45391,6,0,P|420:276|464:220,1,115,0|8,0:0|0:0,0:0:0:0:
468,172,45914,1,2,0:0:0:0:
464,128,46089,2,0,P|420:72|382:52,1,115,0|8,0:0|0:0,0:0:0:0:
308,108,46786,2,0,P|248:124|192:112,1,115,0|8,0:0|0:0,0:0:0:0:
164,80,47310,1,2,0:0:0:0:
128,48,47484,2,0,P|77:38|17:54,1,115,0|8,0:0|0:0,0:0:0:0:
8,144,48182,5,4,0:0:0:0:
16,236,48531,1,0,0:0:0:0:
80,304,48879,1,4,0:0:0:0:
172,308,49228,1,0,0:0:0:0:
248,256,49577,6,0,P|296:224|360:228,1,115,4|4,0:0|0:0,0:0:0:0:
380,136,50275,2,0,P|328:110|299:53,1,115
212,80,50972,6,0,P|215:137|180:190,2,115,4|0|0,0:0|0:0|0:0,0:0:0:0:
128,116,52019,1,8,0:0:0:0:
128,116,52193,2,0,P|100:172|112:232,1,115
172,288,52891,2,0,L|248:288,1,57.5
320,300,53414,1,8,0:0:0:0:
352,212,53763,6,0,P|364:148|408:104,2,115
320,300,54810,1,8,0:0:0:0:
320,300,54984,2,0,P|280:344|224:352,1,115
144,316,55682,2,0,L|92:288,1,57.5
44,212,56205,1,8,0:0:0:0:
72,124,56554,6,0,P|96:72|80:12,2,115,4|0|0,0:0|0:0|0:0,0:0:0:0:
44,212,57600,1,8,0:0:0:0:
44,212,57775,2,0,P|20:264|36:324,1,115
120,344,58472,2,0,L|180:348,1,57.5
256,300,58996,1,8,0:0:0:0:
336,344,59344,6,0,P|396:356|456:344,1,115,4|8,0:0|0:0,0:0:0:0:
508,276,60042,2,0,P|520:216|508:156,1,115,4|8,0:0|0:0,0:0:0:0:
460,88,60740,2,0,P|400:76|340:88,1,115,4|8,0:0|0:0,0:0:0:0:
288,156,61438,2,0,P|276:216|288:276,1,115,4|8,0:0|0:0,0:0:0:0:
204,316,62135,6,0,P|180:204|216:88,1,230,4|4,0:0|0:0,0:0:0:0:
256,16,63182,1,8,0:0:0:0:
300,95,63531,2,0,P|332:204|308:316,1,230
232,372,64577,1,0,0:0:0:0:
144,344,64926,6,0,P|92:320|68:264,1,115,0|8,0:0|0:0,0:0:0:0:
72,176,65624,2,0,P|95:125|147:101,1,115,0|8,0:0|0:0,0:0:0:0:
240,100,66321,6,0,L|364:100,2,115,4|8|0,0:0|0:0|0:0,0:0:0:0:
188,176,67368,1,8,0:0:0:0:
188,176,67542,2,0,P|176:232|192:296,1,115,2|2,0:0|0:0,0:0:0:0:
228,308,68065,2,0,P|282:290|329:244,2,115,8|0|8,0:0|0:0|0:0,0:0:0:0:
136,324,69112,6,0,P|81:306|34:260,1,115,0|8,0:0|0:0,0:0:0:0:
28,176,69810,2,0,L|-20:140,2,57.5,0|2|8,0:0|0:0|0:0,0:0:0:0:
76,176,70333,2,0,P|140:120|136:32,1,172.5,2|8,0:0|0:0,0:0:0:0:
232,24,71205,2,0,P|244:88|296:116,1,115,0|8,0:0|0:0,0:0:0:0:
368,152,71903,6,0,P|408:196|408:256,2,115,4|8|0,0:0|0:0|0:0,0:0:0:0:
292,204,72949,1,8,0:0:0:0:
292,204,73124,2,0,P|236:216|176:204,1,115,2|2,0:0|0:0,0:0:0:0:
148,172,73647,2,0,L|144:296,2,115,8|0|8,0:0|0:0|0:0,0:0:0:0:
164,80,74693,6,0,P|200:32|260:28,1,115,0|8,0:0|0:0,0:0:0:0:
324,84,75391,2,0,L|384:52,2,57.5,0|2|8,0:0|0:0|0:0,0:0:0:0:
284,108,75914,2,0,P|264:180|320:260,1,172.5,2|0,0:0|0:0,0:0:0:0:
404,280,76786,2,0,P|436:336|432:384,1,115,0|8,0:0|0:0,0:0:0:0:
344,352,77484,6,0,L|220:352,2,115,4|8|0,0:0|0:0|0:0,0:0:0:0:
404,280,78531,1,8,0:0:0:0:
404,280,78705,2,0,P|452:248|468:184,1,115,2|2,0:0|0:0,0:0:0:0:
468,148,79228,2,0,L|468:24,2,115,8|0|8,0:0|0:0|0:0,0:0:0:0:
396,208,80275,6,0,P|344:232|288:220,1,115,0|8,0:0|0:0,0:0:0:0:
208,176,80972,2,0,L|232:108,2,57.5,0|2|8,0:0|0:0|0:0,0:0:0:0:
200,220,81496,2,0,P|184:308|124:360,1,172.5,2|8,0:0|0:0,0:0:0:0:
32,348,82368,2,0,P|4:300|4:240,1,115,0|8,0:0|0:0,0:0:0:0:
40,156,83065,6,0,P|40:104|8:52,2,115,4|8|0,0:0|0:0|0:0,0:0:0:0:
128,184,84112,1,8,0:0:0:0:
128,184,84286,2,0,P|184:204|236:188,1,115,2|2,0:0|0:0,0:0:0:0:
280,176,84810,2,0,L|400:176,2,115,8|0|8,0:0|0:0|0:0,0:0:0:0:
244,256,85856,6,0,P|192:192|228:108,2,172.5
336,244,87251,1,4,0:0:0:0:
356,336,87600,1,4,0:0:0:0:
264,352,87949,1,4,0:0:0:0:
