osu file format v12

[General]
AudioFilename: Hentai.mp3
AudioLeadIn: 2000
PreviewTime: 66188
Countdown: 0
SampleSet: Normal
StackLeniency: 0.7
Mode: 0
LetterboxInBreaks: 0

[Editor]
DistanceSpacing: 1
BeatDivisor: 4
GridSize: 32

[Metadata]
Title:Fantastic future (TV Size)
TitleUnicode:Fantastic future (TV Size)
Artist:Tamura Yukari
ArtistUnicode:田村ゆかり
Creator:Flask
Version:Hard
Source:Hentai Ouji to Warawanai Neko
Tags:opening The "HENTAI" prince and the stony cat. HENNEKO J.C.STAFF Yoto Yokodera Tsukiko Tsutsukakushi Azusa Azuki Tsukushi Tsutsukakushi mintong89 Sekai-nyan
BeatmapID:243016
BeatmapSetID:89366

[Difficulty]
HPDrainRate:5
CircleSize:4
OverallDifficulty:6
ApproachRate:7
SliderMultiplier:1.50000004768372
SliderTickRate:2

[Events]
//Background and Video events
0,0,"nyan.jpg",0,0
Video,0,"Hentai.avi"
//Break Periods
//Storyboard Layer 0 (Background)
//Storyboard Layer 1 (Fail)
//Storyboard Layer 2 (Pass)
//Storyboard Layer 3 (Foreground)
//Storyboard Sound Samples
//Background Colour Transformations
3,100,163,162,255

[TimingPoints]
-655,348.837209302326,4,2,1,80,1,0
478,-100,4,2,0,60,0,0
2134,-100,4,1,0,30,0,0
2221,-100,4,2,1,60,0,0
3006,-100,4,2,2,50,0,0
3093,-100,4,2,1,60,0,0
3355,-100,4,2,2,50,0,0
3442,-100,4,2,1,60,0,0
3529,-100,4,1,0,30,0,0
3616,-100,4,2,1,60,0,0
4925,-100,4,2,3,30,0,0
5012,-100,4,2,1,60,0,0
5622,-100,4,1,0,30,0,0
5709,-100,4,2,1,60,0,0
6669,-100,4,1,0,50,0,0
6756,-100,4,2,1,70,0,0
7018,-100,4,1,0,50,0,0
7105,-100,4,2,1,70,0,0
7366,-100,4,1,0,50,0,0
7454,-100,4,2,1,70,0,0
8064,-100,4,1,0,50,0,0
8151,-100,4,2,1,70,0,0
8413,-100,4,1,0,50,0,0
8500,-100,4,2,1,70,0,0
8762,-100,4,1,0,50,0,0
8849,-100,4,2,1,70,0,0
9285,-100,4,1,0,50,0,0
9895,-100,4,1,0,55,0,0
9983,-100,4,1,0,60,0,0
10157,-100,4,1,0,65,0,0
10332,-100,4,2,0,65,0,0
11378,-100,4,1,0,50,0,0
11552,-80,4,2,1,80,0,0
11727,-80,4,2,1,5,0,0
11903,-100,4,2,4,90,0,1
12599,-100,4,1,0,50,0,1
12686,-100,4,2,4,90,0,1
13297,-100,4,2,3,45,0,1
13384,-100,4,2,4,90,0,1
13994,-100,4,1,0,50,0,1
14082,-100,4,2,4,90,0,1
14692,-100,4,1,0,50,0,1
14779,-100,4,2,4,90,0,1
15390,-100,4,1,0,50,0,1
15477,-100,4,2,4,90,0,1
16087,-100,4,2,3,45,0,1
16175,-100,4,2,4,90,0,1
16785,-100,4,1,0,50,0,1
16872,-100,4,2,4,90,0,1
17308,-100,4,2,4,70,0,1
17483,-100,4,2,4,90,0,1
18180,-100,4,1,0,50,0,1
18268,-100,4,2,4,90,0,1
18878,-100,4,2,3,45,0,1
18965,-100,4,2,4,90,0,1
19401,-100,4,2,4,70,0,1
19576,-100,4,1,0,50,0,1
19663,-100,4,2,4,90,0,1
20273,-100,4,1,0,50,0,1
20448,-100,4,1,0,55,0,1
20622,-100,4,1,0,60,0,1
20797,-100,4,1,0,65,0,1
21494,-100,4,2,4,70,0,1
22717,-100,4,1,0,55,0,1
23065,-100,4,2,4,80,0,0
23413,-100,4,1,0,60,0,0
23500,-100,4,2,0,80,0,0
23762,-100,4,1,0,60,0,0
23849,-100,4,2,0,80,0,0
24111,-100,4,1,0,60,0,0
24198,-100,4,2,0,80,0,0
24459,-100,4,1,0,60,0,0
24547,-100,4,2,0,80,0,0
24808,-100,4,1,0,60,0,0
24895,-100,4,2,0,80,0,0
25157,-100,4,1,0,60,0,0
25244,-100,4,2,0,80,0,0
25506,-100,4,1,0,60,0,0
25593,-100,4,2,0,80,0,0
25855,-100,4,2,0,70,0,0
25942,-100,4,2,0,80,0,0
26204,-100,4,1,0,60,0,0
26291,-100,4,2,0,80,0,0
26552,-100,4,2,0,70,0,0
26640,-100,4,2,0,80,0,0
26901,-100,4,1,0,60,0,0
26989,-100,4,2,0,80,0,0
27250,-100,4,2,0,60,0,0
27425,-100,4,2,0,65,0,0
27599,-100,4,2,0,70,0,0
27773,-100,4,2,0,75,0,0
27948,-100,4,1,0,60,0,0
28645,-100,4,2,4,70,0,0
29343,-100,4,1,0,50,0,0
29430,-100,4,2,4,70,0,0
30041,-100,4,2,3,50,0,0
30128,-100,4,2,4,70,0,0
30739,-100,4,2,3,50,0,0
30826,-100,4,2,4,70,0,0
31087,-100,4,2,8,70,0,0
31175,-100,4,2,4,70,0,0
31436,-100,4,1,0,50,0,0
31523,-100,4,2,4,70,0,0
32134,-100,4,2,3,50,0,0
32221,-100,4,2,4,70,0,0
32832,-100,4,1,0,50,0,0
32919,-100,4,2,4,70,0,0
33529,-100,4,1,0,50,0,0
33704,-100,4,2,4,70,0,0
34227,-100,4,1,0,50,0,0
34314,-100,4,2,4,70,0,0
34925,-100,4,1,0,50,0,0
35012,-100,4,2,4,70,0,0
35623,-100,4,2,3,50,0,0
35710,-100,4,2,4,70,0,0
36320,-100,4,2,3,50,0,0
36407,-100,4,2,4,70,0,0
36669,-100,4,2,8,70,0,0
36756,-100,4,2,4,70,0,0
37018,-100,4,1,0,50,0,0
37105,-100,4,2,4,70,0,0
37715,-100,4,2,3,50,0,0
37802,-100,4,2,4,70,0,0
38936,-100,4,1,0,50,0,0
39285,-100,4,1,0,55,0,0
39459,-100,4,1,0,60,0,0
39808,-100,4,2,4,70,0,0
40506,-100,4,1,0,50,0,0
40594,-100,4,2,4,70,0,0
41204,-100,4,2,3,50,0,0
41291,-100,4,2,4,70,0,0
41902,-100,4,2,3,50,0,0
41989,-100,4,2,4,70,0,0
42250,-100,4,2,8,70,0,0
42337,-100,4,2,4,70,0,0
42599,-100,4,1,0,50,0,0
42687,-100,4,2,4,70,0,0
43297,-100,4,2,3,50,0,0
43384,-100,4,2,4,70,0,0
43994,-100,4,1,0,50,0,0
44082,-100,4,2,4,70,0,0
44692,-100,4,1,0,50,0,0
44780,-100,4,2,4,70,0,0
45390,-100,4,1,0,50,0,0
45477,-100,4,2,4,70,0,0
46087,-100,4,1,0,50,0,0
46175,-100,4,2,4,70,0,0
46785,-100,4,2,3,50,0,0
46873,-100,4,2,4,70,0,0
47483,-100,4,1,0,50,0,0
47570,-100,4,2,4,70,0,0
48529,-100,4,1,0,50,0,0
48617,-100,4,2,4,70,0,0
49227,-100,4,1,0,50,0,0
49314,-100,4,2,4,70,0,0
50273,-100,4,1,0,70,0,0
50361,-100,4,1,0,55,0,0
50622,-100,4,1,0,70,0,0
50709,-100,4,1,0,55,0,0
50970,-125,4,2,5,60,0,0
51494,-125,4,1,0,50,0,0
51756,-125,4,2,5,60,0,0
52192,-125,4,1,0,50,0,0
53152,-125,4,2,5,60,0,0
53587,-125,4,1,0,50,0,0
53849,-125,4,2,5,60,0,0
54285,-125,4,1,0,50,0,0
54547,-125,4,2,5,60,0,0
54983,-125,4,1,0,50,0,0
56204,-125,4,2,5,60,0,0
56378,-125,4,1,0,50,0,0
56552,-125,4,2,5,60,0,0
57076,-125,4,1,0,50,0,0
57599,-125,4,2,5,60,0,0
57773,-125,4,1,0,50,0,0
58994,-125,4,2,5,60,0,0
59169,-125,4,1,0,50,0,0
59342,-100,4,2,4,70,0,0
63529,-100,4,1,0,50,0,0
65099,-100,4,2,6,40,0,0
65273,-100,4,2,6,70,0,0
65448,-100,4,2,6,40,0,0
65797,-100,4,2,7,60,0,0
65970,-80,4,2,1,70,0,0
66145,-80,4,2,1,5,0,0
66321,-100,4,2,4,90,0,1
67018,-100,4,1,0,50,0,1
67105,-100,4,2,4,90,0,1
67714,-100,4,2,3,50,0,1
67803,-100,4,2,4,90,0,1
68413,-100,4,1,0,50,0,1
68500,-100,4,2,4,90,0,1
69111,-100,4,1,0,50,0,1
69198,-100,4,2,4,90,0,1
69808,-100,4,1,0,50,0,1
69896,-100,4,2,4,90,0,1
70506,-100,4,2,3,50,0,1
70594,-100,4,2,4,90,0,1
71204,-100,4,1,0,50,0,1
71291,-100,4,2,4,90,0,1
72599,-100,4,1,0,50,0,1
72687,-100,4,2,4,90,0,1
73297,-100,4,2,3,50,0,1
73384,-100,4,2,4,90,0,1
73994,-100,4,1,0,50,0,1
74082,-100,4,2,4,90,0,1
74692,-100,4,1,0,50,0,1
74780,-100,4,2,4,90,0,1
75390,-100,4,1,0,50,0,1
75477,-100,4,2,4,90,0,1
76088,-100,4,2,3,50,0,1
76175,-100,4,2,4,90,0,1
76262,-100,4,1,0,50,0,1
77133,-80,4,2,1,70,0,1
77397,-100,4,2,4,90,0,0
77484,-100,4,2,4,90,0,1
78180,-100,4,1,0,50,0,1
78268,-100,4,2,4,90,0,1
78878,-100,4,2,3,50,0,1
78966,-100,4,2,4,90,0,1
79576,-100,4,1,0,50,0,1
79663,-100,4,2,4,90,0,1
80273,-100,4,1,0,50,0,1
80361,-100,4,2,4,90,0,1
80971,-100,4,1,0,50,0,1
81059,-100,4,2,4,90,0,1
81669,-100,4,2,3,50,0,1
81756,-100,4,2,4,90,0,1
82366,-100,4,1,0,50,0,1
82454,-100,4,2,4,90,0,1
83762,-100,4,1,0,50,0,1
83849,-100,4,2,4,90,0,1
84460,-100,4,2,3,50,0,1
84547,-100,4,2,4,90,0,1
85157,-100,4,1,0,50,0,1
85244,-100,4,2,4,90,0,1
85855,-100,4,1,0,50,0,1
86030,-100,4,1,0,55,0,1
86204,-100,4,1,0,60,0,1
86378,-100,4,1,0,65,0,1
87250,-100,4,2,4,60,0,1
87949,-100,4,2,4,90,0,0

[Colours]
Combo1 : 255,255,51
Combo2 : 122,250,73
Combo3 : 255,169,83
Combo4 : 255,91,173

[HitObjects]
256,192,391,37,8,0:0:0:0:
256,192,740,38,0,P|232:272|256:340,2,150.000004768372,4|2|2,0:0|0:0|0:0,0:0:0:0:
404,212,1786,1,0,0:0:0:0:
480,200,1961,2,0,P|504:120|480:52,1,150.000004768372,2|2,0:0|0:0,0:0:0:0:
416,28,2484,2,0,P|376:20|340:32,1,75.000002384186,2|0,0:0|0:0,0:0:0:0:
276,60,2833,2,0,P|204:76|124:60,2,150.000004768372,2|2|0,0:0|0:0|0:0,0:0:0:0:
348,192,3879,5,2,0:0:0:0:
256,312,4228,2,0,P|220:328|180:328,1,75.000002384186,2|0,0:0|0:0,0:0:0:0:
112,312,4577,1,0,0:0:0:0:
56,364,4751,2,0,P|36:296|88:236,1,150.000004768372,2|2,0:0|0:0,0:0:0:0:
148,200,5275,2,0,P|176:164|180:132,1,75.000002384186,2|0,0:0|0:0,0:0:0:0:
248,104,5624,2,0,P|248:188|212:244,1,150.000004768372,0|0,0:0|0:0,0:0:0:0:
76,300,6321,6,0,L|48:228,1,75.000002384186,4|0,0:0|0:0,0:0:0:0:
48,153,6670,2,0,L|76:84,1,75.000002384186
144,52,7019,2,0,L|240:40,1,75.000002384186
293,42,7368,2,0,L|368:52,1,75.000002384186
436,84,7717,2,0,L|463:153,1,75.000002384186,4|0,0:0|0:0,0:0:0:0:
463,230,8065,2,0,L|436:300,1,75.000002384186
368,332,8414,2,0,L|293:341,1,75.000002384186
218,341,8763,1,0,0:0:0:0:
128,224,9112,5,4,0:0:0:0:
80,165,9286,1,0,0:0:0:0:
121,102,9461,1,0,0:0:0:0:
194,122,9635,1,0,0:0:0:0:
198,197,9810,2,0,L|255:201,5,37.500001192093,4|0|0|0|0|0,2:0|0:0|0:0|0:0|0:0|0:0,0:0:0:0:
219,227,10333,6,0,P|268:272|352:280,1,150.000004768372,2|0,0:0|0:0,0:0:0:0:
412,236,10856,2,0,P|426:171|391:94,1,150.000004768372,2|0,0:0|0:0,0:0:0:0:
332,52,11379,5,0,0:0:0:0:
332,52,11467,1,0,0:0:0:0:
332,52,11554,2,0,P|284:44|248:12,1,93.7500029802325,8|0,0:0|0:0,0:0:0:0:
128,64,11903,6,0,P|142:97|141:134,1,75.000002384186,4|0,0:0|0:0,0:0:0:0:
84,184,12251,2,0,P|69:150|70:113,1,75.000002384186,8|0,0:0|0:0,0:0:0:0:
128,64,12600,2,0,P|60:36|0:84,1,150.000004768372,0|8,0:0|0:0,0:0:0:0:
0,152,13124,2,0,P|16:228|4:312,1,150.000004768372,2|2,0:0|0:0,0:0:0:0:
76,328,13647,2,0,P|133:276|212:244,1,150.000004768372,8|0,0:0|0:0,0:0:0:0:
276,248,14170,2,0,P|320:256|352:248,1,75.000002384186,2|8,0:0|0:0,0:0:0:0:
452,144,14693,6,0,P|440:76|376:20,1,150.000004768372,0|8,0:0|0:0,0:0:0:0:
308,28,15217,1,2,0:0:0:0:
236,52,15391,2,0,P|196:60|160:52,1,75.000002384186,0|2,0:0|0:0,0:0:0:0:
40,20,15740,1,8,0:0:0:0:
40,20,15914,2,0,B|52:57|44:92|44:92|28:132|48:180,1,150.000004768372,2|2,0:0|0:0,0:0:0:0:
112,132,16438,2,0,L|192:132,1,75.000002384186,8|2,0:0|0:0,0:0:0:0:
260,140,16786,2,0,P|272:180|264:212,1,75.000002384186,0|2,0:0|0:0,0:0:0:0:
248,284,17135,2,0,P|244:324|256:360,1,75.000002384186,8|2,0:0|0:0,0:0:0:0:
380,384,17484,6,0,P|404:316|368:236,2,150.000004768372,4|8|0,0:0|0:0|0:0,0:0:0:0:
256,300,18531,1,8,0:0:0:0:
212,360,18705,2,0,P|180:292|224:232,1,150.000004768372,2|2,0:0|0:0,0:0:0:0:
294,235,19228,2,0,P|332:292|300:360,2,150.000004768372,8|0|8,0:0|0:0|0:0,0:0:0:0:
200,116,20275,6,0,P|160:108|124:120,1,75.000002384186
80,176,20624,2,0,P|47:185|7:177,1,75.000002384186
44,112,20972,2,0,L|44:32,2,75.000002384186
44,260,21496,2,0,P|60:328|136:360,1,150.000004768372,4|2,0:0|0:0,0:0:0:0:
200,336,22019,2,0,P|276:320|352:336,1,150.000004768372,4|4,0:0|0:0,0:0:0:0:
476,256,22717,6,0,L|468:204,3,37.500001192093
464,180,23065,2,0,B|432:136|452:72|452:72|400:64,1,150,4|0,0:0|0:0,0:0:0:0:
268,40,23763,2,0,L|196:16,2,75,0|2|0,0:0|0:0|0:0,0:0:0:0:
324,180,24461,2,0,P|340:256|312:336,1,150
256,364,24984,1,2,0:0:0:0:
192,323,25158,2,0,P|172:256|188:180,1,150
308,88,25856,6,0,P|388:84|424:152,1,150,4|0,0:0|0:0,0:0:0:0:
372,192,26379,1,2,0:0:0:0:
423,247,26554,2,0,P|388:300|308:296,1,150,4|0,0:0|0:0,0:0:0:0:
160,276,27251,2,0,L|100:228,1,75,4|4,0:0|0:0,0:0:0:0:
101,154,27600,2,0,L|160:108,1,75,4|4,0:0|0:0,0:0:0:0:
216,56,27949,2,0,L|252:28,7,37.5
216,56,28647,6,0,P|216:136|264:192,1,150,4|8,0:0|0:0,0:0:0:0:
332,168,29170,1,2,0:0:0:0:
404,184,29344,2,0,P|444:180|476:156,2,75,0|2|8,0:0|0:0|0:0,0:0:0:0:
352,240,29868,2,0,P|296:304|296:372,1,150,2|2,0:0|0:0,0:0:0:0:
156,304,30565,2,0,P|212:240|212:172,2,150,2|2|2,0:0|0:0|0:0,0:0:0:0:
80,312,31438,6,0,P|27:279|0:199,1,150,0|8,0:0|0:0,0:0:0:0:
32,132,31961,2,0,P|86:102|169:119,1,150,2|2,0:0|0:0,0:0:0:0:
228,164,32484,1,8,0:0:0:0:
384,304,32833,2,0,L|456:360,1,75,0|2,0:0|0:0,0:0:0:0:
488,288,33182,2,0,L|416:232,1,75,8|2,0:0|0:0,0:0:0:0:
472,180,33531,2,0,L|508:208,2,37.5
404,144,33879,2,0,P|368:120|356:84,1,75,8|2,0:0|0:0,0:0:0:0:
240,40,34228,6,0,P|168:16|88:48,1,150,0|8,0:0|0:0,0:0:0:0:
68,180,34926,2,0,P|68:224|52:256,2,75,0|2|8,0:0|0:0|0:0,0:0:0:0:
132,140,35449,2,0,P|144:216|120:292,1,150,2|2,0:0|0:0,0:0:0:0:
272,292,36147,2,0,P|260:216|284:140,2,150,2|2|2,0:0|0:0|0:0,0:0:0:0:
336,332,37019,6,0,P|405:314|465:266,1,150,0|8,0:0|0:0,0:0:0:0:
468,192,37542,2,0,P|418:140|346:112,1,150,2|2,0:0|0:0,0:0:0:0:
272,116,38065,1,8,0:0:0:0:
132,56,38414,2,0,P|92:68|60:60,1,75,2|0,0:0|0:0,0:0:0:0:
16,120,38763,2,0,P|24:159|16:204,1,75.000002384186,8|0,0:0|0:0,0:0:0:0:
17,212,39025,1,0,0:0:0:0:
14,230,39112,2,0,P|18:270|46:298,1,75.000002384186,0|0,0:0|0:0,0:0:0:0:
113,310,39461,2,0,P|145:286|155:248,1,75.000002384186,0|0,0:0|0:0,0:0:0:0:
252,168,39810,6,0,P|312:120|392:136,1,150,4|8,0:0|0:0,0:0:0:0:
428,192,40333,1,2,0:0:0:0:
452,264,40507,2,0,P|488:240|500:204,2,75,0|2|8,0:0|0:0|0:0,0:0:0:0:
376,276,41031,2,0,P|304:292|260:360,1,150,2|2,0:0|0:0,0:0:0:0:
148,256,41728,2,0,P|216:240|264:172,2,150,2|2|2,0:0|0:0|0:0,0:0:0:0:
84,216,42600,6,0,P|53:145|73:78,1,150,0|8,0:0|0:0,0:0:0:0:
140,40,43124,2,0,P|216:49|264:100,1,150,2|2,0:0|0:0,0:0:0:0:
296,168,43647,1,8,0:0:0:0:
348,308,43996,6,0,P|412:336|476:292,1,150,0|8,0:0|0:0,0:0:0:0:
408,260,44519,1,2,0:0:0:0:
468,212,44693,2,0,P|404:184|340:228,1,150,0|8,0:0|0:0,0:0:0:0:
280,268,45217,1,0,0:0:0:0:
228,324,45391,6,0,P|165:364|101:336,1,150,0|8,0:0|0:0,0:0:0:0:
56,276,45914,1,2,0:0:0:0:
88,208,46089,2,0,B|104:168|88:132,2,75,0|2|8,0:0|0:0|0:0,0:0:0:0:
20,172,46612,2,0,B|152:172|152:172|200:204|248:172,1,225,2|8,0:0|0:0,0:0:0:0:
200,112,47310,1,2,0:0:0:0:
220,40,47484,2,0,P|247:53|271:89,1,75,0|2,0:0|0:0,0:0:0:0:
316,152,47833,2,0,P|340:187|367:201,1,75,8|2,0:0|0:0,0:0:0:0:
472,128,48182,6,0,P|428:56|368:24,2,150,4|0|4,0:0|0:0|0:0,0:0:0:0:
336,192,49228,1,0,0:0:0:0:
472,256,49577,2,0,P|428:328|372:358,1,150,4|4,0:0|0:0,0:0:0:0:
296,348,50100,5,0,0:0:0:0:
279,227,50275,1,0,0:0:0:0:
222,334,50449,1,0,0:0:0:0:
331,281,50624,1,0,0:0:0:0:
211,260,50798,1,0,0:0:0:0:
88,288,50972,6,0,P|48:248|40:188,1,120,4|0,0:0|0:0,0:0:0:0:
44,128,51496,1,0,0:0:0:0:
100,104,51670,2,0,P|154:89|210:112,1,120,0|8,0:0|0:0,0:0:0:0:
260,148,52193,2,0,P|315:171|370:156,2,120
236,92,53065,2,0,L|228:220,1,120,0|8,0:0|0:0,0:0:0:0:
212,332,53763,6,0,P|268:356|324:332,1,120
360,292,54286,1,0,0:0:0:0:
396,244,54461,2,0,P|448:223|504:247,1,120,0|8,0:0|0:0,0:0:0:0:
504,308,54984,2,0,L|524:184,2,120
460,352,55856,2,0,P|404:368|348:348,1,120,0|8,0:0|0:0,0:0:0:0:
244,288,56554,6,0,P|188:268|132:284,1,120,4|0,0:0|0:0,0:0:0:0:
80,316,57077,1,0,0:0:0:0:
32,280,57251,2,0,P|12:224|28:168,1,120,0|8,0:0|0:0,0:0:0:0:
64,120,57775,2,0,P|80:64|60:8,2,120
8,140,58647,2,0,L|128:136,1,120.000003814698,0|8,0:0|0:0,0:0:0:0:
188,176,59170,5,0,0:0:0:0:
188,176,59257,1,0,0:0:0:0:
188,176,59344,2,0,P|256:208|332:172,1,150,4|8,0:0|0:0,0:0:0:0:
364,40,60042,2,0,P|296:8|220:44,1,150,4|8,0:0|0:0,0:0:0:0:
192,180,60740,2,0,P|260:212|336:176,1,150,4|8,0:0|0:0,0:0:0:0:
368,44,61438,2,0,P|300:12|224:48,1,150,4|8,0:0|0:0,0:0:0:0:
108,116,62135,6,0,P|56:168|56:248,1,150,4|8,0:0|0:0,0:0:0:0:
100,300,62658,1,2,0:0:0:0:
148,356,62833,2,0,B|180:328|172:284|172:284|248:264,1,150,4|8,0:0|0:0,0:0:0:0:
296,316,63356,1,2,0:0:0:0:
280,192,63531,6,0,L|292:108,1,75
364,128,63879,2,0,L|352:212,1,75
428,216,64228,2,0,L|436:168,8,37.5
387,282,65100,5,0,0:0:0:0:
344,344,65275,1,8,0:0:0:0:
269,337,65449,1,0,0:0:0:0:
237,269,65624,1,0,0:0:0:0:
280,208,65798,5,8,0:0:0:0:
280,208,65885,1,8,0:0:0:0:
280,208,65972,2,0,P|293:162|285:110,1,93.75,8|0,0:0|0:0,0:0:0:0:
180,48,66321,6,0,P|168:80|176:132,1,75,4|0,0:0|0:0,0:0:0:0:
100,144,66670,2,0,P|78:117|29:98,1,75,8|0,0:0|0:0,0:0:0:0:
32,176,67019,2,0,P|12:248|36:328,1,150,0|8,0:0|0:0,0:0:0:0:
92,360,67542,2,0,P|164:341|221:280,1,150,2|2,0:0|0:0,0:0:0:0:
224,216,68065,2,0,P|171:162|90:143,2,150,10|0|8,0:0|0:0|0:0,0:0:0:0:
284,260,68938,1,2,0:0:0:0:
296,332,69112,6,0,P|352:280|340:212,1,150,0|8,0:0|0:0,0:0:0:0:
268,80,69810,2,0,P|252:40|252:8,2,75,0|2|8,0:0|0:0|0:0,0:0:0:0:
324,28,70333,2,0,L|172:76,1,150,2|2,0:0|0:0,0:0:0:0:
108,96,70856,2,0,P|72:116|56:144,1,75,8|2,0:0|0:0,0:0:0:0:
0,196,71205,2,0,P|35:217|67:217,1,75
140,240,71554,2,0,P|140:198|124:170,1,75,8|0,0:0|0:0,0:0:0:0:
220,80,71903,6,0,P|264:152|272:220,2,150,4|8|0,0:0|0:0|0:0,0:0:0:0:
120,192,72949,1,8,0:0:0:0:
56,232,73124,2,0,P|120:268|184:228,1,150,2|0,0:0|0:0,0:0:0:0:
180,150,73647,2,0,P|120:116|56:152,2,150,8|0|8,0:0|0:0|0:0,0:0:0:0:
216,216,74519,1,0,0:0:0:0:
256,280,74693,6,0,P|328:300|400:264,1,150,0|8,0:0|0:0,0:0:0:0:
424,200,75217,1,2,0:0:0:0:
400,128,75391,2,0,P|392:88|400:56,2,75,0|2|8,0:0|0:0|0:0,0:0:0:0:
440,248,75914,2,0,P|432:320|368:364,1,150,2|0,0:0|0:0,0:0:0:0:
300,352,76438,2,0,P|264:344|228:356,1,75
156,376,76786,2,0,L|132:336,3,37.5
124,316,77135,6,0,L|80:220,1,93.75,8|0,0:0|0:0,0:0:0:0:
68,196,77397,5,0,0:0:0:0:
68,196,77484,2,0,P|60:160|76:108,1,75,4|0,0:0|0:0,0:0:0:0:
132,84,77833,2,0,P|140:120|124:172,1,75,8|0,0:0|0:0,0:0:0:0:
192,200,78182,2,0,P|212:128|196:48,1,150,0|8,0:0|0:0,0:0:0:0:
264,16,78705,2,0,P|316:69|393:95,1,150,2|2,0:0|0:0,0:0:0:0:
384,168,79228,2,0,P|311:186|250:240,1,150,8|0,0:0|0:0,0:0:0:0:
224,304,79751,1,2,0:0:0:0:
164,348,79926,2,0,P|128:364|88:356,1,75,8|0,0:0|0:0,0:0:0:0:
32,316,80275,6,0,P|16:256|36:164,1,150,0|8,0:0|0:0,0:0:0:0:
72,108,80798,1,2,0:0:0:0:
140,80,80972,2,0,P|176:68|200:24,2,75,0|2|8,0:0|0:0|0:0,0:0:0:0:
72,108,81496,2,0,P|24:156|8:240,1,150,2|2,0:0|0:0,0:0:0:0:
40,304,82019,2,0,L|128:304,1,75,8|2,0:0|0:0,0:0:0:0:
188,304,82368,2,0,P|224:296|252:264,1,75
288,204,82717,2,0,P|313:177|349:169,1,75,8|0,0:0|0:0,0:0:0:0:
476,168,83065,6,0,P|508:96|480:20,2,150,4|8|0,0:0|0:0|0:0,0:0:0:0:
348,248,84112,1,8,0:0:0:0:
312,312,84286,2,0,P|385:311|420:244,1,150,2|2,0:0|0:0,0:0:0:0:
380,180,84810,2,0,P|311:180|273:243,2,150,8|0|8,0:0|0:0|0:0,0:0:0:0:
492,76,85856,6,0,L|412:44,1,75
348,48,86205,2,0,L|278:75,1,75
228,128,86554,2,0,L|236:176,6,37.5
152,136,87251,6,0,B|168:204|168:204|196:244|256:236,2,150,4|4|4,0:0|0:0|0:0,0:0:0:0:
