osu file format v12

[General]
AudioFilename: Fantastic Future.mp3
AudioLeadIn: 1500
PreviewTime: 66157
Countdown: 0
SampleSet: Soft
StackLeniency: 0.7
Mode: 3
LetterboxInBreaks: 0

[Editor]
DistanceSpacing: 0.5
BeatDivisor: 4
GridSize: 4

[Metadata]
Title:Fantastic future (TV Size)
TitleUnicode:Fantastic future (TV Size)
Artist:Tamura Yukari
ArtistUnicode:田村ゆかり
Creator:Betsuto
Version:NM
Source:Hentai Ouji to Warawanai Neko
Tags:opening the "hentai" prince and the stony cat. j.c.staff yoto yokodera tsukiko tsutsukakushi azusa azuki tsukushi
BeatmapID:247235
BeatmapSetID:91301

[Difficulty]
HPDrainRate:7
CircleSize:4
OverallDifficulty:6
ApproachRate:5
SliderMultiplier:1.4
SliderTickRate:1

[Events]
//Background and Video events
Video,0,"Fantastic Future.avi"
0,0,"Hentai BG.jpg",0,0
//Break Periods
//Storyboard Layer 0 (Background)
//Storyboard Layer 1 (Fail)
//Storyboard Layer 2 (Pass)
//Storyboard Layer 3 (Foreground)
//Storyboard Sound Samples
//Background Colour Transformations
3,100,163,162,255

[TimingPoints]
751,348.837209302326,4,2,1,65,1,0
751,-100,4,2,1,75,0,0
11913,-100,4,2,1,75,0,1
22378,-100,4,2,1,75,0,0
66332,-100,4,2,1,75,0,1
87960,-100,4,2,1,75,0,0

[HitObjects]
192,192,402,1,4,0:1:0:0:
320,192,402,1,4,0:1:0:0:
64,192,751,1,0,1:0:0:0:
64,192,2146,1,0,1:0:0:0:
192,192,3541,1,0,1:0:0:0:
192,192,4937,1,0,1:0:0:0:
192,192,5634,1,0,1:0:0:0:
64,192,6332,1,0,1:0:0:0:
448,192,6332,1,4,0:0:0:0:
64,192,6681,1,0,1:0:0:0:
64,192,7030,1,0,1:0:0:0:
64,192,7378,1,0,1:0:0:0:
192,192,7727,1,0,1:0:0:0:
320,192,7727,1,4,0:0:0:0:
192,192,8076,1,0,1:0:0:0:
192,192,8425,1,0,1:0:0:0:
192,192,8774,1,0,1:0:0:0:
320,192,9123,1,0,1:0:0:0:
192,192,9123,1,4,0:0:0:0:
320,192,9471,1,0,1:0:0:0:
448,192,9820,1,0,1:0:0:0:
64,192,9820,1,4,0:0:0:0:
448,192,10169,1,0,1:0:0:0:
192,192,11564,1,4,0:1:0:0:
192,192,11913,1,0,1:0:0:0:
320,192,11913,1,4,0:0:0:0:
448,192,12262,1,8,0:0:0:0:
192,192,12611,1,0,1:0:0:0:
448,192,12960,1,8,0:0:0:0:
64,192,13309,1,0,1:0:0:0:
320,192,13657,1,8,0:0:0:0:
64,192,14006,1,0,1:0:0:0:
320,192,14355,1,8,0:0:0:0:
320,192,14704,1,0,1:0:0:0:
448,192,15053,1,8,0:0:0:0:
320,192,15402,1,0,1:0:0:0:
448,192,15751,1,8,0:0:0:0:
64,192,16099,1,0,1:0:0:0:
192,192,16448,1,8,0:0:0:0:
64,192,16797,1,0,1:0:0:0:
192,192,17146,1,8,0:0:0:0:
192,192,17495,1,0,1:0:0:0:
320,192,17495,1,4,0:0:0:0:
448,192,17844,1,8,0:0:0:0:
192,192,18192,1,0,1:0:0:0:
320,192,18541,1,8,0:0:0:0:
64,192,18890,1,0,1:0:0:0:
320,192,19239,1,8,0:0:0:0:
192,192,19588,1,0,1:0:0:0:
448,192,19937,1,8,0:0:0:0:
64,192,20285,1,0,1:0:0:0:
192,192,20285,1,4,0:0:0:0:
64,192,20634,1,0,1:0:0:0:
192,192,20983,1,0,1:0:0:0:
192,192,21332,1,0,1:0:0:0:
320,192,21681,1,0,1:0:0:0:
448,192,21681,1,0,0:0:0:0:
320,192,22030,1,0,1:0:0:0:
448,192,22030,1,0,0:0:0:0:
320,192,22378,1,0,1:0:0:0:
448,192,22378,1,0,0:0:0:0:
64,192,22727,1,0,1:0:0:0:
64,192,23076,1,0,1:0:0:0:
320,192,23076,1,4,0:0:0:0:
192,192,23425,1,8,0:0:0:0:
64,192,23774,1,0,1:0:0:0:
192,192,24123,1,8,0:0:0:0:
320,192,24471,1,0,1:0:0:0:
448,192,24820,1,8,0:0:0:0:
320,192,25169,1,0,1:0:0:0:
448,192,25518,1,8,0:0:0:0:
192,192,25867,1,0,1:0:0:0:
320,192,25867,1,4,0:0:0:0:
448,192,26216,1,8,0:0:0:0:
192,192,26564,1,0,1:0:0:0:
320,192,26564,1,4,0:0:0:0:
448,192,26913,1,8,0:0:0:0:
64,192,27262,1,0,1:0:0:0:
448,192,27262,1,4,0:0:0:0:
64,192,27611,1,0,1:0:0:0:
64,192,27960,1,0,1:0:0:0:
448,192,27960,1,4,0:0:0:0:
192,192,28309,1,0,1:0:0:0:
192,192,28657,1,0,1:0:0:0:
320,192,28657,1,4,0:0:0:0:
448,192,29006,1,8,0:0:0:0:
192,192,29355,1,0,1:0:0:0:
448,192,29704,1,8,0:0:0:0:
64,192,30053,1,0,1:0:0:0:
320,192,30402,1,8,0:0:0:0:
64,192,30751,1,0,1:0:0:0:
320,192,31099,1,8,0:0:0:0:
192,192,31448,1,0,1:0:0:0:
448,192,31797,1,8,0:0:0:0:
64,192,32146,1,0,1:0:0:0:
320,192,32495,1,8,0:0:0:0:
64,192,32844,1,0,1:0:0:0:
448,192,33192,1,8,0:0:0:0:
192,192,33541,1,0,1:0:0:0:
320,192,33890,1,8,0:0:0:0:
192,192,34239,1,0,1:0:0:0:
448,192,34588,1,8,0:0:0:0:
192,192,34937,1,0,1:0:0:0:
448,192,35285,1,8,0:0:0:0:
64,192,35634,1,0,1:0:0:0:
192,192,35983,1,8,0:0:0:0:
64,192,36332,1,0,1:0:0:0:
192,192,36681,1,8,0:0:0:0:
64,192,37030,1,0,1:0:0:0:
448,192,37378,1,8,0:0:0:0:
64,192,37727,1,0,1:0:0:0:
448,192,38076,1,8,0:0:0:0:
192,192,38425,1,0,1:0:0:0:
448,192,38425,1,2,0:0:0:0:
320,192,38774,1,8,0:0:0:0:
448,192,38774,1,2,0:0:0:0:
192,192,39123,1,0,1:0:0:0:
448,192,39123,1,2,0:0:0:0:
448,192,39471,1,2,0:0:0:0:
320,192,39471,1,8,0:0:0:0:
192,192,39820,1,0,1:0:0:0:
64,192,39820,1,4,0:0:0:0:
320,192,40169,1,8,0:0:0:0:
192,192,40518,1,0,1:0:0:0:
320,192,40867,1,8,0:0:0:0:
64,192,41216,1,0,1:0:0:0:
448,192,41564,1,8,0:0:0:0:
64,192,41913,1,0,1:0:0:0:
448,192,42262,1,8,0:0:0:0:
192,192,42611,1,0,1:0:0:0:
448,192,42611,1,2,0:0:0:0:
320,192,42960,1,8,0:0:0:0:
192,192,43309,1,0,1:0:0:0:
320,192,43657,1,8,0:0:0:0:
448,192,44006,1,2,0:0:0:0:
192,192,44006,1,0,1:0:0:0:
320,192,44355,1,8,0:0:0:0:
192,192,44704,1,0,1:0:0:0:
448,192,44704,1,2,0:0:0:0:
320,192,45053,1,8,0:0:0:0:
64,192,45402,1,0,1:0:0:0:
448,192,45402,1,2,0:0:0:0:
192,192,45751,1,8,0:0:0:0:
64,192,46099,1,0,1:0:0:0:
192,192,46448,1,8,0:0:0:0:
64,192,46797,1,0,1:0:0:0:
448,192,46797,1,2,0:0:0:0:
320,192,47146,1,8,0:0:0:0:
64,192,47495,1,0,1:0:0:0:
320,192,47844,1,8,0:0:0:0:
192,192,48192,1,0,1:0:0:0:
64,192,48192,1,4,0:0:0:0:
320,192,48541,1,8,0:0:0:0:
64,192,48890,1,4,0:0:0:0:
192,192,48890,1,0,1:0:0:0:
320,192,49239,1,8,0:0:0:0:
64,192,49588,1,4,0:0:0:0:
192,192,49588,1,0,1:0:0:0:
64,192,49937,1,4,0:0:0:0:
192,192,49937,1,0,1:0:0:0:
64,192,50285,1,4,0:0:0:0:
192,192,50285,1,0,1:0:0:0:
64,192,50634,1,4,0:0:0:0:
192,192,50634,1,0,1:0:0:0:
192,192,50983,1,0,1:0:0:0:
320,192,50983,1,4,0:0:0:0:
192,192,51681,1,0,1:0:0:0:
320,192,52030,1,8,0:0:0:0:
64,192,52204,1,0,1:0:0:0:
64,192,52553,1,0,1:0:0:0:
64,192,53076,1,0,1:0:0:0:
448,192,53425,1,8,0:0:0:0:
192,192,53774,1,0,1:0:0:0:
192,192,54471,1,0,1:0:0:0:
320,192,54820,1,8,0:0:0:0:
64,192,54995,1,0,1:0:0:0:
64,192,55344,1,0,1:0:0:0:
64,192,55867,1,0,1:0:0:0:
320,192,56216,1,8,0:0:0:0:
192,192,56564,1,0,1:0:0:0:
320,192,56564,1,4,0:0:0:0:
192,192,57262,1,0,1:0:0:0:
448,192,57611,1,8,0:0:0:0:
192,192,57785,1,0,1:0:0:0:
192,192,58134,1,0,1:0:0:0:
192,192,58657,1,0,1:0:0:0:
192,192,59006,1,0,1:0:0:0:
448,192,59006,1,8,0:0:0:0:
64,192,59355,1,0,1:0:0:0:
320,192,59355,1,4,0:0:0:0:
448,192,59355,1,2,0:0:0:0:
192,192,59704,1,8,0:0:0:0:
448,192,60053,1,2,0:0:0:0:
64,192,60053,1,0,1:0:0:0:
192,192,60402,1,8,0:0:0:0:
448,192,60751,1,2,0:0:0:0:
192,192,60751,1,0,1:0:0:0:
320,192,61099,1,8,0:0:0:0:
192,192,61448,1,0,1:0:0:0:
448,192,61448,1,2,0:0:0:0:
320,192,61797,1,8,0:0:0:0:
448,192,62146,1,2,0:0:0:0:
64,192,62146,1,0,1:0:0:0:
320,192,62146,1,4,0:0:0:0:
192,192,62495,1,8,0:0:0:0:
64,192,62844,1,0,1:0:0:0:
320,192,62844,1,4,0:0:0:0:
192,192,63192,1,8,0:0:0:0:
64,192,63541,1,0,1:0:0:0:
320,192,63890,1,0,1:0:0:0:
192,192,64239,1,0,1:0:0:0:
448,192,64588,1,8,0:0:0:0:
64,192,64937,1,0,1:0:0:0:
448,192,65285,1,8,0:0:0:0:
192,192,65634,128,0,65983:0:0:0:0:
320,192,65983,1,4,0:1:0:0:
64,192,66332,1,0,1:0:0:0:
320,192,66332,1,4,0:0:0:0:
448,192,66332,1,2,0:0:0:0:
448,192,66681,1,8,0:0:0:0:
64,192,67030,1,0,1:0:0:0:
448,192,67378,1,8,0:0:0:0:
192,192,67727,1,0,1:0:0:0:
320,192,68076,1,8,0:0:0:0:
192,192,68425,1,0,1:0:0:0:
320,192,68774,1,8,0:0:0:0:
64,192,69123,1,0,1:0:0:0:
448,192,69123,1,2,0:0:0:0:
320,192,69471,1,8,0:0:0:0:
64,192,69820,1,0,1:0:0:0:
320,192,70169,1,8,0:0:0:0:
192,192,70518,1,0,1:0:0:0:
448,192,70867,1,8,0:0:0:0:
192,192,71216,1,0,1:0:0:0:
448,192,71564,1,8,0:0:0:0:
64,192,71913,1,0,1:0:0:0:
320,192,71913,1,4,0:0:0:0:
448,192,71913,1,2,0:0:0:0:
192,192,72262,1,8,0:0:0:0:
64,192,72611,1,0,1:0:0:0:
192,192,72960,1,8,0:0:0:0:
320,192,73309,1,0,1:0:0:0:
448,192,73657,1,8,0:0:0:0:
320,192,74006,1,0,1:0:0:0:
448,192,74355,1,8,0:0:0:0:
64,192,74704,1,0,1:0:0:0:
448,192,74704,1,2,0:0:0:0:
320,192,75053,1,8,0:0:0:0:
192,192,75402,1,0,1:0:0:0:
448,192,75751,1,8,0:0:0:0:
448,192,76099,1,2,0:0:0:0:
64,192,76099,1,0,1:0:0:0:
64,192,76448,1,0,1:0:0:0:
448,192,76448,1,2,0:0:0:0:
64,192,76797,1,0,1:0:0:0:
448,192,76797,1,2,0:0:0:0:
448,192,77146,1,2,0:0:0:0:
64,192,77146,1,0,1:0:0:0:
192,192,77495,1,0,1:0:0:0:
320,192,77495,1,4,0:0:0:0:
448,192,77495,1,2,0:0:0:0:
64,192,77844,1,8,0:0:0:0:
192,192,78192,1,0,1:0:0:0:
64,192,78541,1,8,0:0:0:0:
320,192,78890,1,0,1:0:0:0:
448,192,79239,1,8,0:0:0:0:
320,192,79588,1,0,1:0:0:0:
448,192,79937,1,8,0:0:0:0:
192,192,80285,1,0,1:0:0:0:
448,192,80285,1,2,0:0:0:0:
320,192,80634,1,8,0:0:0:0:
192,192,80983,1,0,1:0:0:0:
320,192,81332,1,8,0:0:0:0:
64,192,81681,1,0,1:0:0:0:
320,192,82030,1,8,0:0:0:0:
192,192,82378,1,0,1:0:0:0:
448,192,82727,1,8,0:0:0:0:
192,192,83076,1,2,0:0:0:0:
448,192,83076,1,4,0:0:0:0:
64,192,83076,1,0,1:0:0:0:
320,192,83425,1,8,0:0:0:0:
64,192,83774,1,0,1:0:0:0:
320,192,84123,1,8,0:0:0:0:
192,192,84471,1,0,1:0:0:0:
448,192,84820,1,8,0:0:0:0:
64,192,85169,1,0,1:0:0:0:
320,192,85518,1,8,0:0:0:0:
192,192,85867,1,0,1:0:0:0:
448,192,85867,1,2,0:0:0:0:
64,192,85867,1,4,0:0:0:0:
320,192,86216,1,8,0:0:0:0:
192,192,86564,1,0,1:0:0:0:
320,192,86913,1,8,0:0:0:0:
64,192,87262,1,0,1:0:0:0:
448,192,87262,1,4,0:0:0:0:
64,192,87611,1,0,1:0:0:0:
448,192,87611,1,4,0:0:0:0:
64,192,87960,1,0,1:0:0:0:
448,192,87960,1,4,0:0:0:0:
