osu file format v12

[General]
AudioFilename: Fantastic future.mp3
AudioLeadIn: 1500
PreviewTime: 66261
Countdown: 0
SampleSet: Soft
StackLeniency: 0.7
Mode: 0
LetterboxInBreaks: 0

[Editor]
DistanceSpacing: 1
BeatDivisor: 2
GridSize: 4

[Metadata]
Title:Fantastic future (TV Size)
TitleUnicode:Fantastic future (TV Size)
Artist:Tamura Yukari
ArtistUnicode:田村ゆかり
Creator:[ Zzz ]
Version:Hard
Source:Hentai Ouji to Warawanai Neko
Tags:Opening SCIILibery 0gre KG2161012
BeatmapID:246059
BeatmapSetID:89013

[Difficulty]
HPDrainRate:5
CircleSize:4
OverallDifficulty:6
ApproachRate:7
SliderMultiplier:1.6
SliderTickRate:1

[Events]
//Background and Video events
0,0,"BG.jpg",0,0
Video,0,"Fantastic future.avi"
//Break Periods
//Storyboard Layer 0 (Background)
//Storyboard Layer 1 (Fail)
//Storyboard Layer 2 (Pass)
//Storyboard Layer 3 (Foreground)
//Storyboard Sound Samples
//Background Colour Transformations
3,100,163,162,255

[TimingPoints]
680,348.837209302326,4,2,1,60,1,0
6261,-100,4,2,1,80,0,0
11842,-100,4,2,1,80,0,0
23005,-100,4,2,1,80,0,0
28586,-100,4,2,1,80,0,0
50912,-133.333333333333,4,2,1,80,0,0
58761,-100,4,2,1,80,0,0
66261,-100,4,2,1,80,0,1
87889,-100,4,2,1,80,0,0

[HitObjects]
176,332,680,2,0,P|96:332|40:276,2,160,4|0|2,0:0|0:0|0:0,0:0:0:0:
256,104,1726,1,2,0:0:0:0:
320,56,1900,2,0,P|400:56|456:112,1,160,0|0,0:0|0:0,0:0:0:0:
484,184,2424,2,0,P|476:224|484:264,2,80,2|0|0,0:0|0:0|0:0,0:0:0:0:
331,136,3121,1,8,0:0:0:0:
192,52,3470,6,0,P|112:52|56:108,1,160,4|0,0:0|0:0,0:0:0:0:
28,180,3993,1,2,0:0:0:0:
52,256,4168,2,0,P|60:300|52:336,2,80,0|0|2,0:0|0:0|0:0,0:0:0:0:
124,220,4691,2,0,P|204:220|260:164,1,160,0|2,0:0|0:0,0:0:0:0:
324,120,5214,2,0,P|360:112|404:120,2,80,2|0|2,0:0|0:0|0:0,0:0:0:0:
275,273,5912,1,8,0:0:0:0:
124,220,6261,6,0,P|68:164|68:88,1,160,4|8,0:0|0:0,0:0:0:0:
213,18,6959,2,0,P|269:74|269:150,1,160,2|8,0:0|0:0,0:0:0:0:
197,187,7482,1,0,0:0:0:0:
124,220,7656,2,0,P|124:296|180:352,1,160,4|8,0:0|0:0,0:0:0:0:
328,288,8354,2,0,P|328:212|272:156,2,160,0|8|6,0:0|0:0|0:0,0:0:0:0:
280,352,9226,1,2,0:0:0:0:
204,376,9400,1,10,0:0:0:0:
124,368,9575,1,2,0:0:0:0:
60,320,9749,2,2,L|28:352,4,40,2|2|2|2|8,0:0|0:0|0:0|0:0|0:0,0:0:0:0:
32,244,10273,6,0,P|32:164|88:108,1,160,0|0,0:0|0:0,0:0:0:0:
164,124,10796,2,0,P|244:124|300:68,1,160,8|0,0:0|0:0,0:0:0:0:
364,24,11319,2,0,L|404:24,2,40,2|2|8,0:0|0:0|0:0,0:0:0:0:
472,184,11842,6,0,P|480:224|472:264,1,80,6|0,0:0|0:0,0:0:0:0:
400,228,12191,2,0,P|320:228|264:284,2,160,8|0|8,0:0|0:0|0:0,0:0:0:0:
364,300,13063,2,0,P|308:244|308:164,1,160
356,104,13586,2,0,P|364:60|356:24,1,80,8|0,0:0|0:0,0:0:0:0:
284,60,13935,2,0,P|248:68|205:60,1,80,0|0,0:0|0:0,0:0:0:0:
126,53,14284,2,0,L|98:81,2,40,8|0|0,0:0|0:0|0:0,0:0:0:0:
162,125,14633,6,0,P|162:205|218:261,1,160,4|8,0:0|0:0,0:0:0:0:
288,292,15156,1,0,0:0:0:0:
368,284,15331,2,0,P|400:304|424:340,2,80,0|0|8,0:0|0:0|0:0,0:0:0:0:
376,204,15854,2,0,P|376:124|320:68,1,160
248,40,16377,2,0,P|208:48|168:40,1,80,8|0,0:0|0:0,0:0:0:0:
116,148,16726,2,0,P|156:140|196:148,1,80,0|2,0:0|0:0,0:0:0:0:
304,164,17075,2,0,P|294:199|304:244,1,80,8|0,0:0|0:0,0:0:0:0:
331,268,17336,1,0,0:0:0:0:
368,284,17424,6,0,P|444:284|500:228,2,160,4|8|0,0:0|0:0|0:0,0:0:0:0:
256,72,18470,1,8,0:0:0:0:
184,36,18645,2,0,P|104:36|48:92,1,160
24,164,19168,2,0,P|32:200|24:244,1,80,8|0,0:0|0:0,0:0:0:0:
64,312,19517,2,0,L|120:368,1,80,0|0,0:0|0:0,0:0:0:0:
164,300,19866,2,0,L|136:272,2,40,8|0|0,0:0|0:0|0:0,0:0:0:0:
236,336,20214,5,6,0:0:0:0:
316,328,20389,1,2,0:0:0:0:
380,280,20563,1,10,0:0:0:0:
416,208,20738,1,2,0:0:0:0:
412,128,20912,2,2,L|440:100,4,40,4|2|2|2|8,0:0|0:0|0:0|0:0|0:0,0:0:0:0:
364,64,21435,6,0,P|288:64|232:8,1,160,4|0,0:0|0:0,0:0:0:0:
160,44,21959,2,0,L|160:204,1,160,12|8,0:0|0:0,0:0:0:0:
36,236,22656,2,2,L|36:196,3,40
36,236,23005,6,0,L|92:292,1,80,6|0,0:0|0:0,0:0:0:0:
204,248,23354,2,0,L|204:168,1,80,10|0,0:0|0:0,0:0:0:0:
108,96,23703,2,0,P|72:104|28:96,2,80,2|0|10,0:0|0:0|0:0,0:0:0:0:
180,60,24226,1,0,0:0:0:0:
244,12,24400,2,0,P|284:4|324:12,1,80,2|0,0:0|0:0,0:0:0:0:
364,80,24749,2,0,P|324:88|284:80,1,80,10|0,0:0|0:0,0:0:0:0:
224,132,25098,2,0,P|224:216|276:268,1,160,2|8,0:0|0:0,0:0:0:0:
348,300,25621,1,0,0:0:0:0:
348,300,25709,1,0,0:0:0:0:
348,300,25796,6,0,P|388:292|428:300,1,80,6|0,0:0|0:0,0:0:0:0:
488,196,26145,2,0,P|496:156|488:116,1,80,8|0,0:0|0:0,0:0:0:0:
390,49,26493,2,0,P|350:57|310:49,1,80,8|0,0:0|0:0,0:0:0:0:
224,132,26842,2,0,P|216:168|224:212,1,80,8|0,0:0|0:0,0:0:0:0:
294,172,27191,5,4,0:0:0:0:
292,92,27366,1,2,0:0:0:0:
224,52,27540,1,2,0:0:0:0:
152,84,27714,1,2,0:0:0:0:
152,164,27889,2,2,L|120:196,4,40,4|2|2|2|2,0:0|0:0|0:0|0:0|0:0,0:0:0:0:
224,132,28412,1,2,0:0:0:0:
263,139,28499,1,2,0:0:0:0:
302,133,28586,6,0,P|382:133|438:189,1,160,4|8,0:0|0:0,0:0:0:0:
456,264,29110,1,0,0:0:0:0:
418,334,29284,2,0,P|454:342|498:334,2,80,0|0|8,0:0|0:0|0:0,0:0:0:0:
372,268,29807,2,0,P|292:268|236:324,2,160,0|0|0,0:0|0:0|0:0,0:0:0:0:
408,196,30680,2,0,P|420:152|408:116,1,80,2|0,0:0|0:0,0:0:0:0:
344,76,31028,2,0,P|332:120|344:156,1,80,8|0,0:0|0:0,0:0:0:0:
408,196,31377,6,0,P|408:276|352:332,1,160,4|8,0:0|0:0,0:0:0:0:
244,284,31900,2,0,P|244:204|300:148,1,160,0|0,0:0|0:0,0:0:0:0:
372,120,32424,2,0,P|404:92|412:56,1,80,8|2,0:0|0:0,0:0:0:0:
332,52,32773,2,0,P|296:60|252:52,1,80
100,24,33121,2,0,P|142:16|178:24,1,80,8|0,0:0|0:0,0:0:0:0:
139,93,33470,2,2,L|139:133,2,40,2|0|0,0:0|0:0|0:0,0:0:0:0:
100,24,33819,1,8,0:0:0:0:
372,120,34168,6,0,P|372:196|316:252,1,160,4|8,0:0|0:0,0:0:0:0:
236,260,34691,1,0,0:0:0:0:
198,189,34866,2,0,P|238:181|278:189,2,80,0|0|8,0:0|0:0|0:0,0:0:0:0:
236,260,35389,1,2,0:0:0:0:
160,120,35738,1,0,0:0:0:0:
196,356,36086,2,0,P|276:356|332:300,2,160,2|0|2,0:0|0:0|0:0,0:0:0:0:
133,304,36959,6,0,P|53:304|-1:356,1,160,4|8,0:0|0:0,0:0:0:0:
74,384,37482,2,0,P|74:304|18:248,1,160,2|0,0:0|0:0,0:0:0:0:
4,172,38005,2,0,P|-8:132|4:92,1,80,8|0,0:0|0:0,0:0:0:0:
73,133,38354,2,0,B|113:105|181:161|233:133,2,160,4|4|6,0:0|0:0|0:0,0:0:0:0:
4,172,39226,1,2,0:0:0:0:
72,212,39400,1,4,0:0:0:0:
4,252,39575,1,2,0:0:0:0:
72,292,39749,6,0,B|112:320|180:264|232:292,1,160,4|8,0:0|0:0,0:0:0:0:
300,324,40273,1,0,0:0:0:0:
370,288,40447,2,0,P|380:323|368:364,2,80,0|0|8,0:0|0:0|0:0,0:0:0:0:
302,245,40970,2,0,L|186:129,1,160
128,80,41493,2,0,P|120:36|128:0,1,80,8|0,0:0|0:0,0:0:0:0:
200,40,41842,2,0,P|240:32|280:40,1,80,2|0,0:0|0:0,0:0:0:0:
422,83,42191,2,0,P|382:91|344:84,1,80,8|2,0:0|0:0,0:0:0:0:
456,4,42540,6,0,P|504:64|476:144,1,160,6|8,0:0|0:0,0:0:0:0:
412,176,43063,2,0,P|332:176|276:232,1,160
212,276,43586,2,0,P|172:284|132:276,1,80,8|0,0:0|0:0,0:0:0:0:
172,206,43935,2,0,P|172:126|116:70,1,160,0|8,0:0|0:0,0:0:0:0:
86,145,44459,2,0,P|166:145|222:89,1,160,0|0,0:0|0:0,0:0:0:0:
284,44,44982,1,8,0:0:0:0:
284,44,45331,6,0,P|364:44|420:100,1,160,4|8,0:0|0:0,0:0:0:0:
432,176,45854,1,0,0:0:0:0:
384,240,46028,2,0,P|376:276|384:320,2,80,0|0|8,0:0|0:0|0:0,0:0:0:0:
304,252,46552,2,0,P|224:252|168:196,1,160,0|0,0:0|0:0,0:0:0:0:
116,140,47075,2,0,P|76:132|36:140,1,80,8|0,0:0|0:0,0:0:0:0:
77,209,47424,2,0,L|77:289,2,80,0|0|8,0:0|0:0|0:0,0:0:0:0:
116,140,47947,1,0,0:0:0:0:
192,116,48121,6,0,P|272:116|328:60,1,160,4|8,0:0|0:0,0:0:0:0:
252,32,48645,1,0,0:0:0:0:
252,32,48819,2,0,P|252:112|308:168,1,160,4|8,0:0|0:0,0:0:0:0:
380,196,49342,1,0,0:0:0:0:
444,244,49517,6,0,P|456:284|444:324,1,80,4|0,0:0|0:0,0:0:0:0:
332,281,49866,2,0,P|292:272|254:279,1,80,12|0,0:0|0:0,0:0:0:0:
140,316,50214,6,0,P|128:276|140:236,1,80,4|0,0:0|0:0,0:0:0:0:
168,164,50563,1,14,0:0:0:0:
119,100,50738,1,2,0:0:0:0:
196,91,50912,6,0,L|316:91,1,120.000004577637,6|8,0:0|0:0,0:0:0:0:
396,92,51435,1,0,0:0:0:0:
468,120,51610,2,0,P|512:164|512:220,1,120.000004577637,2|8,0:0|0:0,0:0:0:0:
440,192,52133,2,0,L|352:280,2,120.000004577637,2|2|2,0:0|0:0|0:0,0:0:0:0:
468,120,53005,1,10,0:0:0:0:
256,360,53703,6,0,L|136:360,1,120.000004577637,6|8,0:0|0:0,0:0:0:0:
56,360,54226,1,0,0:0:0:0:
96,292,54401,2,0,P|96:236|52:192,1,120.000004577637,2|8,0:0|0:0,0:0:0:0:
24,264,54924,2,0,L|140:216,2,120.000004577637,2|2|2,0:0|0:0|0:0,0:0:0:0:
24,264,55796,1,10,0:0:0:0:
168,204,56145,1,8,0:0:0:0:
168,204,56493,6,0,L|288:204,1,120.000004577637,6|8,0:0|0:0,0:0:0:0:
364,184,57016,1,0,0:0:0:0:
396,112,57191,2,0,P|436:152|436:216,1,120.000004577637,2|8,0:0|0:0,0:0:0:0:
364,184,57714,2,0,L|276:272,2,120.000004577637,2|2|2,0:0|0:0|0:0,0:0:0:0:
396,112,58586,1,10,0:0:0:0:
255,18,58935,1,2,0:0:0:0:
183,54,59110,1,2,0:0:0:0:
135,118,59284,6,0,P|135:198|191:254,1,160,4|8,0:0|0:0,0:0:0:0:
263,282,59807,1,0,0:0:0:0:
335,246,59982,2,0,B|375:206|447:278|487:238,1,160,4|8,0:0|0:0,0:0:0:0:
511,162,60505,1,0,0:0:0:0:
475,90,60680,2,0,B|435:50|363:122|323:82,2,160,4|8|4,0:0|0:0|0:0,0:0:0:0:
511,162,61552,1,2,0:0:0:0:
487,238,61726,1,8,0:0:0:0:
487,238,62075,6,0,P|435:290|351:290,1,160,4|8,0:0|0:0,0:0:0:0:
283,250,62598,1,0,0:0:0:0:
275,170,62773,2,0,P|275:90|219:34,1,160,4|8,0:0|0:0,0:0:0:0:
143,22,63296,1,0,0:0:0:0:
84,76,63470,6,0,L|28:132,1,80,4|0,0:0|0:0,0:0:0:0:
140,176,63819,2,0,L|196:120,1,80,4|0,0:0|0:0,0:0:0:0:
63,208,64168,2,0,L|63:252,3,40,4|0|0|0,0:0|0:0|0:0|0:0,0:0:0:0:
76,286,64517,2,0,L|104:314,3,40,4|0|0|0,0:0|0:0|0:0|0:0,0:0:0:0:
139,334,64866,6,0,P|179:342|219:334,1,80,2|0,0:0|0:0,0:0:0:0:
359,290,65214,2,0,P|319:282|280:289,1,80,8|2,0:0|0:0,0:0:0:0:
320,360,65563,1,0,0:0:0:0:
400,360,65738,2,0,L|428:332,2,40,0|0|8,0:0|0:0|0:0,0:0:0:0:
139,334,66261,6,0,P|63:334|7:278,1,160,4|8,0:0|0:0,0:0:0:0:
8,196,66784,1,0,0:0:0:0:
128,127,66959,2,0,P|90:120|50:128,1,80
89,197,67307,1,8,0:0:0:0:
148,252,67482,2,0,P|228:252|284:196,1,160
348,152,68005,2,0,P|388:144|428:152,1,80,8|0,0:0|0:0,0:0:0:0:
389,300,68354,2,0,P|381:260|389:222,1,80,0|0,0:0|0:0,0:0:0:0:
459,260,68703,2,0,L|499:260,2,40,8|0|0,0:0|0:0|0:0,0:0:0:0:
460,340,69052,6,0,P|392:380|320:340,1,160,2|8,0:0|0:0,0:0:0:0:
288,276,69575,1,0,0:0:0:0:
252,204,69749,2,0,P|290:196|330:204,1,80
288,276,70098,1,8,0:0:0:0:
208,272,70273,2,0,P|172:204|208:136,1,160
266,81,70796,2,0,P|278:41|266:1,1,80,8|0,0:0|0:0,0:0:0:0:
117,40,71145,2,0,P|156:48|196:40,1,80,0|0,0:0|0:0,0:0:0:0:
48,4,71493,2,0,P|38:39|50:79,1,80,8|0,0:0|0:0,0:0:0:0:
76,108,71755,1,0,0:0:0:0:
100,140,71842,6,0,P|112:176|100:220,1,80,0|0,0:0|0:0,0:0:0:0:
32,256,72191,2,0,P|20:220|32:176,1,80,8|0,0:0|0:0,0:0:0:0:
100,140,72540,2,0,P|180:140|236:84,1,160,0|8,0:0|0:0,0:0:0:0:
300,40,73063,2,0,P|380:40|436:96,1,160
408,168,73586,2,0,P|400:208|408:248,1,80,8|0,0:0|0:0,0:0:0:0:
479,210,73935,2,0,L|319:210,1,160,2|8,0:0|0:0,0:0:0:0:
259,264,74459,1,0,0:0:0:0:
203,321,74633,6,0,P|123:321|67:265,1,160,2|8,0:0|0:0,0:0:0:0:
68,188,75156,1,0,0:0:0:0:
140,153,75331,2,0,P|149:195|136:233,2,80,2|0|8,0:0|0:0|0:0,0:0:0:0:
68,188,75854,2,0,L|228:188,1,160
292,236,76377,2,0,P|332:244|370:236,1,80,8|2,0:0|0:0,0:0:0:0:
331,162,76726,2,0,P|324:120|332:84,2,80,0|0|8,0:0|0:0|0:0,0:0:0:0:
404,128,77249,1,0,0:0:0:0:
404,128,77336,1,0,0:0:0:0:
404,128,77424,6,0,P|328:128|272:72,2,160,4|8|2,0:0|0:0|0:0,0:0:0:0:
460,184,78296,2,0,P|471:225|460:264,1,80,0|8,0:0|0:0,0:0:0:0:
391,222,78645,2,0,L|231:222,1,160,0|0,0:0|0:0,0:0:0:0:
187,158,79168,2,0,P|147:150|108:157,1,80,8|0,0:0|0:0,0:0:0:0:
148,227,79517,2,0,L|148:267,3,40
161,305,79866,2,0,L|189:333,3,40,8|0|0|0,0:0|0:0|0:0|0:0,0:0:0:0:
227,346,80214,6,0,P|307:346|363:290,1,160,4|8,0:0|0:0,0:0:0:0:
363,214,80738,1,0,0:0:0:0:
363,134,80912,2,0,P|383:98|419:78,2,80,0|0|8,0:0|0:0|0:0,0:0:0:0:
440,155,81435,2,0,L|324:39,1,160
223,158,81959,2,0,P|263:166|300:158,1,80,8|0,0:0|0:0,0:0:0:0:
199,41,82307,2,0,L|86:155,1,160,0|8,0:0|0:0,0:0:0:0:
35,218,82831,1,0,0:0:0:0:
35,218,82918,1,0,0:0:0:0:
35,218,83005,6,0,P|19:290|35:378,2,160,4|8|0,0:0|0:0|0:0,0:0:0:0:
115,226,83877,2,0,P|155:234|195:226,1,80,0|8,0:0|0:0,0:0:0:0:
259,182,84226,2,0,P|343:182|395:234,1,160
435,302,84749,2,0,L|435:382,2,80,8|0|0,0:0|0:0|0:0,0:0:0:0:
479,234,85273,2,0,L|479:154,2,80,0|8|0,0:0|0:0|0:0,0:0:0:0:
435,302,85796,6,0,P|355:302|299:246,1,160,4|8,0:0|0:0,0:0:0:0:
259,182,86319,1,0,0:0:0:0:
179,182,86493,2,2,L|151:210,5,40,6|2|2|2|10|2,0:0|0:0|0:0|0:0|0:0|0:0,0:0:0:0:
131,246,87017,2,0,P|131:328|183:380,1,160,4|0,0:0|0:0,0:0:0:0:
215,290,87540,2,0,L|375:290,1,160,4|8,0:0|0:0,0:0:0:0:
