osu file format v12

[General]
AudioFilename: Fantastic future.mp3
AudioLeadIn: 2000
PreviewTime: 71861
Countdown: 0
SampleSet: Soft
StackLeniency: 0.7
Mode: 0
LetterboxInBreaks: 0

[Editor]
Bookmarks: 176599,247413
DistanceSpacing: 0.9
BeatDivisor: 4
GridSize: 4

[Metadata]
Title:Fantastic future
TitleUnicode:Fantastic future
Artist:Tamura Yukari
ArtistUnicode:田村ゆかり
Creator:Natsu
Version:Xinely Moe
Source:Hentai Ouji to Warawanai Neko
Tags:Zeroarg P_A_N xinely opening
BeatmapID:255655
BeatmapSetID:94631

[Difficulty]
HPDrainRate:4
CircleSize:3
OverallDifficulty:4
ApproachRate:5
SliderMultiplier:1.2
SliderTickRate:2

[Events]
//Background and Video events
0,0,"465283-1440x900.jpg",0,0
//Break Periods
2,23303,33066
2,94466,104229
2,165629,175391
2,236791,243764
//Storyboard Layer 0 (Background)
//Storyboard Layer 1 (Fail)
//Storyboard Layer 2 (Pass)
//Storyboard Layer 3 (Foreground)
//Storyboard Sound Samples
//Background Colour Transformations
3,100,163,162,255

[TimingPoints]
778,348.837209302326,4,2,1,80,1,0
10545,-100,4,2,2,80,0,0
10894,-100,4,2,1,80,0,0
11591,-100,4,2,2,80,0,0
11940,-100,4,2,1,90,0,1
21708,-100,4,2,2,80,0,1
22057,-100,4,2,1,80,0,1
23102,-100,4,2,2,80,0,0
34615,-100,4,2,2,60,0,0
44033,-100,4,2,1,70,0,0
45778,-100,4,2,2,50,0,0
55196,-100,4,2,1,60,0,0
71940,-100,4,2,1,80,0,1
94266,-100,4,2,2,50,0,0
105778,-100,4,2,1,50,0,0
143103,-100,4,2,1,80,0,1
165429,-100,4,2,2,50,0,0
176591,-100,4,2,1,50,0,0
191068,-100,4,2,2,50,0,0
203103,-100,4,2,1,60,0,0
214266,-100,4,2,1,80,0,1
225429,-100,4,2,2,50,0,0
226824,-100,4,2,1,60,0,0
247405,-100,4,2,1,50,0,0

[Colours]
Combo1 : 255,255,100
Combo2 : 240,118,254
Combo3 : 0,163,191
Combo4 : 106,248,71

[HitObjects]
160,64,778,2,0,P|216:44|280:68,2,120,4|0|2,0:0|0:0|0:0,0:0:0:0:
68,124,1824,2,0,P|56:188|112:240,1,120
160,308,2522,1,0,0:0:0:0:
252,252,2871,1,2,0:0:0:0:
412,100,3568,6,0,B|364:68|364:68|284:68,1,120,8|0,0:0|0:0,0:0:0:0:
204,116,4266,2,0,B|252:148|252:148|332:148,1,120,2|0,0:0|0:0,0:0:0:0:
412,100,4964,2,0,P|432:160|408:228,1,120,8|2,0:0|0:0,0:0:0:0:
488,296,5661,2,0,P|440:328|360:312,1,120,10|0,0:0|0:0,0:0:0:0:
288,260,6359,5,4,0:0:0:0:
228,172,6708,1,8,0:0:0:0:
180,268,7057,1,10,0:0:0:0:
288,260,7405,2,0,P|344:292|404:276,1,120,8|12,0:0|0:0,0:0:0:0:
412,176,8103,2,0,P|356:144|296:160,1,120,8|10,0:0|0:0,0:0:0:0:
92,116,9150,6,0,P|64:172|96:236,1,120,4|8,0:0|0:0,0:0:0:0:
140,316,9847,2,0,P|192:248|140:172,1,180,10|2,0:0|0:0,0:0:0:0:
140,64,10719,2,0,L|204:80,1,60,0|0,0:0|0:0,0:0:0:0:
296,36,11243,2,0,B|288:84|316:112|296:168,1,120,2|8,0:0|0:0,0:0:0:0:
216,220,11940,5,4,0:0:0:0:
312,272,12289,1,8,0:0:0:0:
412,316,12638,1,10,0:0:0:0:
468,224,12987,2,0,L|480:152,1,60,8|0,0:0|0:0,0:0:0:0:
372,152,13510,2,0,L|376:224,1,60,0|8,0:0|0:0,0:0:0:0:
412,316,14033,2,0,P|344:336|296:308,1,120,10|8,0:0|0:0,0:0:0:0:
196,308,14731,6,0,P|172:328|128:336,2,60,8|0|8,0:0|0:0|0:0,0:0:0:0:
280,240,15429,2,0,P|307:226|352:230,2,60,10|0|8,0:0|0:0|0:0,0:0:0:0:
228,248,15952,2,0,P|148:197|120:112,1,180,0|8,0:0|0:0,0:0:0:0:
228,128,16824,2,0,P|289:109|338:129,1,120,10|8,0:0|0:0,0:0:0:0:
320,232,17522,5,10,0:0:0:0:
408,296,17871,1,8,0:0:0:0:
496,232,18219,1,10,0:0:0:0:
448,136,18568,2,0,P|460:76|420:28,1,120,8|8,0:0|0:0,0:0:0:0:
360,116,19266,2,0,P|326:166|263:172,1,120,8|10,0:0|0:0,0:0:0:0:
200,92,19964,1,8,0:0:0:0:
120,164,20312,6,0,L|180:288,1,120,12|0,0:0|0:0,0:0:0:0:
256,340,21010,2,0,L|320:332,1,60,8|0,0:0|0:0,0:0:0:0:
368,320,21359,2,0,P|424:296|460:232,1,120,8|4,0:0|0:0,0:0:0:0:
392,160,22057,2,0,P|336:184|300:248,1,120,8|8,0:0|0:0,0:0:0:0:
216,296,22754,1,8,0:0:0:0:
136,224,23103,5,4,0:0:0:0:
64,80,34266,5,4,0:0:0:0:
44,188,34615,1,8,0:0:0:0:
76,296,34964,2,0,B|144:268|144:268|200:296|264:236,1,180,10|2,0:0|0:0,0:0:0:0:
348,228,35836,2,0,B|344:292|344:292|312:344,1,120,2|2,0:0|0:0,0:0:0:0:
244,253,36533,2,0,B|248:189|248:189|285:135,1,120,2|2,0:0|0:0,0:0:0:0:
332,124,37057,6,0,P|388:124|456:168,1,120,8|8,0:0|0:0,0:0:0:0:
480,196,37580,2,0,P|452:252|236:244,1,300,2|12,0:0|0:0,0:0:0:0:
172,332,38801,1,8,0:0:0:0:
96,256,39150,1,10,0:0:0:0:
172,180,39498,1,8,0:0:0:0:
244,256,39847,5,8,0:0:0:0:
352,256,40196,2,0,P|420:240|464:128,1,180,8|2,0:0|0:0,0:0:0:0:
404,60,41068,2,0,P|348:36|288:64,1,120,2|2,0:0|0:0,0:0:0:0:
216,132,41766,2,0,P|272:156|332:128,1,120,2|2,0:0|0:0,0:0:0:0:
480,156,42638,6,0,P|460:208|396:236,1,120,12|10,0:0|0:0,0:0:0:0:
356,256,43161,2,0,P|264:276|200:224,1,180,0|0,0:0|0:0,0:0:0:0:
296,176,44033,1,10,0:0:0:0:
404,176,44382,1,10,0:0:0:0:
444,276,44731,1,10,0:0:0:0:
364,348,45080,1,10,0:0:0:0:
272,288,45429,5,6,0:0:0:0:
164,276,45778,2,0,P|104:276|64:236,2,120,8|10|8,0:0|0:0|0:0,0:0:0:0:
168,220,46650,2,0,L|168:88,1,120,0|0,0:0|0:0,0:0:0:0:
276,96,47347,2,0,L|276:228,1,120,0|0,0:0|0:0,0:0:0:0:
148,320,48219,6,0,P|96:348|16:324,1,120,10|8,0:0|0:0,0:0:0:0:
24,232,48917,2,0,P|76:204|156:228,1,120,8|8,0:0|0:0,0:0:0:0:
228,268,49615,1,10,0:0:0:0:
336,284,49964,1,8,0:0:0:0:
344,180,50312,2,0,L|344:60,2,120,10|8|8,0:0|0:0|0:0,0:0:0:0:
336,284,51359,6,0,L|380:324,2,60,8|0|10,0:0|0:0|0:0,0:0:0:0:
344,180,52057,1,8,0:0:0:0:
252,236,52405,2,0,P|220:292|164:304,1,120,8|8,0:0|0:0,0:0:0:0:
116,312,52929,2,0,P|44:268|52:168,1,180,0|8,0:0|0:0,0:0:0:0:
100,88,53801,6,0,P|192:28|300:108,1,240,4|4,0:0|0:0,0:0:0:0:
400,84,54847,1,0,0:0:0:0:
440,184,55196,1,10,0:0:0:0:
336,180,55545,2,0,P|280:208|252:268,1,120,10|10,0:0|0:0,0:0:0:0:
232,308,56068,2,0,P|208:352|188:364,2,60,8|10|8,0:0|0:0|0:0,0:0:0:0:
196,268,56591,6,0,P|169:169|260:68,1,240,6|10,0:0|0:0,0:0:0:0:
412,40,57812,2,0,P|396:100|340:128,1,120,8|8,0:0|0:0,0:0:0:0:
340,236,58510,2,0,L|288:188,1,60,8|10,0:0|0:0,0:0:0:0:
204,140,59033,1,8,0:0:0:0:
296,84,59382,6,0,P|384:28|496:88,1,240,12|10,0:0|0:0,0:0:0:0:
420,232,60603,2,0,P|396:272|428:356,2,120,8|8|8,0:0|0:0|0:0,0:0:0:0:
460,196,61475,2,0,L|404:80,1,120,2|8,0:0|0:0,0:0:0:0:
304,96,62173,6,0,P|216:152|104:92,1,240,12|10,0:0|0:0,0:0:0:0:
24,232,63394,2,0,P|52:288|108:324,1,120,2|8,0:0|0:0,0:0:0:0:
204,320,64091,2,0,L|284:292,1,60,8|10,0:0|0:0,0:0:0:0:
328,216,64615,1,8,0:0:0:0:
256,192,64964,12,0,67057,0:0:0:0:
360,160,67754,6,0,P|368:236|252:348,1,240,12|12,0:0|0:0,0:0:0:0:
172,288,68801,2,0,L|164:216,1,60,8|0,0:0|0:0,0:0:0:0:
160,176,69150,6,0,P|188:128|256:104,1,120,12|8,0:0|0:0,0:0:0:0:
296,88,69673,1,8,0:0:0:0:
348,76,69847,2,0,P|400:124|348:280,1,240,10|12,0:0|0:0,0:0:0:0:
260,308,70894,2,0,P|212:320|156:260,2,120,8|0|8,0:0|0:0|0:0,0:0:0:0:
368,316,71940,5,14,0:0:0:0:
452,248,72289,1,8,0:0:0:0:
364,188,72638,2,0,P|304:120|216:148,2,180,8|0|8,0:0|0:0|0:0,0:0:0:0:
312,284,74033,1,10,0:0:0:0:
364,188,74382,1,8,0:0:0:0:
452,124,74731,6,0,P|419:68|361:48,1,120,8|8,0:0|0:0,0:0:0:0:
264,60,75429,2,0,P|180:96|104:60,1,180,8|2,0:0|0:0,0:0:0:0:
104,172,76301,2,0,P|76:236|112:292,1,120,0|0,0:0|0:0,0:0:0:0:
132,324,76824,2,0,P|196:352|252:315,1,120,10|8,0:0|0:0,0:0:0:0:
204,232,77522,6,0,P|188:176|212:100,2,120,12|8|10,0:0|0:0|0:0,0:0:0:0:
292,168,78568,1,8,0:0:0:0:
380,104,78917,1,8,0:0:0:0:
476,156,79266,1,8,0:0:0:0:
476,268,79615,2,0,P|416:292|356:264,1,120,10|8,0:0|0:0,0:0:0:0:
268,220,80312,5,10,0:0:0:0:
256,112,80661,1,8,0:0:0:0:
160,72,81010,2,0,L|124:16,2,60,10|0|8,0:0|0:0|0:0,0:0:0:0:
96,160,81708,2,0,P|92:220|136:272,1,120,4|8,0:0|0:0,0:0:0:0:
232,280,82405,1,10,0:0:0:0:
232,56,83103,5,12,0:0:0:0:
340,44,83452,1,8,0:0:0:0:
424,112,83800,1,10,0:0:0:0:
392,216,84150,2,0,P|368:280|300:308,1,120,8|8,0:0|0:0,0:0:0:0:
240,240,84847,2,0,P|264:176|332:148,1,120,8|10,0:0|0:0,0:0:0:0:
372,64,85545,1,8,0:0:0:0:
268,32,85894,6,0,P|208:40|160:100,1,120,10|8,0:0|0:0,0:0:0:0:
240,160,86591,2,0,L|312:160,2,60,10|0|8,0:0|0:0|0:0,0:0:0:0:
176,248,87289,2,0,P|136:292|56:292,1,120,8|8,0:0|0:0,0:0:0:0:
36,204,87987,2,0,P|76:160|156:160,1,120,10|8,0:0|0:0,0:0:0:0:
240,160,88684,6,0,P|260:100|240:49,2,120,12|8|10,0:0|0:0|0:0,0:0:0:0:
136,188,89731,1,10,0:0:0:0:
148,296,90080,2,0,P|203:278|259:298,1,120,10|8,0:0|0:0,0:0:0:0:
364,328,90778,2,0,P|420:348|484:324,1,120,10|8,0:0|0:0,0:0:0:0:
256,192,91475,12,4,94266,0:0:0:0:
60,192,105429,5,2,0:0:0:0:
192,96,105952,2,0,P|156:104|128:96,2,60,0|8|0,0:0|0:0|0:0,0:0:0:0:
236,68,106475,2,0,P|272:60|300:68,1,60,10|10,0:0|0:0,0:0:0:0:
396,28,106998,1,4,0:0:0:0:
452,120,107347,1,8,0:0:0:0:
396,212,107696,1,0,0:0:0:0:
292,180,108045,6,0,P|276:195|256:227,1,60,8|12,0:0|0:0,0:0:0:0:
212,328,108568,1,8,0:0:0:0:
176,288,108743,2,0,P|156:180|216:68,1,240,0|0,0:0|0:0,0:0:0:0:
376,52,109964,6,0,P|432:104|412:208,2,180,8|0|12,0:0|0:0|0:0,0:0:0:0:
272,176,111533,2,0,P|308:180|340:176,2,60,0|10|0,0:0|0:0|0:0,0:0:0:0:
196,252,112231,1,8,0:0:0:0:
88,272,112580,1,8,0:0:0:0:
36,176,112929,2,0,P|41:113|81:74,1,120,2|0,0:0|0:0,0:0:0:0:
180,32,113626,6,0,P|216:36|252:64,1,60,8|12,0:0|0:0,0:0:0:0:
216,156,114150,1,8,0:0:0:0:
204,208,114324,2,0,P|272:256|384:244,1,180,0|8,0:0|0:0,0:0:0:0:
440,176,115196,2,0,P|484:132|492:68,1,120,2|2,0:0|0:0,0:0:0:0:
396,32,115894,2,0,P|352:76|344:140,1,120,2|2,0:0|0:0,0:0:0:0:
440,176,116591,5,14,0:0:0:0:
344,228,116940,2,0,P|280:208|228:228,1,120,8|10,0:0|0:0,0:0:0:0:
120,232,117638,2,0,P|148:288|212:304,1,120,8|10,0:0|0:0,0:0:0:0:
248,320,118161,2,0,P|308:332|372:292,1,120,2|2,0:0|0:0,0:0:0:0:
428,224,118859,1,0,0:0:0:0:
364,140,119208,6,0,P|336:116|304:100,1,60,0|10,0:0|0:0,0:0:0:0:
212,88,119731,1,8,0:0:0:0:
112,44,120080,1,8,0:0:0:0:
16,88,120429,2,0,P|8:124|16:164,1,60,8|0,0:0|0:0,0:0:0:0:
12,200,120778,2,0,P|36:252|116:288,1,120,12|8,0:0|0:0,0:0:0:0:
136,264,121301,2,0,P|220:236|296:276,1,180,0|8,0:0|0:0,0:0:0:0:
384,344,122173,5,10,0:0:0:0:
392,236,122522,2,0,P|448:228|504:164,2,120,8|10|8,0:0|0:0|0:0,0:0:0:0:
368,132,123568,1,10,0:0:0:0:
304,44,123917,2,0,L|376:24,2,60,8|0|10,0:0|0:0|0:0,0:0:0:0:
196,40,124615,1,8,0:0:0:0:
104,92,124964,6,0,B|92:144|128:176|176:168|176:168|200:132|248:132|288:148,1,240,4|4,0:0|0:0,0:0:0:0:
348,348,126359,2,0,P|408:332|456:268,1,120,14|6,0:0|0:0,0:0:0:0:
508,200,127057,1,14,0:0:0:0:
418,139,127405,2,0,L|368:172,1,60,8|8,0:0|0:0,0:0:0:0:
328,208,127754,6,0,P|292:260|172:252,2,180,12|8|8,0:0|0:0|0:0,0:0:0:0:
276,112,129150,2,0,P|302:64|362:44,1,120,0|0,0:0|0:0,0:0:0:0:
472,44,129847,1,10,0:0:0:0:
488,260,130545,6,0,P|368:312|264:264,1,240,12|10,0:0|0:0,0:0:0:0:
216,120,131766,2,0,P|184:176|216:236,1,120,10|8,0:0|0:0,0:0:0:0:
296,168,132464,2,0,L|355:159,1,60,8|10,0:0|0:0,0:0:0:0:
196,312,133336,6,0,P|248:340|304:315,2,120,12|0|10,0:0|0:0|0:0,0:0:0:0:
244,152,134557,2,0,P|192:124|135:148,1,120,10|8,0:0|0:0,0:0:0:0:
64,224,135254,2,0,L|103:285,1,60,8|8,0:0|0:0,0:0:0:0:
196,312,135778,1,8,0:0:0:0:
256,192,136126,12,2,138219,0:0:0:0:
160,172,138917,6,0,P|164:108|216:64,1,120,12|0,0:0|0:0,0:0:0:0:
304,36,139615,1,14,0:0:0:0:
400,84,139964,1,8,0:0:0:0:
412,192,140312,6,0,P|384:240|326:263,1,120,6|8,0:0|0:0,0:0:0:0:
276,280,140835,1,8,0:0:0:0:
224,292,141010,2,0,P|172:244|209:95,1,240,10|6,0:0|0:0,0:0:0:0:
320,68,142057,2,0,P|372:92|424:64,2,120,2|2|12,0:0|0:0|0:0,0:0:0:0:
216,36,143103,5,12,0:0:0:0:
116,80,143452,1,8,0:0:0:0:
164,176,143801,1,10,0:0:0:0:
264,140,144150,2,0,P|316:160|332:236,2,120,8|8|8,0:0|0:0|0:0,0:0:0:0:
332,56,145196,1,10,0:0:0:0:
436,72,145545,1,8,0:0:0:0:
480,172,145894,6,0,P|476:232|416:272,1,120,10|8,0:0|0:0,0:0:0:0:
328,292,146591,2,0,L|244:272,2,60,10|0|8,0:0|0:0|0:0,0:0:0:0:
356,244,147115,2,0,P|400:164|368:68,1,180,0|8,0:0|0:0,0:0:0:0:
284,32,147987,1,8,0:0:0:0:
184,72,148336,1,10,0:0:0:0:
96,136,148684,6,0,P|76:192|104:252,1,120,12|8,0:0|0:0,0:0:0:0:
184,308,149382,1,10,0:0:0:0:
276,244,149731,2,0,P|296:188|268:128,1,120,8|8,0:0|0:0,0:0:0:0:
184,72,150429,2,0,P|128:52|68:80,1,120,8|10,0:0|0:0,0:0:0:0:
24,168,151126,1,8,0:0:0:0:
256,192,151475,12,2,153568,0:0:0:0:
272,104,154266,6,0,P|332:120|404:84,2,120,12|8|10,0:0|0:0|0:0,0:0:0:0:
168,80,155312,2,0,P|176:160|268:212,2,180,8|2|10,0:0|0:0|0:0,0:0:0:0:
272,104,156708,1,8,0:0:0:0:
376,72,157057,6,0,P|388:48|424:24,2,60,8|0|8,0:0|0:0|0:0,0:0:0:0:
432,164,157754,2,0,P|396:236|288:248,1,180,8|0,0:0|0:0,0:0:0:0:
280,148,158626,2,0,P|196:104|120:160,1,180,2|10,0:0|0:0,0:0:0:0:
48,212,159498,1,8,0:0:0:0:
152,236,159847,6,0,P|208:252|284:228,1,120,12|8,0:0|0:0,0:0:0:0:
332,152,160545,1,10,0:0:0:0:
380,248,160894,2,0,P|368:308|312:332,1,120,8|8,0:0|0:0,0:0:0:0:
268,316,161417,2,0,L|212:284,1,60,0|8,0:0|0:0,0:0:0:0:
148,200,161940,1,10,0:0:0:0:
216,116,162289,1,8,0:0:0:0:
256,192,162638,12,4,165429,0:0:0:0:
232,216,176591,6,0,P|288:224|348:184,1,120,12|8,0:0|0:0,0:0:0:0:
372,148,177115,2,0,L|408:88,1,60,0|8,0:0|0:0,0:0:0:0:
308,44,177638,2,0,P|252:36|192:76,2,120,8|8|8,0:0|0:0|0:0,0:0:0:0:
404,96,178684,1,8,0:0:0:0:
424,204,179033,2,0,P|360:204|312:260,1,120,0|12,0:0|0:0,0:0:0:0:
244,316,179731,6,0,P|204:351|140:351,2,120,8|8|8,0:0|0:0|0:0,0:0:0:0:
216,212,180778,1,8,0:0:0:0:
252,172,180952,1,2,0:0:0:0:
284,128,181126,2,0,P|276:68|316:28,1,120,8|8,0:0|0:0,0:0:0:0:
424,28,181824,1,0,0:0:0:0:
448,132,182173,6,0,P|478:190|460:268,1,120,12|8,0:0|0:0,0:0:0:0:
436,280,182696,1,0,0:0:0:0:
384,296,182871,2,0,L|248:320,1,120,8|8,0:0|0:0,0:0:0:0:
160,324,183568,2,0,P|96:296|72:232,1,120,8|8,0:0|0:0,0:0:0:0:
104,208,184091,1,0,0:0:0:0:
144,172,184266,2,0,L|256:116,1,120,8|8,0:0|0:0,0:0:0:0:
336,188,184964,6,0,P|412:208|484:76,2,240,12|8|6,2:0|0:0|2:0,0:0:0:0:
236,232,186708,2,0,P|224:296|160:336,1,120,2|2,0:0|0:0,0:0:0:0:
136,308,187231,1,2,0:0:0:0:
88,280,187405,2,0,P|100:216|164:176,1,120,2|12,0:0|0:0,0:0:0:0:
240,140,188103,5,8,0:0:0:0:
336,88,188452,2,0,L|380:44,2,60,8|8|8,0:0|0:0|0:0,0:0:0:0:
404,172,189150,2,0,P|400:260|264:312,1,240,8|8,0:0|0:0,0:0:0:0:
168,328,190196,2,0,P|128:276|136:200,1,120,8|12,0:0|0:0,0:0:0:0:
188,136,190894,6,0,P|208:80|276:48,2,120,8|8|10,0:0|0:0|0:0,0:0:0:0:
164,184,191766,2,0,L|40:124,1,120,2|2,0:0|0:0,0:0:0:0:
20,232,192464,2,0,L|144:292,1,120,2|2,0:0|0:0,0:0:0:0:
280,344,193336,1,8,0:0:0:0:
380,300,193684,2,0,P|424:256|420:184,1,120,8|10,0:0|0:0,0:0:0:0:
376,104,194382,1,8,0:0:0:0:
268,92,194731,6,0,P|152:64|72:168,1,240,2|8,0:0|0:0,0:0:0:0:
184,144,195778,2,0,L|224:208,1,60,8|0,0:0|0:0,0:0:0:0:
248,240,196126,2,0,P|304:260|368:232,1,120,12|0,0:0|0:0,0:0:0:0:
432,160,196824,2,0,P|376:140|312:168,1,120,2|0,0:0|0:0,0:0:0:0:
252,76,197522,6,0,P|200:40|124:52,1,120,12|0,0:0|0:0,0:0:0:0:
56,96,198219,2,0,L|-4:124,2,60,10|0|10,0:0|0:0|0:0,0:0:0:0:
108,192,198917,2,0,P|160:228|236:216,1,120,12|0,0:0|0:0,0:0:0:0:
312,276,199615,1,10,0:0:0:0:
408,224,199964,1,8,0:0:0:0:
408,116,200312,6,0,P|352:144|296:128,1,120,4|8,0:0|0:0,0:0:0:0:
248,108,200836,1,8,0:0:0:0:
196,88,201010,2,0,P|80:104|16:228,1,240,10|12,0:0|0:0,0:0:0:0:
120,176,202057,2,0,P|180:172|252:216,2,120,8|0|8,0:0|0:0|0:0,0:0:0:0:
112,284,203103,5,12,0:0:0:0:
212,328,203452,1,8,0:0:0:0:
312,284,203801,2,0,P|360:252|384:192,1,120,2|0,0:0|0:0,0:0:0:0:
328,104,204498,1,0,0:0:0:0:
224,80,204847,2,0,L|176:24,2,60,0|0|2,0:0|0:0|0:0,0:0:0:0:
328,104,205545,1,0,0:0:0:0:
400,188,205894,6,0,P|340:188|284:224,1,120,0|0,0:0|0:0,0:0:0:0:
268,268,206417,2,0,L|268:332,1,60,0|2,0:0|0:0,0:0:0:0:
368,288,206940,1,0,0:0:0:0:
400,188,207289,2,0,P|456:168|496:112,2,120,8|2|10,0:0|0:0|0:0,0:0:0:0:
348,92,208336,1,0,0:0:0:0:
244,60,208684,6,0,P|188:36|108:56,2,120,6|8|10,0:0|0:0|0:0,0:0:0:0:
348,92,209731,2,0,L|348:220,1,120,8|8,0:0|0:0,0:0:0:0:
392,312,210429,2,0,L|468:312,2,60,8|0|10,0:0|0:0|0:0,0:0:0:0:
288,280,211126,1,8,0:0:0:0:
256,192,211475,12,0,213568,0:0:0:0:
148,120,214266,5,14,0:0:0:0:
244,72,214615,2,0,L|340:168,1,120,8|8,0:0|0:0,0:0:0:0:
396,244,215312,1,8,0:0:0:0:
292,272,215661,2,0,P|240:300|108:252,2,180,8|2|8,0:0|0:0|0:0,0:0:0:0:
392,228,217057,5,8,0:0:0:0:
408,120,217405,1,8,0:0:0:0:
332,44,217754,2,0,L|264:64,1,60,10|0,0:0|0:0,0:0:0:0:
224,76,218103,2,0,P|164:88|124:148,1,120,8|2,0:0|0:0,0:0:0:0:
88,232,218801,2,0,P|200:276|280:192,1,240,8|10,0:0|0:0,0:0:0:0:
380,164,219847,5,12,0:0:0:0:
316,76,220196,2,0,L|188:112,1,120,8|10,0:0|0:0,0:0:0:0:
252,204,220894,1,8,0:0:0:0:
332,280,221243,2,0,P|444:304|516:264,2,180,8|2|8,0:0|0:0|0:0,0:0:0:0:
256,192,222638,12,4,225429,0:0:0:0:
116,228,226126,5,2,0:0:0:0:
260,72,226824,2,0,P|332:52|464:144,1,240,2|2,0:0|0:0,0:0:0:0:
472,244,227871,1,0,0:0:0:0:
368,272,228219,2,0,P|292:248|264:136,2,180,2|2|8,0:0|0:0|0:0,0:0:0:0:
472,244,229615,5,2,0:0:0:0:
388,176,229964,2,0,P|416:124|408:44,1,120,0|2,0:0|0:0,0:0:0:0:
324,124,230661,2,0,P|307:67|244:16,1,120,2|6,0:0|0:0,0:0:0:0:
244,136,231359,2,0,P|192:107|112:116,2,120,0|0|0,0:0|0:0|0:0,0:0:0:0:
224,244,232405,6,0,P|284:288|384:240,2,180,2|2|8,0:0|0:0|0:0,0:0:0:0:
128,192,233801,1,6,0:0:0:0:
276,36,234498,1,2,0:0:0:0:
424,192,235196,2,0,P|444:136|424:80,1,120,6|2,0:0|0:0,0:0:0:0:
348,160,235894,2,0,P|328:214|348:270,1,120,2|0,0:0|0:0,0:0:0:0:
448,312,236591,5,4,0:0:0:0:
188,132,244964,6,0,P|240:100|308:104,1,120,6|8,0:0|0:0,0:0:0:0:
320,208,245661,2,0,P|268:240|200:236,1,120,10|8,0:0|0:0,0:0:0:0:
108,208,246359,2,0,P|80:164|92:80,2,120,12|12|12,0:0|0:0|0:0,0:0:0:0:
188,132,247405,1,4,0:0:0:0:
