osu file format v12

[General]
AudioFilename: Fantastic future.mp3
AudioLeadIn: 2000
PreviewTime: 66191
Countdown: 1
SampleSet: Normal
StackLeniency: 0.7
Mode: 0
LetterboxInBreaks: 1
WidescreenStoryboard: 0

[Editor]
DistanceSpacing: 1.1
BeatDivisor: 4
GridSize: 4

[Metadata]
Title:Fantastic Future (TV Size)
TitleUnicode:Fantastic Future (TV Size)
Artist:Tamura Yukari
ArtistUnicode:田村ゆかり
Creator:-S c a r l e t-
Version:Normal
Source:Hentai Ouji to Wakawanai Neko
Tags:
BeatmapID:276627
BeatmapSetID:104501

[Difficulty]
HPDrainRate:4
CircleSize:3
OverallDifficulty:3
ApproachRate:4
SliderMultiplier:1
SliderTickRate:1

[Events]
//Background and Video events
0,0,"piccit_hentai_ouji_warawanai_neko_1_1885807614.1024x0.jpg",0,0
//Break Periods
//Storyboard Layer 0 (Background)
//Storyboard Layer 1 (Fail)
//Storyboard Layer 2 (Pass)
//Storyboard Layer 3 (Foreground)
//Storyboard Sound Samples
//Background Colour Transformations
3,100,163,162,255

[TimingPoints]
-698,348.837209302326,4,2,1,55,1,0
6278,-100,4,1,1,60,0,0
9069,-100,4,2,1,20,0,0
10464,-100,4,2,1,5,0,0
11860,-100,4,1,1,65,0,0
28691,-100,4,1,1,55,0,0
50929,-100,4,1,1,50,0,0
56511,-100,4,1,1,55,0,0
59302,-100,4,1,1,60,0,0
60610,-100,4,1,1,65,0,0
60784,-100,4,1,1,60,0,0
63488,-100,4,2,1,20,0,0
64883,-100,4,2,1,5,0,0
66278,-100,4,1,1,70,0,1
77354,-100,4,1,1,70,0,0
77441,-100,4,1,1,75,0,1
87906,-100,4,1,1,75,0,0

[Colours]
Combo1 : 170,255,255
Combo2 : 255,170,170
Combo3 : 170,255,170
Combo4 : 255,255,170

[HitObjects]
96,72,697,1,4,1:0:0:0:
136,176,1046,1,0,0:0:0:0:
240,216,1395,1,0,0:0:0:0:
364,124,1918,2,0,P|448:164|344:216,1,250
180,108,3488,5,0,1:0:0:0:
72,136,3836,1,0,0:0:0:0:
88,244,4185,2,0,L|204:220,1,100
160,328,4883,2,0,L|272:296,1,100,0|0,1:0|0:0,0:0:0:0:
360,268,5581,1,0,0:0:0:0:
436,188,5929,1,0,0:0:0:0:
380,96,6278,5,0,0:0:0:0:
272,76,6627,1,0,0:0:0:0:
164,80,6976,2,0,P|164:124|224:124,1,100
300,200,7674,2,0,L|236:296,1,100
140,252,8371,1,0,0:0:0:0:
256,192,9069,12,0,10464,0:0:0:0:
152,152,11860,6,0,L|88:64,2,100
304,92,13081,2,0,P|416:52|456:168,1,250
416,248,14302,1,8,0:0:0:0:
332,320,14650,6,0,L|232:320,2,100,0|8|0,0:0|0:0|0:0,0:0:0:0:
280,224,15697,1,8,0:0:0:0:
172,228,16046,2,0,L|84:280,1,100,0|8,0:0|0:0,0:0:0:0:
76,168,16743,2,0,L|168:112,1,100,0|8,0:0|0:0,0:0:0:0:
264,76,17441,2,0,B|312:36|364:80,1,100,4|8,0:0|0:0,0:0:0:0:
316,176,18139,6,0,B|364:216|416:172,1,100,4|8,0:0|0:0,0:0:0:0:
436,284,18836,2,0,L|328:328,2,100,0|8|0,0:0|0:0|0:0,0:0:0:0:
408,176,19883,1,8,0:0:0:0:
328,100,20232,5,0,0:0:0:0:
216,68,20581,1,8,0:0:0:0:
112,104,20929,1,0,0:0:0:0:
196,176,21278,1,8,0:0:0:0:
100,228,21627,2,8,L|100:344,2,100
300,324,23022,6,0,B|244:292|256:232,1,100,4|0,0:0|0:0,0:0:0:0:
328,160,23720,2,0,B|384:192|372:256,1,100
484,272,24418,1,0,0:0:0:0:
444,168,24767,1,8,0:0:0:0:
368,88,25115,1,0,0:0:0:0:
260,80,25464,1,10,0:0:0:0:
148,80,25813,6,0,L|48:80,1,100,4|0,0:0|0:0,0:0:0:0:
124,160,26511,2,0,L|216:220,1,100,4|0,0:0|0:0,0:0:0:0:
304,164,27208,2,4,L|392:88,2,100,4|0|4,0:0|0:0|0:0,0:0:0:0:
436,344,28604,5,4,0:0:0:0:
324,344,28953,2,0,B|344:292|320:232,2,100,8|0|8,0:0|0:0|0:0,0:0:0:0:
216,324,29999,2,0,B|152:336|112:300,1,100,0|8,0:0|1:0,0:0:0:0:
40,232,30697,2,0,B|84:200|144:216,1,100,0|8,0:0|0:0,0:0:0:0:
72,120,31395,6,0,L|176:88,1,100,0|8,0:0|0:0,0:0:0:0:
276,88,32092,2,0,L|388:120,1,100,0|8,0:0|0:0,0:0:0:0:
460,184,32790,2,0,L|396:272,1,100,0|0,0:0|0:0,0:0:0:0:
304,212,33488,2,0,L|208:180,1,100
116,100,34185,5,0,0:0:0:0:
92,208,34534,2,0,L|72:312,2,100,8|0|8,0:0|0:0|0:0,0:0:0:0:
180,276,35581,1,0,0:0:0:0:
288,276,35929,1,8,0:0:0:0:
384,236,36278,2,0,B|444:212|436:148,1,100,0|8,0:0|0:0,0:0:0:0:
392,52,36976,6,0,B|332:80|344:144,1,100,0|8,0:0|0:0,0:0:0:0:
220,120,37674,1,0,0:0:0:0:
112,96,38022,1,8,0:0:0:0:
44,180,38371,1,2,0:0:0:0:
108,268,38720,1,10,0:0:0:0:
216,280,39069,2,0,B|248:328|304:320,1,100,2|10,2:0|2:1,0:0:0:0:
380,256,39767,5,6,1:0:0:0:
432,160,40115,2,0,L|456:60,2,100,8|0|8,0:0|0:0|0:0,0:0:0:0:
320,152,41162,2,0,L|284:264,2,100,0|8|0,0:0|0:0|0:0,0:0:0:0:
328,44,42208,1,8,0:0:0:0:
224,76,42557,6,0,B|116:68,1,100,2|8,0:0|0:0,0:0:0:0:
52,128,43255,2,0,B|88:232,1,100,0|8,0:0|0:0,0:0:0:0:
92,332,43953,2,0,L|200:316,1,100
292,276,44650,2,0,B|328:176,1,100
216,172,45348,6,8,L|244:68,1,100
348,84,46046,1,0,0:0:0:0:
404,180,46395,1,0,0:0:0:0:
376,284,46743,1,2,0:0:0:0:
164,348,47441,2,2,B|108:328|84:264,1,100,0|8,0:0|0:0,0:0:0:0:
84,172,48139,6,0,L|152:84,1,100
224,64,48836,2,0,L|340:84,1,100
408,176,49534,1,0,0:0:0:0:
356,272,49883,1,10,0:0:0:0:
252,300,50232,1,2,0:0:0:0:
144,284,50581,1,10,0:0:0:0:
108,180,50929,6,0,B|132:112|248:116,1,150,4|0,0:0|0:0,0:0:0:0:
232,60,51627,2,0,B|288:40|336:96,1,100,2|8,0:0|0:0,0:0:0:0:
364,120,52150,1,0,0:0:0:0:
408,220,52499,1,0,0:0:0:0:
340,304,52848,2,0,L|276:304,1,50
228,212,53371,1,8,0:0:0:0:
168,304,53720,6,0,B|84:328|24:260,1,150
40,212,54418,2,0,B|100:192|140:224,1,100,2|8,0:0|0:0,0:0:0:0:
184,196,54941,1,0,0:0:0:0:
136,108,55290,1,0,0:0:0:0:
220,36,55639,2,0,L|272:56,1,50
368,92,56162,1,8,0:0:0:0:
432,208,56511,6,8,P|432:292|368:320,1,150
316,324,57208,2,0,P|304:272|340:240,1,100
352,188,57732,1,8,0:0:0:0:
244,184,58081,1,8,0:0:0:0:
220,292,58429,2,0,L|160:296,1,50
60,300,58953,1,8,0:0:0:0:
60,192,59302,6,0,L|128:116,1,100,0|0,0:0|0:0,0:0:0:0:
212,68,59999,2,0,L|312:68,1,100
408,124,60697,2,0,L|356:220,1,100
260,164,61395,1,2,0:0:0:0:
152,148,61743,1,8,0:0:0:0:
88,240,62092,6,0,B|104:296|176:288,2,100,4|8|4,0:0|0:0|0:0,0:0:0:0:
56,136,63139,1,8,0:0:0:0:
256,192,63488,12,0,64883,0:0:0:0:
64,136,66278,5,4,0:0:0:0:
64,248,66627,2,0,B|56:312|124:328,2,100,8|0|8,0:0|0:0|0:0,0:0:0:0:
172,228,67674,2,0,B|228:256|220:320,1,100,0|8,0:0|0:0,0:0:0:0:
320,312,68371,1,0,0:0:0:0:
420,264,68720,1,8,0:0:0:0:
488,180,69069,6,0,L|440:80,1,100,0|8,0:0|0:0,0:0:0:0:
336,100,69767,2,0,B|300:200,1,100,0|8,0:0|0:0,0:0:0:0:
192,192,70464,2,0,B|152:80,1,100,0|8,0:0|0:0,0:0:0:0:
48,108,71162,2,0,B|4:216,1,100,0|8,0:0|0:0,0:0:0:0:
112,248,71860,5,4,0:0:0:0:
220,256,72208,2,0,L|220:360,2,100,8|0|8,0:0|0:0|0:0,0:0:0:0:
332,248,73255,2,0,B|392:248|404:188,1,100,0|8,0:0|0:0,0:0:0:0:
404,96,73953,2,0,B|392:40|320:40,1,100,0|8,0:0|0:0,0:0:0:0:
256,108,74650,5,0,0:0:0:0:
184,192,74999,1,8,0:0:0:0:
256,276,75348,1,0,0:0:0:0:
328,192,75697,1,8,0:0:0:0:
256,108,76046,2,0,L|136:128,1,100,6|10,0:0|0:0,0:0:0:0:
128,232,76743,2,2,L|244:248,1,100,0|8,0:0|0:0,0:0:0:0:
328,248,77441,6,8,B|396:248|396:328,2,100,4|8|0,0:0|0:0|0:0,0:0:0:0:
424,192,78488,1,8,0:0:0:0:
324,148,78836,2,0,B|380:148|384:84,2,100
232,208,79883,1,8,0:0:0:0:
204,100,80232,6,0,B|168:60|112:72,1,100,0|8,0:0|0:0,0:0:0:0:
36,144,80929,2,0,B|72:196|136:180,1,100,0|8,0:0|0:0,0:0:0:0:
68,280,81627,1,0,0:0:0:0:
168,252,81976,1,8,0:0:0:0:
272,292,82325,1,0,0:0:0:0:
376,252,82674,1,8,0:0:0:0:
368,144,83022,6,0,L|368:40,2,100,4|8|0,0:0|0:0|0:0,0:0:0:0:
256,148,84069,1,8,0:0:0:0:
148,140,84418,2,0,B|148:80|208:64,1,100,0|8,0:0|0:0,0:0:0:0:
312,64,85115,2,0,B|372:88|368:148,1,100,0|8,0:0|0:0,0:0:0:0:
256,192,85813,12,4,86860,0:0:0:0:
256,108,87208,5,0,0:0:0:0:
196,208,87557,1,0,0:0:0:0:
324,208,87906,1,0,0:0:0:0:
