osu file format v12

[General]
AudioFilename: Fantastic future.mp3
AudioLeadIn: 2000
PreviewTime: 66191
Countdown: 1
SampleSet: Soft
StackLeniency: 0.7
Mode: 0
LetterboxInBreaks: 1
WidescreenStoryboard: 0

[Editor]
Bookmarks: 4185,28865
DistanceSpacing: 1.1
BeatDivisor: 1
GridSize: 4

[Metadata]
Title:Fantastic Future (TV Size)
TitleUnicode:Fantastic Future (TV Size)
Artist:Tamura Yukari
ArtistUnicode:田村ゆかり
Creator:-S c a r l e t-
Version:Insane
Source:Hentai Ouji to Wakawanai Neko
Tags:
BeatmapID:274761
BeatmapSetID:104501

[Difficulty]
HPDrainRate:7
CircleSize:4
OverallDifficulty:7
ApproachRate:9
SliderMultiplier:1.8
SliderTickRate:1

[Events]
//Background and Video events
0,0,"piccit_hentai_ouji_warawanai_neko_1_1885807614.1024x0.jpg",0,0
//Break Periods
//Storyboard Layer 0 (Background)
//Storyboard Layer 1 (Fail)
//Storyboard Layer 2 (Pass)
//Storyboard Layer 3 (Foreground)
//Storyboard Sound Samples
//Background Colour Transformations
3,100,163,162,255

[TimingPoints]
-698,348.837209302326,4,2,1,55,1,0
261,-125,4,2,1,65,0,0
522,-125,4,2,1,55,0,0
6278,-100,4,2,1,60,0,0
11860,-100,4,2,1,65,0,0
12993,-100,4,2,1,55,0,0
13168,-100,4,2,1,65,0,0
28691,-100,4,2,1,55,0,0
50929,-125,4,2,1,50,0,0
56511,-125,4,2,1,55,0,0
59302,-100,4,2,1,60,0,0
60610,-100,4,2,1,65,0,0
60784,-100,4,2,1,60,0,0
66278,-100,4,2,1,70,0,1
77354,-100,4,2,1,70,0,0
77441,-100,4,2,1,75,0,1
87906,-100,4,2,1,75,0,0

[Colours]
Combo1 : 170,255,255
Combo2 : 255,170,170
Combo3 : 170,255,170
Combo4 : 255,255,170

[HitObjects]
256,76,348,1,4,0:0:0:0:
472,96,697,5,0,1:0:0:0:
392,296,1046,2,0,B|356:328|324:292,1,72
256,216,1395,2,0,B|284:185|320:217,1,72
104,268,1918,2,0,L|104:340,2,72,0|0|0,0:0|1:0|0:0,0:0:0:0:
64,200,2441,2,0,B|64:128,1,72
156,68,2790,1,0,0:0:0:0:
228,148,2964,1,0,0:0:0:0:
300,68,3139,2,0,L|380:68,1,72
372,148,3488,6,0,B|352:240|244:232,1,144,0|0,1:0|0:0,0:0:0:0:
188,244,4011,1,0,0:0:0:0:
112,220,4185,2,0,B|88:188|112:152,1,72
180,68,4534,1,0,0:0:0:0:
288,72,4708,1,0,0:0:0:0:
360,152,4883,6,0,L|396:216,1,72,0|2,1:0|0:0,0:0:0:0:
452,300,5232,1,0,0:0:0:0:
344,300,5406,1,2,0:0:0:0:
236,292,5581,2,0,L|164:280,1,72,0|2,1:0|0:0,0:0:0:0:
76,340,5930,1,2,0:0:0:0:
48,236,6104,1,0,0:0:0:0:
144,144,6278,6,0,B|172:92|228:104,1,90,6|0,1:0|0:0,0:0:0:0:
316,100,6627,2,0,B|360:89|388:140,1,90,6|0,1:0|0:0,0:0:0:0:
476,244,6976,1,0,1:0:0:0:
380,340,7150,1,0,0:0:0:0:
308,224,7325,1,0,1:0:0:0:
416,140,7499,5,0,0:0:0:0:
416,140,7586,1,0,0:0:0:0:
416,140,7674,2,0,B|376:112|330:118,1,90,0|2,1:0|0:0,0:0:0:0:
280,244,8022,2,0,B|320:272|376:264,1,90,0|2,1:0|0:0,0:0:0:0:
416,140,8371,1,0,1:0:0:0:
416,276,8546,1,2,0:0:0:0:
288,316,8720,2,0,L|188:316,1,90,2|2,1:0|0:0,0:0:0:0:
64,312,9069,5,4,1:0:0:0:
120,188,9243,1,0,1:0:0:0:
240,248,9418,1,0,1:0:0:0:
308,132,9592,1,2,1:0:0:0:
444,112,9767,6,0,B|428:64|372:64,1,90,4|0,1:0|1:0,0:0:0:0:
320,64,10028,1,0,1:0:0:0:
268,64,10115,1,0,1:0:0:0:
212,64,10203,1,0,1:0:0:0:
160,64,10290,2,0,B|120:108|156:152,2,90,0|0|0,1:0|1:0|0:0,0:0:0:0:
80,60,10813,6,0,B|24:60|12:108,1,90
120,192,11162,1,0,0:0:0:0:
248,232,11336,1,0,0:0:0:0:
248,232,11424,1,0,0:0:0:0:
248,232,11511,1,8,0:0:0:0:
128,348,11860,6,0,B|220:348,1,90,4|0,1:0|0:0,0:0:0:0:
352,348,12208,2,0,B|408:348|448:312,1,90,8|0,1:0|0:0,0:0:0:0:
320,248,12557,2,0,B|348:221|404:221,1,90,8|0,1:0|0:0,0:0:0:0:
476,108,12906,2,0,L|392:56,1,90,8|4,1:0|0:0,0:0:0:0:
332,180,13255,1,0,1:0:0:0:
332,44,13429,1,0,0:0:0:0:
196,56,13604,6,0,L|104:56,1,90,8|0,1:0|0:0,0:0:0:0:
196,156,13953,1,0,1:0:0:0:
92,152,14127,1,2,0:0:0:0:
92,252,14302,1,8,1:0:0:0:
92,252,14389,1,0,0:0:0:0:
92,252,14476,1,2,0:0:0:0:
92,152,14650,6,0,B|104:96|152:80,1,90,0|0,1:0|0:0,0:0:0:0:
256,68,14999,2,0,L|256:160,1,90,8|0,1:0|0:0,0:0:0:0:
256,292,15348,1,0,1:0:0:0:
184,180,15522,1,0,0:0:0:0:
320,180,15697,1,8,1:0:0:0:
456,188,15871,5,0,0:0:0:0:
456,188,15958,1,0,0:0:0:0:
456,188,16046,2,0,B|452:228|392:260,1,90,0|2,1:0|0:0,0:0:0:0:
292,340,16395,1,8,1:0:0:0:
164,296,16569,1,2,0:0:0:0:
260,204,16743,2,0,B|320:208|336:140,1,90,0|2,1:0|0:0,0:0:0:0:
348,64,17092,1,10,1:0:0:0:
308,64,17179,1,0,0:0:0:0:
268,64,17267,1,0,0:0:0:0:
228,64,17354,1,0,0:0:0:0:
188,64,17441,6,0,B|140:68|120:120,1,90,4|0,1:0|0:0,0:0:0:0:
124,252,17790,2,0,B|136:308|208:296,1,90,8|0,1:0|0:0,0:0:0:0:
320,260,18139,2,0,L|384:360,2,90,0|0|8,1:0|0:0|1:0,0:0:0:0:
256,140,18662,1,0,0:0:0:0:
392,140,18836,6,0,B|448:132|476:188,1,90,0|0,1:0|0:0,0:0:0:0:
484,312,19185,2,0,B|424:328|400:260,1,90,8|0,1:0|0:0,0:0:0:0:
328,172,19534,1,0,1:0:0:0:
256,284,19708,1,2,0:0:0:0:
188,168,19883,1,10,1:0:0:0:
324,172,20057,1,2,0:0:0:0:
396,60,20232,6,0,B|368:16|296:48,1,90,6|0,1:0|0:0,0:0:0:0:
236,64,20581,2,0,L|152:100,1,90,8|0,1:0|0:0,0:0:0:0:
108,120,20842,1,2,1:0:0:0:
68,148,20930,1,2,0:0:0:0:
44,192,21017,1,2,1:0:0:0:
40,240,21104,1,14,1:0:0:0:
56,288,21191,1,2,1:0:0:0:
92,320,21278,1,2,1:0:0:0:
136,344,21366,1,2,1:0:0:0:
184,344,21453,1,2,0:0:0:0:
228,320,21540,1,2,0:0:0:0:
268,296,21627,5,6,1:0:0:0:
308,124,21976,1,2,1:0:0:0:
404,296,22325,1,6,1:0:0:0:
492,320,22674,5,0,1:0:0:0:
484,276,22761,1,0,1:0:0:0:
476,232,22848,1,0,1:0:0:0:
468,188,22935,1,0,1:0:0:0:
460,144,23022,6,0,B|444:52,1,90,4|0,1:0|0:0,0:0:0:0:
380,180,23371,2,0,L|360:92,1,90,0|0,1:0|0:0,0:0:0:0:
264,72,23720,1,0,1:0:0:0:
264,72,23807,1,0,0:0:0:0:
264,72,23895,1,0,0:0:0:0:
168,72,24069,2,0,B|112:52|72:112,1,90,0|0,1:0|0:0,0:0:0:0:
188,184,24418,5,0,1:0:0:0:
88,96,24592,1,0,0:0:0:0:
188,184,24767,1,0,1:0:0:0:
68,248,24941,1,0,0:0:0:0:
188,308,25115,2,0,L|280:308,1,90,0|0,1:0|0:0,0:0:0:0:
136,264,25464,2,0,L|80:192,1,90,0|0,1:0|0:0,0:0:0:0:
116,104,25813,6,0,B|152:68|204:84,1,90,4|0,1:0|0:0,0:0:0:0:
312,84,26162,2,0,B|368:72|388:120,1,90,0|0,1:0|0:0,0:0:0:0:
404,216,26511,1,4,1:0:0:0:
404,216,26685,1,0,0:0:0:0:
424,324,26860,2,0,L|252:352,1,90,0|0,1:0|0:0,0:0:0:0:
236,344,27208,5,4,1:0:0:0:
240,244,27383,1,0,1:0:0:0:
140,244,27557,1,0,1:0:0:0:
136,344,27732,1,0,1:0:0:0:
36,340,27906,1,4,1:0:0:0:
28,292,27993,1,0,1:0:0:0:
32,244,28081,1,0,1:0:0:0:
60,204,28168,1,0,1:0:0:0:
108,188,28255,1,4,1:0:0:0:
220,260,28429,1,0,1:0:0:0:
292,144,28604,1,4,1:0:0:0:
396,96,28953,6,0,B|388:52|324:52,1,90,8|0,1:0|0:0,0:0:0:0:
240,52,29302,1,0,1:0:0:0:
240,52,29476,1,0,0:0:0:0:
140,48,29650,2,0,B|78:47|70:91,1,90,8|0,1:0|0:0,0:0:0:0:
164,188,29999,1,0,1:0:0:0:
272,256,30174,5,0,0:0:0:0:
164,188,30348,1,8,1:0:0:0:
144,340,30522,2,0,L|236:340,1,90,0|0,0:0|1:0,0:0:0:0:
308,228,30871,1,0,0:0:0:0:
396,340,31046,2,0,B|452:340|464:292,1,90,8|0,1:0|0:0,0:0:0:0:
468,192,31395,6,0,B|484:136|436:116,1,90,0|0,1:0|0:0,0:0:0:0:
352,192,31743,2,0,L|352:100,1,90,8|0,1:0|0:0,0:0:0:0:
352,104,32092,1,0,1:0:0:0:
264,152,32267,1,0,0:0:0:0:
352,192,32441,1,8,1:0:0:0:
268,248,32615,2,0,B|200:260|188:200,1,90,0|0,0:0|1:0,0:0:0:0:
172,116,32964,1,0,0:0:0:0:
76,84,33139,6,0,L|52:172,1,90,8|0,1:0|0:0,0:0:0:0:
28,268,33488,1,0,0:0:0:0:
28,268,33575,1,0,0:0:0:0:
28,268,33662,1,0,0:0:0:0:
164,328,33836,1,0,0:0:0:0:
248,268,34011,1,0,0:0:0:0:
208,164,34185,6,0,B|144:176|140:100,1,90,0|0,1:0|0:0,0:0:0:0:
304,164,34534,2,0,B|368:180|376:104,2,90,8|0|0,1:0|0:0|1:0,0:0:0:0:
224,56,35057,1,0,0:0:0:0:
100,112,35232,2,0,L|72:200,1,90,8|0,1:0|0:0,0:0:0:0:
88,300,35581,6,0,L|180:300,1,90,0|0,1:0|0:0,0:0:0:0:
276,208,35929,1,8,1:0:0:0:
276,320,36104,1,0,0:0:0:0:
380,324,36278,2,0,L|380:232,1,90,0|0,1:0|0:0,0:0:0:0:
376,104,36627,1,8,1:0:0:0:
380,196,36802,1,0,0:0:0:0:
376,104,36976,6,0,B|348:60|300:64,1,90,0|0,1:0|0:0,0:0:0:0:
220,64,37325,2,0,L|128:64,1,90,8|0,1:0|0:0,0:0:0:0:
152,196,37674,1,0,1:0:0:0:
288,196,37848,1,0,0:0:0:0:
424,196,38022,1,8,1:0:0:0:
288,196,38197,1,0,0:0:0:0:
424,196,38371,5,2,1:0:0:0:
396,316,38720,2,0,L|304:316,1,90,10|0,1:0|0:0,0:0:0:0:
256,312,38982,1,0,1:0:0:0:
208,312,39069,1,2,1:0:0:0:
164,224,39243,1,0,1:0:0:0:
108,304,39418,2,0,B|60:324|20:284,1,90,10|0,1:0|1:0,0:0:0:0:
32,188,39767,5,6,1:0:0:0:
48,168,40115,2,0,L|112:104,1,90,8|0,1:0|0:0,0:0:0:0:
204,64,40464,2,0,L|296:64,2,90,0|0|8,1:0|0:0|1:0,0:0:0:0:
276,180,40988,2,0,B|344:196|356:148,1,90,0|0,0:0|1:0,0:0:0:0:
448,60,41336,2,0,B|492:96|468:144,1,90,0|8,0:0|1:0,0:0:0:0:
436,272,41685,2,0,L|360:324,1,90,0|0,0:0|1:0,0:0:0:0:
316,196,42034,1,0,0:0:0:0:
240,84,42208,1,8,1:0:0:0:
164,196,42383,1,0,0:0:0:0:
172,340,42557,6,0,B|124:348|84:312|84:312,1,90,2|0,1:0|0:0,0:0:0:0:
28,236,42906,1,8,1:0:0:0:
36,136,43081,2,0,L|96:68,1,90,0|0,0:0|1:0,0:0:0:0:
196,68,43429,1,0,0:0:0:0:
296,68,43604,1,8,1:0:0:0:
404,68,43953,6,0,B|444:116|396:156,1,90,2|0,1:0|0:0,0:0:0:0:
272,168,44302,1,8,1:0:0:0:
388,232,44476,1,0,0:0:0:0:
316,296,44650,2,0,B|272:336|232:296,1,90,2|0,1:0|0:0,0:0:0:0:
272,168,44999,1,8,1:0:0:0:
172,256,45173,1,0,0:0:0:0:
100,212,45348,6,0,B|96:152|152:132,1,90,2|0,1:0|0:0,0:0:0:0:
272,168,45697,1,8,1:0:0:0:
176,72,45871,1,0,0:0:0:0:
264,72,46046,2,0,L|356:72,1,90,0|0,1:0|0:0,0:0:0:0:
424,144,46395,2,0,L|332:144,1,90,8|0,1:0|0:0,0:0:0:0:
428,232,46743,6,0,B|444:192|424:140,1,90,2|0,1:0|0:0,0:0:0:0:
332,144,47092,2,0,B|312:192|336:244,1,90,8|0,1:0|0:0,0:0:0:0:
304,364,47441,1,0,1:0:0:0:
172,336,47615,1,0,0:0:0:0:
92,228,47790,1,8,1:0:0:0:
204,156,47964,1,0,0:0:0:0:
204,156,48052,1,0,0:0:0:0:
204,156,48139,6,0,L|136:96,1,90,6|0,1:0|0:0,0:0:0:0:
44,60,48488,1,8,1:0:0:0:
28,156,48836,6,0,L|96:220,1,90,6|0,1:0|0:0,0:0:0:0:
228,196,49185,1,8,1:0:0:0:
232,64,49534,6,0,B|276:36|324:64,1,90,6|0,1:0|0:0,0:0:0:0:
444,108,49883,1,14,1:0:0:0:
456,244,50057,1,0,0:0:0:0:
456,244,50145,1,0,1:0:0:0:
456,244,50232,1,2,1:0:0:0:
340,312,50406,1,0,1:0:0:0:
224,244,50581,1,10,1:0:0:0:
108,312,50755,1,0,1:0:0:0:
28,240,50929,5,4,1:0:0:0:
84,144,51453,2,0,L|84:72,1,72,0|2,1:0|1:0,0:0:0:0:
240,44,51976,1,8,1:0:0:0:
320,44,52150,2,0,L|476:44,2,144,0|0|0,1:0|1:0|1:0,0:0:0:0:
372,140,53022,1,0,1:0:0:0:
280,196,53197,1,0,0:0:0:0:
280,196,53284,1,0,0:0:0:0:
280,196,53371,1,8,1:0:0:0:
188,196,53546,1,0,1:0:0:0:
188,196,53633,1,0,1:0:0:0:
188,196,53720,5,0,1:0:0:0:
96,136,54243,2,0,L|96:64,1,72,0|2,1:0|1:0,0:0:0:0:
96,224,54767,1,8,1:0:0:0:
144,288,54941,6,0,L|276:360,2,144,0|0|0,1:0|1:0|1:0,0:0:0:0:
172,184,55813,1,0,1:0:0:0:
272,228,55988,1,0,1:0:0:0:
364,180,56162,1,8,1:0:0:0:
400,164,56249,1,0,0:0:0:0:
432,140,56336,1,0,1:0:0:0:
460,112,56424,1,0,1:0:0:0:
476,76,56511,5,4,1:0:0:0:
376,64,57034,2,0,L|288:64,1,72,0|2,1:0|1:0,0:0:0:0:
176,72,57557,1,8,1:0:0:0:
96,72,57732,2,0,B|16:92|-4:176,2,144,0|0|0,1:0|1:0|1:0,0:0:0:0:
124,148,58604,1,0,1:0:0:0:
184,236,58778,1,0,1:0:0:0:
76,240,58953,1,8,1:0:0:0:
28,336,59127,5,0,1:0:0:0:
80,336,59214,1,0,1:0:0:0:
120,336,59302,2,0,L|212:336,1,90,6|0,1:0|0:0,0:0:0:0:
400,256,59650,2,0,L|308:256,1,90,8|0,1:0|0:0,0:0:0:0:
120,184,59999,2,0,L|212:184,1,90,2|0,1:0|0:0,0:0:0:0:
404,128,60347,2,0,L|312:128,1,90,8|0,1:0|0:0,0:0:0:0:
132,120,60697,2,0,L|192:52,1,90,8|0,1:0|0:0,0:0:0:0:
344,60,61045,2,0,L|404:128,1,90,8|0,1:0|0:0,0:0:0:0:
420,256,61395,5,2,1:0:0:0:
420,356,61569,1,2,0:0:0:0:
340,300,61743,2,0,B|300:320|248:292,1,90,8|0,1:0|0:0,0:0:0:0:
160,332,62092,5,6,1:0:0:0:
168,136,62441,1,8,1:0:0:0:
164,236,62615,1,0,0:0:0:0:
64,236,62790,2,0,L|64:332,2,90,4|0|8,1:0|0:0|1:0,0:0:0:0:
164,236,63313,1,0,0:0:0:0:
64,144,63488,5,0,1:0:0:0:
164,52,63662,1,0,1:0:0:0:
296,32,63836,1,12,1:0:0:0:
428,52,64011,1,0,1:0:0:0:
480,176,64185,5,0,1:0:0:0:
464,224,64272,1,0,1:0:0:0:
440,268,64360,1,2,1:0:0:0:
408,308,64447,1,0,1:0:0:0:
376,328,64534,1,12,1:0:0:0:
328,344,64621,1,0,1:0:0:0:
280,360,64708,1,2,1:0:0:0:
232,364,64796,5,0,1:0:0:0:
88,336,65057,1,0,0:0:0:0:
80,200,65232,1,0,0:0:0:0:
188,280,65406,1,0,0:0:0:0:
232,256,65493,1,0,0:0:0:0:
276,232,65581,1,0,0:0:0:0:
316,204,65668,1,0,0:0:0:0:
356,176,65755,1,0,0:0:0:0:
388,140,65842,1,0,0:0:0:0:
424,108,65929,1,0,0:0:0:0:
284,52,66278,6,0,B|240:32|188:60,1,90,4|0,1:0|0:0,0:0:0:0:
124,56,66627,2,0,B|76:32|28:64,1,90,8|0,1:0|0:0,0:0:0:0:
24,156,66976,2,0,B|-4:200|28:244,1,90,0|0,1:0|0:0,0:0:0:0:
124,284,67325,2,0,L|216:284,1,90,8|0,1:0|0:0,0:0:0:0:
388,312,67674,5,0,1:0:0:0:
444,184,67848,1,0,0:0:0:0:
320,132,68022,2,0,L|392:76,2,90,8|0|0,1:0|0:0|1:0,0:0:0:0:
220,96,68546,1,0,0:0:0:0:
128,132,68720,1,8,1:0:0:0:
92,168,68807,1,0,0:0:0:0:
60,204,68895,1,0,0:0:0:0:
124,276,69069,6,0,L|216:276,1,90,0|0,1:0|0:0,0:0:0:0:
396,224,69418,2,0,L|284:224,1,90,8|0,1:0|0:0,0:0:0:0:
212,196,69767,1,0,1:0:0:0:
264,112,69941,1,0,0:0:0:0:
360,88,70115,1,8,1:0:0:0:
384,184,70290,1,0,0:0:0:0:
404,228,70377,1,0,0:0:0:0:
428,272,70464,6,0,B|412:320|360:332,1,90,0|2,1:0|0:0,0:0:0:0:
276,264,70813,1,8,1:0:0:0:
224,180,70988,1,2,0:0:0:0:
164,100,71162,2,0,L|104:172,1,90,0|2,1:0|0:0,0:0:0:0:
160,296,71511,2,0,L|100:224,1,90,14|0,1:0|0:0,0:0:0:0:
232,80,71860,6,0,B|204:124|239:173,1,90,4|0,1:0|0:0,0:0:0:0:
264,312,72208,2,0,B|300:260|272:224,1,90,8|0,1:0|0:0,0:0:0:0:
232,80,72557,1,0,1:0:0:0:
176,208,72732,1,0,0:0:0:0:
264,312,72906,1,8,1:0:0:0:
316,184,73081,1,0,0:0:0:0:
316,184,73168,1,0,0:0:0:0:
316,184,73255,6,0,L|384:124,1,90,0|0,1:0|0:0,0:0:0:0:
188,188,73604,2,0,L|120:124,1,90,8|2,1:0|0:0,0:0:0:0:
20,68,73953,1,0,1:0:0:0:
20,184,74127,1,2,0:0:0:0:
40,228,74214,1,0,0:0:0:0:
68,272,74302,1,10,1:0:0:0:
176,192,74476,1,2,0:0:0:0:
264,300,74650,6,0,B|324:288|344:244,1,90,0|0,1:0|0:0,0:0:0:0:
404,180,74999,2,0,L|404:88,1,90,8|0,1:0|0:0,0:0:0:0:
276,52,75348,1,0,1:0:0:0:
312,180,75522,1,0,0:0:0:0:
188,232,75697,1,8,1:0:0:0:
112,128,75871,6,0,L|112:220,2,90,0|6|0,0:0|1:0|1:0,0:0:0:0:
200,176,76395,2,0,B|200:84,1,90,10|0,1:0|1:0,0:0:0:0:
112,40,76743,1,6,1:0:0:0:
80,76,76831,1,0,1:0:0:0:
52,116,76918,1,0,1:0:0:0:
36,160,77005,1,0,1:0:0:0:
28,208,77092,1,14,1:0:0:0:
36,308,77267,1,0,1:0:0:0:
36,308,77354,1,0,1:0:0:0:
36,308,77441,6,0,B|76:336|136:304,1,90,0|0,1:0|0:0,0:0:0:0:
352,308,77790,2,0,B|300:340|244:296,1,90,8|0,1:0|0:0,0:0:0:0:
232,200,78139,2,0,L|232:108,2,90,0|0|8,1:0|0:0|1:0,0:0:0:0:
232,300,78662,1,0,0:0:0:0:
328,200,78836,6,0,B|320:152|368:124,1,90,8|0,1:0|0:0,0:0:0:0:
136,200,79185,2,0,B|144:152|96:124,1,90,8|0,1:0|0:0,0:0:0:0:
240,68,79534,1,0,1:0:0:0:
328,172,79708,1,2,0:0:0:0:
240,276,79883,1,10,1:0:0:0:
156,172,80057,1,2,0:0:0:0:
32,116,80232,6,0,L|92:44,1,90,0|0,1:0|0:0,0:0:0:0:
24,212,80581,2,0,L|100:272,1,90,8|0,1:0|0:0,0:0:0:0:
216,324,80929,1,0,1:0:0:0:
304,224,81104,1,0,0:0:0:0:
236,108,81278,1,8,1:0:0:0:
120,64,81453,5,0,0:0:0:0:
120,64,81540,1,0,0:0:0:0:
120,64,81627,2,0,B|64:72|72:132,1,90,0|2,1:0|0:0,0:0:0:0:
76,232,81976,1,8,1:0:0:0:
72,128,82150,1,2,0:0:0:0:
80,232,82325,2,0,L|172:304,1,90,0|2,1:0|0:0,0:0:0:0:
356,280,82674,2,0,L|432:232,1,90,10|0,1:0|0:0,0:0:0:0:
432,112,83022,6,0,B|412:72|352:56,1,90,4|0,1:0|0:0,0:0:0:0:
292,116,83371,2,0,B|248:144|208:116,1,90,8|0,1:0|0:0,0:0:0:0:
120,72,83720,2,0,L|40:112,2,90,0|0|8,1:0|0:0|1:0,0:0:0:0:
120,232,84243,5,0,0:0:0:0:
120,232,84331,1,0,0:0:0:0:
120,232,84418,2,0,B|120:292|168:312,1,90,0|0,1:0|0:0,0:0:0:0:
316,304,84767,2,0,B|356:288|356:228,1,90,0|0,1:0|0:0,0:0:0:0:
356,128,85115,1,0,1:0:0:0:
256,124,85290,1,2,0:0:0:0:
256,224,85464,1,10,1:0:0:0:
256,124,85639,1,2,0:0:0:0:
336,184,85813,6,0,L|428:184,1,90,6|0,1:0|1:0,0:0:0:0:
176,184,86162,2,0,L|84:184,1,90,8|0,1:0|1:0,0:0:0:0:
16,300,86511,1,4,0:0:0:0:
60,320,86598,1,4,1:0:0:0:
108,336,86685,1,12,1:0:0:0:
156,348,86772,1,4,1:0:0:0:
204,348,86859,1,4,1:0:0:0:
252,332,86947,1,4,1:0:0:0:
296,312,87034,1,4,0:0:0:0:
336,284,87121,1,4,0:0:0:0:
376,256,87209,5,4,1:0:0:0:
116,180,87557,1,2,1:0:0:0:
376,256,87906,1,6,1:0:0:0:
