osu file format v9

[General]
AudioFilename: Endless Story.mp3
AudioLeadIn: 2000
PreviewTime: 57111
Countdown: 0
SampleSet: Soft
StackLeniency: 0.7
Mode: 0
LetterboxInBreaks: 0

[Editor]
DistanceSpacing: 1.3
BeatDivisor: 2
GridSize: 8

[Metadata]
Title:Endless Story (TV Size)
Artist:Tamura Yukari
Creator:wcx19911123
Version:C3
Source:C3 Shikyubu
Tags:KayeSara jongsen Cube Cursed Curious OP opening STARCHILD SILVER LINK. Chihara Minori Eri Kitamura

[Difficulty]
HPDrainRate:2
CircleSize:3
OverallDifficulty:2
ApproachRate:3
SliderMultiplier:0.6
SliderTickRate:1

[Events]
//Background and Video events
0,0,"BG.jpg"
Video,130,"OP.avi"
//Break Periods
//Storyboard Layer 0 (Background)
//Storyboard Layer 1 (Fail)
//Storyboard Layer 2 (Pass)
//Storyboard Layer 3 (Foreground)
//Storyboard Sound Samples
//Background Colour Transformations
3,100,163,162,255

[TimingPoints]
-2027,759.493670886076,4,2,2,80,1,0
11643,-100,4,2,2,60,0,0
13556,320.855614973262,4,1,1,40,1,0
13876,-100,4,2,1,40,0,0
14197,320.855614973262,4,1,1,50,1,0
14197,-100,4,1,1,50,0,0
23341,-100,4,2,2,50,0,0
23501,-100,4,1,1,50,0,0
23983,-100,4,2,1,40,0,0
24464,-100,4,2,1,80,0,0
26389,-100,4,2,2,80,0,0
26710,-100,4,2,1,80,0,0
28956,-100,4,2,2,80,0,0
29277,-100,4,2,1,80,0,0
29598,-100,4,1,1,50,0,0
29918,-100,4,2,1,80,0,0
32806,-100,4,2,2,80,0,0
33127,-100,4,2,1,80,0,0
34090,-100,4,2,2,80,0,0
34410,-100,4,2,1,80,0,0
36656,-100,4,2,2,80,0,0
36977,-100,4,2,1,80,0,0
37940,-100,4,2,2,80,0,0
38261,-100,4,2,1,80,0,0
39223,-100,4,2,2,80,0,0
39544,-100,4,2,1,80,0,0
39865,-100,4,1,1,50,0,0
40186,-100,4,2,1,80,0,0
44357,-100,4,1,1,80,0,0
44999,-100,4,2,1,70,0,0
45319,-100,4,2,2,70,0,0
45640,-100,4,2,1,70,0,0
46603,-100,4,2,2,70,0,0
46763,-100,4,2,1,70,0,0
47245,-100,4,1,1,50,0,0
47565,-100,4,2,1,70,0,0
47886,-100,4,2,2,70,0,0
48207,-100,4,2,1,70,0,0
49170,-100,4,2,2,70,0,0
49330,-100,4,2,1,70,0,0
49811,-100,4,1,1,50,0,0
50132,-100,4,2,1,70,0,0
50453,-100,4,2,2,70,0,0
50774,-100,4,2,1,70,0,0
51737,-100,4,2,2,70,0,0
51897,-100,4,2,1,70,0,0
52378,-100,4,1,1,50,0,0
52699,-100,4,2,1,70,0,0
53341,-100,4,2,2,70,0,0
53662,-100,4,2,1,70,0,0
53983,-100,4,2,2,70,0,0
54143,-100,4,2,1,70,0,0
56549,-100,4,1,1,80,0,0
57191,-100,4,2,1,70,0,0
57833,-100,4,2,1,85,0,1
66817,-100,4,2,2,85,0,1
67138,-100,4,2,1,85,0,1
67459,-100,4,2,1,50,0,1
68100,-100,4,2,1,85,0,1
77245,-100,4,2,2,85,0,1
77405,-100,4,2,1,85,0,1
77726,-100,4,1,1,55,0,1
78368,-100,4,1,1,55,0,0
87031,-100,4,1,2,55,0,0
87191,-100,4,1,1,55,0,0
87352,-100,4,2,1,55,0,0
87672,-100,4,2,1,45,0,0
87993,-100,4,2,1,35,0,0
88314,-100,4,2,1,25,0,0
88635,-100,4,2,1,15,0,0
88956,-100,4,2,1,5,0,0

[Colours]
Combo1 : 107,51,255
Combo2 : 149,207,255
Combo3 : 249,165,81

[HitObjects]
256,88,251,2,0,B|272:56|304:48,1,60,0|6
360,48,1770,5,0
404,88,2529,1,0
408,148,3289,6,0,B|408:184|384:200,1,60,0|2
324,208,4808,1,0
274,174,5567,1,0
216,188,6327,6,0,B|188:208|152:196,2,60,0|6|0
264,152,8605,2,0,B|280:120|312:112,1,60
368,112,10124,5,2
410,154,10884,1,0
396,212,11643,1,0
392,224,13556,6,0,B|388:296|320:312,1,120,0|4
262,263,14517,6,0,B|284:234|325:231,2,60,8|0|8
252,341,15480,2,0,B|184:324|184:256,2,120,0|0|4
323,310,17084,6,0,B|343:283|338:246,2,60,8|0|8
262,263,18047,2,0,B|260:192|328:176,1,120
400,205,19009,1,8
452,148,19330,6,0,B|499:203|455:260,2,120,4|0|0
375,131,20934,2,0,B|380:96|416:80,2,60,8|0|8
319,186,21897,6,0,B|228:232|144:176,1,180,12|0
122,162,23020,2,0,B|80:136|32:160,1,90,4|8
20,184,23662,2,0,B|0:272|56:328,1,150,4|4
120,364,24785,5,8
192,272,25426,1,8
192,272,25747,2,0,B|224:232|280:232,2,90,0|0|8
162,344,27031,6,0,B|192:356|227:341,1,60,0|8
328,288,27993,1,8
328,288,28314,2,0,B|360:332|409:325,2,90,0|0|8
396,248,29598,6,0,B|448:204|440:128,2,120,4|0|0
336,198,31202,2,0,B|368:178|364:138,2,60,8|0|8
276,248,32164,5,0
200,228,32485,2,0,B|152:184|168:120,1,120,8|8
216,56,33448,1,0
291,76,33769,2,0,B|339:120|323:184,1,120,8|8
276,248,34731,6,0,B|252:268|220:256,1,60,4|8
116,196,35694,1,8
116,196,36015,2,0,B|116:248|72:272,2,90,0|0|8
38,203,37298,5,0
71,132,37619,2,0,B|104:80|176:72,1,120,8|8
248,88,38582,1,0
214,158,38902,2,0,B|181:210|109:218,1,120,8|8
38,203,39865,6,0,B|32:272|99:294,2,120,4|0|0
60,128,41469,2,0,B|72:104|112:96,1,60,8|0
187,102,42111,1,8
248,152,42432,6,0,B|300:188|368:172,2,120,4|0|0
187,102,44036,1,8
260,72,44357,5,0
260,72,44678,1,0
332,100,44999,6,0,B|388:140|456:120,1,120,12|8
428,240,46282,2,0,B|448:196|500:188,2,90,8|0|0
396,312,47565,6,0,B|348:360|280:348,1,120,12|8
233,241,48849,2,0,B|243:290|205:325,2,90,8|0|0
158,263,50132,6,0,B|96:268|64:336,1,120,12|8
68,212,51416,2,0,B|116:196|128:150,2,90,8|0|0
52,136,52699,6,0,B|66:84|116:75,4,90,4|0|8|0|0
68,212,54945,1,8
114,275,55266,6,0,B|104:308|72:324,2,60,8|8|8
145,203,56229,1,8
98,141,56549,5,0
98,141,56870,1,0
112,64,57191,6,0,B|156:16|232:28,1,120,0|4
286,70,58154,1,8
322,139,58475,2,0,B|340:172|386:174,1,60,0|8
385,96,59116,2,0,B|456:120|444:192,1,120
393,246,60079,1,8
380,324,60400,6,0,B|420:328|448:300,2,60,4|8|0
319,275,61362,1,8
244,252,61683,2,0,B|180:236|124:264,1,120
71,317,62646,1,8
52,240,62967,6,0,B|40:180|72:120,1,120,4|0
120,64,63929,1,8
193,36,64250,2,0,B|227:25|253:40,2,60,0|8|0
221,109,65213,2,0,B|188:116|172:148,2,60,8|4|8
298,100,66175,6,0,B|336:68|326:19,2,90,0|4|8
267,172,67459,2,0,B|336:192|368:132,1,120,8|4
404,62,68421,1,8
450,125,68742,2,0,B|440:184|387:226,1,120
316,255,69705,1,8
378,302,70025,6,0,B|431:341|495:329,2,120,0|4|0
316,255,71630,1,8
262,199,71951,2,0,B|206:167|138:187,1,120
84,232,72913,1,8
138,288,73234,6,0,B|194:320|262:300,1,120,4|0
316,255,74197,1,8
337,180,74517,2,0,B|349:116|405:84,2,120,0|0|12
316,255,76122,5,8
364,316,76442,2,0,B|336:336|304:332,1,60,8|8
278,323,76924,2,0,B|232:292|240:240,1,90,4|8
285,184,77726,2,0,B|316:160|316:120,1,60
308,56,78368,6,0,B|376:57|393:127,2,120,4|0|0
243,99,79972,1,8
166,88,80293,2,0,B|106:92|62:148,1,120,0|4
44,220,81255,5,8
120,200,81576,2,0,B|184:188|240:224,1,120
290,277,82539,2,0,B|266:298|232:299,2,60,8|0|8
312,202,83501,6,0,B|336:136|400:120,2,120,4|0|0
290,277,85106,2,0,B|320:286|349:270,2,60,8|0|8
214,258,86068,5,12
180,187,86389,1,8
216,118,86710,2,0,B|259:145|256:192,1,90,0|4
256,192,87352,12,0,89277
