osu file format v9

[General]
AudioFilename: c3_op^2.mp3
AudioLeadIn: 1500
PreviewTime: 56979
Countdown: 0
SampleSet: Normal
StackLeniency: 0.7
Mode: 0
LetterboxInBreaks: 0

[Editor]
DistanceSpacing: 0.8
BeatDivisor: 4
GridSize: 8

[Metadata]
Title:Endless Story (TV Size)
Artist:Tamura Yukari
Creator:blissfulyoshi
Version:Easy^2
Source:C3 Shikyubu
Tags:cube cursed curious cubexcursedxcurious c^3 Kirino Kousaka Megastore opening fear

[Difficulty]
HPDrainRate:4
CircleSize:4
OverallDifficulty:4
ApproachRate:5
SliderMultiplier:1.2
SliderTickRate:2

[Events]
//Background and Video events
0,0,"25200814.jpg"
Video,-1200,"c3_op.avi"
//Break Periods
//Storyboard Layer 0 (Background)
//Storyboard Layer 1 (Fail)
//Storyboard Layer 2 (Pass)
//Storyboard Layer 3 (Foreground)
//Storyboard Sound Samples
//Background Colour Transformations
3,100,163,162,255

[TimingPoints]
795,759.493670886076,4,2,1,50,1,0
795,-66.6666666666667,4,2,1,50,0,0
13326,320.855614973262,4,1,0,90,1,0
13971,320.855614973262,4,1,0,70,1,0
44773,-125,4,2,0,70,0,0
49746,-125,4,2,0,50,0,0
49987,-125,4,2,0,70,0,0
54880,-125,4,2,0,50,0,0
56163,-125,4,2,0,80,0,0
56965,-100,4,2,0,90,0,0
57607,-100,4,1,0,70,0,1
75414,-100,4,2,0,90,0,1
76698,-100,4,2,0,5,0,0
76858,-100,4,2,0,5,0,0
77500,-100,4,1,0,50,0,0
86323,-100,4,1,0,30,0,0
88730,-100,4,2,0,10,0,0

[Colours]
Combo1 : 34,255,233
Combo2 : 242,179,235
Combo3 : 114,252,67

[HitObjects]
56,72,795,2,0,B|40:192|128:144|104:256,1,179.999994635582,2|2
136,104,2313,1,2
232,216,3073,5,2
344,304,3832,2,0,B|399:320|441:272,1,89.9999973177911,2|2
457,212,4592,2,0,B|401:195|359:243,1,89.9999973177911,2|2
328,168,5351,1,2
208,88,6111,5,2
176,224,6870,2,0,B|136:328|16:344,2,179.999994635582,2|2|2
256,344,9149,5,2
392,304,9908,2,0,B|392:216,1,89.9999973177911,2|2
472,240,10668,2,0,B|472:136,1,89.9999973177911,2|2
392,128,11427,2,0,B|376:48|304:24|232:48|216:128|216:128|32:40,1,449.999986588955,2|0
152,200,13971,6,0,B|232:200|264:264,1,120,4|8
176,304,14612,2,0,B|224:368|320:328,1,120,0|8
376,320,15254,2,0,B|440:288|464:240,1,120,0|8
472,136,15896,6,0,B|328:136,1,120,0|8
280,72,16537,1,0
208,136,16858,1,8
232,232,17179,1,0
328,232,17500,1,8
352,136,17821,1,4
96,112,18462,5,0
120,208,18783,1,8
176,288,19104,2,0,B|248:328|336:264,1,120,4|8
384,320,19746,2,0,B|401:239|311:200,1,120,0|8
304,128,20388,2,0,B|220:163|243:286,1,120,0|8
176,288,21029,5,0
88,248,21350,1,8
160,184,21671,2,0,B|44:148|23:61|23:61|116:25|145:112|262:55,1,420
424,128,23436,1,4
424,320,24238,6,0,B|328:312|336:216,1,120,4|8
280,328,24880,2,0,B|256:296|241:246|257:198,1,120,0|8
320,152,25521,1,0
320,152,25682,1,8
412,119,26003,2,0,B|379:47|323:34|249:39|221:108|224:142|224:152,1,240,0|0
320,152,26965,6,0,B|320:256,1,60,0|8
224,192,27446,1,0
152,128,27767,1,8
112,40,28088,2,0,B|72:48|48:88,1,60
24,160,28569,2,0,B|24:240|104:264,1,120,8|0
176,264,29211,2,0,B|256:248|336:264|272:352|360:376|456:336,1,300,8|8
104,160,30976,5,8
192,128,31297,1,0
256,56,31618,1,8
320,128,31938,1,0
408,160,32259,2,0,B|480:152|496:72,1,120,8|0
32,224,34505,6,0,B|120:224|121:127,1,120,4|8
112,64,35147,2,0,B|102:145|119:197|161:233|222:276|280:256,1,300,0|8
360,200,36270,1,0
456,200,36591,1,8
309,346,37233,6,0,B|268:362|240:340,1,60,0|8
280,256,37714,1,0
280,160,38035,1,8
280,64,38356,1,0
280,64,38516,1,0
184,136,38837,1,8
280,160,39158,1,0
376,136,39479,2,0,B|400:192|400:192|442:195|472:226|474:257|466:285,1,180,8|8
441,363,40281,2,0,B|369:331|401:251,1,120,0|8
216,344,41243,5,8
128,296,41564,1,0
96,208,41885,1,8
128,120,42206,2,0,B|208:112|224:192,1,120,4|8
232,272,42848,2,0,B|177:235|200:176|248:152|280:136|280:136|245:44|127:45,1,360,0|0
352,136,44773,6,0,B|408:182|459:113,1,96,4|0
397,71,45414,2,0,B|341:25|290:94,1,96,2|0
352,136,46056,2,0,B|264:168|344:248|256:304|216:296,1,192,2|2
64,328,47500,5,0
64,328,47660,1,2
112,264,47981,2,0,B|152:216|152:152,1,96,0|2
80,144,48623,2,0,B|142:202|224:184|248:160|240:144|224:160|304:192|248:280,1,288,0|2
328,296,49906,6,0,B|359:227|332:174,1,96,4|2
336,128,50548,2,0,B|384:144|448:104,1,96,0|2
456,184,51190,2,0,B|468:271|432:336,1,144,0|2
152,80,52473,6,0,B|96:156|164:226,2,144,4|2|0
152,80,53596,1,0
208,136,53917,2,0,B|264:212|196:282,1,144,2|0
152,320,54719,1,2
224,352,55040,5,8
296,328,55361,1,8
352,272,55682,1,8
376,200,56003,1,8
392,128,56323,2,0,B|400:96|392:48,2,48,8|8|8
296,136,56965,6,0,B|225:170|152:120,1,120,0|0
119,60,57607,2,0,B|189:25|262:75,1,120,4|8
296,136,58249,2,0,B|304:208|224:264,1,120,0|8
160,272,58890,1,0
336,344,59532,6,0,B|378:367|424:308|383:269,1,120,0|8
320,208,60174,2,0,B|287:165|341:118|374:140,1,120,0|8
432,216,60815,2,0,B|474:239|520:180|479:141,1,120,0|8
448,56,61457,1,4
256,96,62099,5,0
256,192,62420,1,8
256,288,62741,1,4
9,294,63382,6,0,B|88:183,1,120,0|8
136,120,64024,1,0
192,42,64345,1,8
136,120,64666,2,0,B|177:144|211:145|254:117,1,120,0|8
304,40,65307,2,0,B|195:157|256:272,2,240
320,232,67233,6,0,B|281:161|368:88,1,120,0|8
408,184,67874,2,0,B|447:255|360:328,1,120,4|8
305,342,68516,2,0,B|266:271|353:198,1,120,0|8
224,256,69158,1,0
118,25,69800,6,0,B|13:83,1,120,0|8
2,179,70442,2,0,B|117:249,1,120,0|8
192,190,71083,2,0,B|193:38,1,120,0|8
112,136,71725,1,0
296,136,72367,5,0
376,192,72688,1,8
296,248,73009,1,4
128,336,73650,6,0,B|174:268|224:248,1,120,0|8
213,130,74291,2,0,B|161:101|128:48,1,120,0|8
104,144,74933,2,0,B|112:184|137:192|137:192|112:200|99:251,1,120,0|8
256,192,75575,1,2
256,192,75655,12,0,76698
200,128,78142,6,0,B|146:65|62:100,1,120,4|8
36,171,78783,2,0,B|47:250|133:259,1,120,0|8
124,171,79425,1,0
216,344,80067,5,0
304,304,80388,1,8
320,208,80708,2,0,B|320:144|368:88,1,120,4|8
264,112,81350,2,0,B|237:179|244:236,1,120,0|8
168,168,81992,2,0,B|195:101|188:44,1,120,0|8
96,72,82634,5,0
72,168,82954,1,8
24,256,83275,2,0,B|136:344,1,120,4|8
216,328,83917,2,0,B|256:284|256:284|314:356,1,120,0|8
393,330,84559,2,0,B|488:256,1,120,0|8
448,168,85200,6,0,B|328:264,1,120,0|8
320,152,85842,1,0
248,96,86163,1,0
152,80,86484,2,0,B|112:80,6,30,0|0|0|0|0|0|4
256,192,87045,12,0,88730
