osu file format v9

[General]
AudioFilename: c3_op^2.mp3
AudioLeadIn: 1500
PreviewTime: 56979
Countdown: 0
SampleSet: Soft
StackLeniency: 0.4
Mode: 0
LetterboxInBreaks: 0

[Editor]
DistanceSpacing: 0.9
BeatDivisor: 4
GridSize: 4

[Metadata]
Title:Endless Story (TV Size)
Artist:Tamura Yukari
Creator:blissfulyoshi
Version:Easy
Source:C3 Shikyubu
Tags:cube cursed curious cubexcursedxcurious c^3 Kirino Kousaka Megastore opening fear

[Difficulty]
HPDrainRate:2
CircleSize:4
OverallDifficulty:2
ApproachRate:3
SliderMultiplier:0.8
SliderTickRate:2

[Events]
//Background and Video events
Video,-1200,"c3_op.avi"
0,0,"25200814.jpg"
//Break Periods
//Storyboard Layer 0 (Background)
//Storyboard Layer 1 (Fail)
//Storyboard Layer 2 (Pass)
//Storyboard Layer 3 (Foreground)
//Storyboard Sound Samples
//Background Colour Transformations
3,100,163,162,255

[TimingPoints]
795,759.493670886076,4,2,1,50,1,0
795,-66.6666666666667,4,2,1,50,0,0
13326,320.855614973262,4,1,0,70,1,0
13971,320.855614973262,4,1,0,70,1,0
24238,-100,4,2,0,90,0,0
44452,-100,4,2,0,70,0,0
55200,-100,4,2,0,40,0,0
56163,-100,4,2,0,80,0,0
56805,-100,4,2,0,90,0,0
57607,-100,4,1,0,70,0,1
75414,-100,4,2,0,90,0,1
76698,-100,4,2,0,5,0,1
76858,-100,4,2,0,5,0,0
77821,-100,4,2,0,90,0,0
86163,-100,4,2,0,50,0,0
88730,-100,4,2,0,10,0,0

[Colours]
Combo1 : 34,255,233
Combo2 : 242,179,235
Combo3 : 114,252,67

[HitObjects]
40,160,795,1,2
104,232,1554,1,2
168,160,2313,1,2
472,160,3832,6,0,B|400:256|400:256|328:160,1,239.999992847443,2|2
176,264,6870,5,4
256,320,7630,1,2
336,264,8389,1,2
208,120,9908,5,2
256,200,10668,1,0
296,120,11427,2,0,B|337:102|367:118|367:118|400:48|400:48|352:32|284:35|243:71,1,299.999991059304,2|0
88,96,13971,6,0,B|88:160|120:176,1,80,4|8
184,160,14612,2,0,B|184:216|139:242,1,80,0|8
88,256,15254,2,0,B|106:309|169:319|217:291|232:233,1,160
360,272,16537,5,0
320,200,16858,1,8
400,200,17179,2,0,B|400:152|448:128,1,80,0|8
510,133,17821,2,0,B|400:134|400:134|352:128|344:104,1,160
224,176,19104,5,4
120,280,19746,1,8
16,176,20388,1,0
120,280,21029,5,0
120,208,21350,1,8
120,136,21671,2,0,B|160:48|160:48|240:48|240:48|196:144|196:144,1,280,0|4
342,162,23436,1,4
448,56,24238,6,0,B|424:112|344:120,1,80,2|0
416,176,24880,2,0,B|376:192|336:176|320:120,1,80,2|0
272,184,25521,2,0,B|292:234|336:248|386:257,2,120
168,280,27126,6,0,B|136:304|112:240|72:304,2,80,0|0|0
200,344,28088,2,0,B|239:322|256:280|240:224|202:196|127:214,1,200,2|0
88,208,29211,2,0,B|92:156|134:136|170:141|170:141|216:144|240:96,1,200,2|0
448,64,30976,5,2
392,112,31297,1,0
448,160,31618,1,2
392,208,31938,2,0,B|440:256|368:280|344:312|368:344|424:320|392:296,1,160
80,144,34505,6,0,B|128:120|120:160|184:128,1,80,2|0
224,104,35147,1,2
256,168,35468,1,0
320,128,35789,2,0,B|343:183|314:241|256:238,1,120,2|0
216,248,36591,2,0,B|156:267|192:320|103:336,1,120,2|0
104,261,37393,5,2
40,296,37714,2,0,B|16:240|68:196,1,80,2|0
96,168,38356,2,0,B|120:144|128:112,1,40,2|0
168,80,38837,2,0,B|200:48|224:96|240:64,1,80,2|0
312,64,39479,2,0,B|303:136|242:144|227:146|227:146|252:179|224:232,1,200,2|0
448,216,41243,5,2
485,277,41564,1,0
412,277,41885,1,2
448,216,42205,2,0,B|472:174|436:116,1,80,0|2
384,176,42848,2,0,B|360:134|374:85|420:53|464:67,1,160,0|2
120,344,44773,6,0,B|72:320|88:248,1,80,2|0
155,283,45414,2,0,B|154:223|95:206,1,80,2|0
169,164,46056,2,0,B|121:126|65:144|43:192|49:220,1,160,2|0
272,224,47339,6,0,B|311:241|348:239|391:199|392:158|375:105|317:94,1,240,2|0
307,163,48623,2,0,B|270:151|242:124|243:81|267:45,2,120,2|0|0
272,224,49906,6,0,B|196:189|183:142|176:101|179:67|201:18,1,240,4|0
128,16,51190,2,0,B|104:96|32:80,1,120,2|0
216,248,52473,6,0,B|256:312|336:304,1,120,4|0
424,304,53436,2,0,B|504:288|512:200,1,120,2|0
400,208,54398,6,0,B|328:160|320:56,1,160,2|0
256,112,55361,1,8
184,112,55682,1,8
112,112,56003,1,8
40,112,56323,2,0,B|0:112,2,40,8|8|8
40,184,56965,6,0,B|88:248|88:248|136:184,1,160,0|4
128,328,58249,2,0,B|176:264|176:264|224:328,1,160,8|8
352,256,59532,6,0,B|419:188,1,80,8|0
374,131,60174,2,0,B|294:210,1,80,8|0
278,125,60815,2,0,B|210:192,1,80,8|0
182,120,61457,1,8
120,248,62099,6,0,B|64:232|64:184,2,80,8|0|4
256,296,63382,6,8,B|304:296|330:257|344:216|306:171,1,160,8|8
256,224,64345,1,0
192,256,64666,2,0,B|176:224|181:191|219:161,1,80,8|0
128,160,65307,2,0,B|139:135|156:104|202:97|231:109|252:127|256:141|256:141|276:116|291:109|313:106|336:107|359:114|369:137|381:157|388:180,1,320,8|8
448,288,67233,6,0,B|358:343|276:270,1,160,8|4
64,288,68516,2,0,B|154:343|236:270,1,160,8|8
292,164,69799,5,8
220,164,70120,1,0
256,100,70441,2,0,B|256:-12,1,80,8|0
328,36,71083,2,0,B|374:19|410:39,1,80,8|0
468,76,71725,1,8
408,224,72366,6,0,B|360:310|263:338,1,160,8|4
144,344,73650,6,0,B|214:279|300:334,1,160,8|8
304,256,74612,1,0
232,240,74933,1,8
161,252,75254,1,0
256,192,75414,12,0,76697
128,104,78142,5,2
256,40,78783,1,2
384,104,79425,1,2
344,344,80708,6,0,B|288:264,1,80,2|0
216,280,81350,2,0,B|152:368,1,80,2|0
256,344,81992,1,2
40,56,83275,5,2
96,192,83917,1,2
40,328,84559,1,2
96,192,85200,2,0,B|264:192,1,160,2|0
400,192,86484,6,0,B|432:192,6,20,0|0|0|0|0|0|4
256,192,87045,12,0,88730
