osu file format v14

[General]
AudioFilename: Tamura Yukari - Endless Story.mp3
AudioLeadIn: 0
PreviewTime: 179405
Countdown: 0
SampleSet: Soft
StackLeniency: 0.4
Mode: 0
LetterboxInBreaks: 0
WidescreenStoryboard: 0

[Editor]
Bookmarks: 66464
DistanceSpacing: 1.6
BeatDivisor: 4
GridSize: 4
TimelineZoom: 1.8

[Metadata]
Title:Endless Story
TitleUnicode:Endless Story
Artist:Tamura Yukari
ArtistUnicode:Tamura Yukari
Creator:[Charlie Lam]
Version:Endless
Source:C3 Shikyubu
Tags:Cube×Cursed×Curious Fear opening full Kencho
BeatmapID:755237
BeatmapSetID:341575

[Difficulty]
HPDrainRate:6
CircleSize:4
OverallDifficulty:8.5
ApproachRate:9.2
SliderMultiplier:1.8
SliderTickRate:2

[Events]
//Background and Video events
0,0,"ANIME-PICTURES.NET_-_215807-1600x900-cube+x+cursed+x+curious-fear+kubrick-kantoku-long+hair-single-blush.jpg",0,0
//Break Periods
2,153237,161505
//Storyboard Layer 0 (Background)
//Storyboard Layer 1 (Fail)
//Storyboard Layer 2 (Pass)
//Storyboard Layer 3 (Foreground)
//Storyboard Sound Samples

[TimingPoints]
523,759.493670886076,4,2,0,50,1,0
11915,-100,4,2,0,50,0,0
12105,-100,4,2,0,5,0,0
13840,320.855614973262,4,2,0,60,1,8
14481,320.855614973262,4,2,0,60,1,0
14481,-100,4,2,0,60,0,0
18331,-200,4,2,0,60,0,0
18732,-100,4,2,0,60,0,0
23304,-133.333333333333,4,2,0,60,0,0
24748,-100,4,2,0,60,0,0
41432,-200,4,2,0,60,0,0
41513,-200,4,2,0,15,0,0
41673,-100,4,2,0,60,0,0
43999,-200,4,2,0,60,0,0
44240,-83.3333333333333,4,2,0,60,0,0
45283,-166.666666666667,4,2,0,60,0,0
52983,-125,4,2,0,60,0,0
55550,-200,4,1,0,35,0,0
55871,-200,4,1,0,50,0,0
56192,-125,4,1,0,65,0,0
56513,-125,4,1,0,70,0,0
57475,-125,4,2,0,30,0,0
57636,-100,4,2,0,40,0,0
58117,-76.9230769230769,4,2,0,70,0,1
77208,-200,4,2,0,70,0,1
78010,-90.9090909090909,4,2,0,60,0,0
87475,-166.666666666667,4,2,0,60,0,0
88277,-100,4,2,0,55,0,0
88598,-100,4,2,0,60,0,0
109454,-166.666666666667,4,2,0,60,0,0
117155,-125,4,2,0,60,0,0
119722,-125,4,1,0,35,0,0
120043,-125,4,1,0,40,0,0
120364,-125,4,1,0,65,0,0
120684,-125,4,1,0,70,0,0
121646,-125,4,2,0,30,0,0
121967,-100,4,2,0,50,0,0
122288,-76.9230769230769,4,2,0,70,0,1
134801,-58.8235294117647,4,2,0,70,0,1
134962,-76.9230769230769,4,2,0,70,0,1
141379,-133.333333333333,4,2,0,70,0,1
142021,-100,4,2,0,60,0,0
165925,-100,4,2,0,40,0,0
166246,-100,4,2,0,50,0,0
166567,-100,4,2,0,60,0,0
166888,-100,4,2,0,60,0,0
168492,-100,4,2,0,50,0,0
179400,-200,4,2,0,50,0,0
180042,-76.9230769230769,4,2,0,70,0,1
199133,-200,4,2,0,70,0,1
199935,-100,4,2,0,60,0,0
208277,-133.333333333333,4,2,0,60,0,0
210042,-100,4,2,0,60,0,0
219825,-100,4,2,0,10,0,0

[Colours]
Combo1 : 255,255,255
Combo2 : 0,202,0
Combo3 : 18,124,255
Combo4 : 242,24,57
Combo5 : 255,192,0

[HitObjects]
108,128,523,5,0,0:0:0:0:
176,68,902,1,0,0:0:0:0:
259,107,1282,2,0,P|268:152|262:196,1,90
188,264,2041,2,0,P|179:219|185:175,1,90
288,296,2801,2,0,P|210:339|121:342,1,180
100,192,3940,5,0,0:0:0:0:
191,119,4320,2,0,P|199:164|200:209,1,90
107,96,5079,2,0,P|136:61|173:35,2,90
368,184,6598,5,0,0:0:0:0:
312,256,6978,1,0,0:0:0:0:
332,344,7358,2,0,B|284:344|284:344|248:319,1,90
228,232,8117,2,0,B|276:232|276:232|311:256,1,90
159,172,8877,6,0,P|197:91|271:41,1,180,2|0,0:0|0:0,0:0:0:0:
360,40,10016,1,0,0:0:0:0:
424,104,10396,2,0,L|489:42,1,90
358,165,11155,1,0,0:0:0:0:
423,102,11535,1,0,0:0:0:0:
424,196,11915,2,0,B|398:254|322:254|290:194|290:194|234:214|234:214|190:154|106:182|102:254,1,405,2|0,0:0|0:0,0:0:0:0:
88,324,13840,5,0,1:0:0:0:
124,332,13919,1,0,1:0:0:0:
160,336,13999,1,0,1:0:0:0:
196,340,14080,1,0,1:0:0:0:
240,340,14160,6,0,L|243:295,1,45,0|0,1:0|1:0,1:0:0:0:
312,328,14321,2,0,L|320:372,1,45,0|0,1:0|1:0,1:0:0:0:
384,328,14481,38,0,P|400:240|395:150,1,180,0|0,1:0|1:0,0:0:0:0:
280,252,14962,1,0,0:0:0:0:
280,252,15042,1,0,0:0:0:0:
281,252,15122,2,0,P|275:296|280:341,1,90
396,344,15443,1,0,1:0:0:0:
372,192,15603,1,0,0:0:0:0:
280,252,15764,6,0,P|195:236|155:159,1,180,0|0,0:0|1:0,0:0:0:0:
224,100,16245,1,0,0:0:0:0:
272,172,16406,2,0,P|310:149|327:109,1,90
292,20,16726,2,0,P|337:18|389:23,1,90,0|0,1:0|0:3,0:3:0:0:
496,120,17047,6,0,P|502:165|499:209,1,90
400,160,17368,2,0,L|314:188,1,90,0|0,1:0|0:0,0:0:0:0:
314,188,17609,1,0,0:0:0:0:
314,188,17689,1,0,0:0:0:0:
240,144,17849,5,0,0:0:0:0:
408,88,18010,1,0,1:0:0:0:
392,240,18170,1,0,0:0:0:0:
276,223,18331,38,0,B|252:203|252:163|252:163|239:143,1,90,0|0,0:0|1:0,0:0:0:0:
336,172,18813,1,0,0:0:0:0:
336,172,18972,2,0,P|380:166|422:180,1,90
175,310,19293,5,0,1:0:0:0:
151,282,19374,1,0,1:0:0:0:
139,246,19454,1,0,1:0:0:0:
143,210,19534,1,0,1:0:0:0:
163,178,19615,6,0,B|237:146|271:222|335:172,1,180,0|0,1:0|1:0,0:0:0:0:
464,108,20095,1,0,0:0:0:0:
464,108,20176,1,0,0:0:0:0:
464,108,20256,2,0,L|448:4,1,90
472,196,20577,1,0,1:0:0:0:
388,156,20737,1,0,0:0:0:0:
316,220,20898,6,0,B|281:193|289:133|289:133|320:104|316:56,1,180,0|0,1:0|1:0,1:0:0:0:
228,68,21379,5,0,0:0:0:0:
120,220,21539,1,0,1:0:0:0:
128,132,21700,1,0,0:0:0:0:
228,272,21860,1,0,1:0:0:0:
276,168,22021,1,0,0:0:0:0:
360,220,22181,22,0,L|366:130,1,90,0|0,1:0|1:0,1:0:0:0:
300,256,22502,2,0,L|292:345,1,90,0|0,1:0|1:0,1:0:0:0:
292,345,22743,1,0,1:0:0:0:
292,345,22823,1,0,1:0:0:0:
232,184,22983,1,0,1:0:0:0:
368,316,23144,1,0,1:0:0:0:
256,289,23305,6,0,B|267:259|302:244|302:244|325:217|364:217,1,135.000005149842,0|0,1:3|1:3,0:3:0:0:
504,248,23785,1,0,1:0:0:0:
416,304,23946,1,0,1:0:0:0:
400,148,24106,5,0,1:0:0:0:
372,144,24187,1,0,1:0:0:0:
344,144,24267,1,0,1:0:0:0:
316,148,24348,1,0,1:0:0:0:
292,156,24428,1,0,1:0:0:0:
264,160,24508,1,0,1:0:0:0:
236,156,24588,1,0,1:0:0:0:
212,144,24668,1,0,1:0:0:0:
180,124,24749,38,0,B|132:148|108:184|108:184|100:228|114:268,1,180,0|0,1:0|1:0,0:0:0:0:
224,344,25230,1,0,0:0:0:0:
296,200,25390,2,0,P|311:157|310:113,1,90
196,216,25710,2,0,P|180:258|181:302,1,90,0|0,1:0|0:0,0:0:0:0:
344,316,26031,6,0,P|314:282|273:264,2,90,0|0|0,0:0|0:0|1:0,0:0:0:0:
464,287,26513,2,0,P|479:245|485:201,1,90
380,32,26833,2,0,P|364:74|356:118,1,90,2|0,0:0|1:0,0:0:0:0:
360,244,27154,1,0,0:0:0:0:
360,244,27315,5,0,0:0:0:0:
248,192,27476,2,0,P|204:182|160:192,2,90,0|0|0,0:0|1:0|0:0,0:0:0:0:
248,316,27956,1,0,0:0:0:0:
120,316,28117,1,0,0:0:0:0:
120,192,28277,1,0,1:0:0:0:
248,192,28438,1,0,0:0:0:0:
95,280,28598,6,0,P|51:281|8:269,1,90
164,184,28919,1,0,1:0:0:0:
164,183,29079,2,0,P|207:174|252:178,1,90
392,272,29400,1,0,0:0:0:0:
352,168,29561,2,0,P|340:210|304:237,1,90,0|0,1:0|0:0,0:0:0:0:
260,248,29801,1,0,0:0:0:0:
216,246,29882,6,0,B|252:208|224:156|224:156|248:112|291:118,1,180,2|0,0:0|1:0,0:0:0:0:
427,157,30364,5,0,0:0:0:0:
290,117,30523,1,0,0:0:0:0:
471,97,30684,1,0,0:0:0:0:
263,181,30844,1,0,1:0:0:0:
359,21,31005,1,0,0:0:0:0:
383,233,31165,1,0,0:0:0:0:
141,274,31487,6,0,P|110:242|104:199,1,90,0|0,1:0|0:0,0:0:0:0:
251,143,31807,2,0,P|230:182|194:208,1,90
83,89,32128,2,0,P|126:101|155:135,1,90,0|0,1:0|0:0,0:0:0:0:
184,256,32448,5,0,0:0:0:0:
96,344,32610,1,0,0:0:0:0:
8,252,32770,2,0,P|48:231|93:232,1,90,0|0,1:0|0:0,0:0:0:0:
180,324,33090,2,0,P|139:344|94:343,2,90,0|0|0,0:0|0:0|1:0,0:0:0:0:
256,260,33571,5,2,0:0:0:0:
256,260,33732,1,0,0:0:0:0:
256,260,33892,1,2,0:0:0:0:
256,259,34053,2,0,P|172:280|111:219,1,180,0|0,1:2|0:0,0:0:0:0:
124,176,34454,5,0,1:0:0:0:
168,168,34535,1,0,1:0:0:0:
212,180,34615,1,0,1:0:0:0:
248,204,34694,1,0,1:0:0:0:
280,236,34775,1,0,1:0:0:0:
324,248,34855,1,0,1:0:0:0:
368,240,34935,1,0,1:0:0:0:
408,220,35016,38,0,B|420:152|420:152|411:86,1,135
411,86,35336,1,0,1:0:0:0:
332,160,35497,1,0,0:0:0:0:
512,136,35657,2,0,L|512:226,1,90
332,160,35978,2,0,B|287:151|287:151|243:162,1,90,0|0,1:0|0:0,1:0:0:0:
112,228,36299,2,0,B|88:188|88:188|84:144,1,90
184,156,36620,1,0,1:0:0:0:
248,92,36780,2,0,P|293:86|337:92,1,90
464,200,37101,2,0,P|419:206|375:200,1,90,2|0,0:0|1:0,0:0:0:0:
216,144,37422,5,0,0:0:0:0:
296,72,37582,1,0,0:0:0:0:
248,248,37743,2,0,B|221:334,1,90,0|0,0:0|1:0,0:0:0:0:
221,333,38063,1,0,0:0:0:0:
188,168,38224,2,0,L|214:82,1,90
340,256,38545,2,0,L|313:342,1,90,0|0,1:0|0:0,0:0:0:0:
448,344,38866,5,0,0:0:0:0:
408,232,39026,1,0,0:0:0:0:
472,120,39186,1,0,1:0:0:0:
320,40,39347,2,0,P|309:84|308:129,1,90
220,320,39668,2,0,P|232:277|235:233,1,90,0|0,0:0|1:0,0:0:0:0:
159,92,39989,1,0,1:0:0:0:
159,92,40069,1,0,1:0:0:0:
159,92,40150,6,0,P|131:177|134:266,1,180,0|0,1:0|1:0,0:0:0:0:
228,348,40630,1,0,0:0:0:0:
304,196,40791,1,0,0:0:0:0:
200,280,40952,1,0,0:0:0:0:
316,276,41112,1,0,1:0:0:0:
244,228,41272,1,0,0:0:0:0:
272,336,41432,6,0,P|302:343|347:344,1,67.5
408,304,41753,6,0,P|432:268|452:224,1,90,0|0,1:0|0:0,0:0:0:0:
412,100,42074,2,0,P|370:86|322:79,1,90
132,128,42395,2,0,P|173:141|221:148,1,90,0|0,1:0|0:0,0:0:0:0:
360,176,42716,5,0,0:0:0:0:
352,312,42876,1,0,0:0:0:0:
252,236,43037,1,0,1:0:0:0:
432,176,43197,1,0,0:0:0:0:
224,176,43358,2,0,P|179:180|136:193,1,90
332,240,43678,2,0,P|376:235|419:222,1,90,0|0,1:0|0:0,0:0:0:0:
424,64,43999,6,0,L|399:5,1,45
344,63,44320,6,0,P|299:93|246:97,1,107.999996704102,0|0,1:0|0:0,0:0:0:0:
108,48,44642,5,8,0:3:0:0:
344,252,44801,1,8,0:3:0:0:
344,63,44962,1,8,0:3:0:0:
100,268,45283,5,0,1:0:0:0:
100,268,45603,2,0,L|156:240,1,53.9999983520508
188,316,45924,2,0,P|220:273|225:220,1,107.999996704102,0|0,1:0|0:0,0:0:0:0:
180,144,46406,1,0,0:0:0:0:
308,200,46566,5,0,1:0:0:0:
307,199,46727,2,0,P|359:213|413:208,1,107.999996704102,0|0,1:0|0:0,0:0:0:0:
364,136,47208,2,0,L|400:96,1,53.9999983520508,0|0,1:0|0:0,0:0:0:0:
452,48,47529,1,0,1:0:0:0:
452,48,47690,2,0,L|496:4,1,53.9999983520508,0|0,1:0|0:0,0:0:0:0:
364,136,48010,1,0,0:0:0:0:
432,236,48170,2,0,P|382:257|329:252,1,107.999996704102,0|0,0:0|1:0,0:0:0:0:
112,192,48812,2,0,L|166:192,1,53.9999983520508
264,336,49134,5,0,1:0:0:0:
263,336,49294,2,0,P|303:299|319:249,1,107.999996704102,0|0,1:0|1:0,0:0:0:0:
168,160,49935,1,10,0:3:0:0:
160,196,50095,1,4,0:3:0:0:
152,232,50256,1,8,0:3:0:0:
144,268,50417,6,0,L|252:268,1,107.999996704102,0|0,1:0|0:0,1:0:0:0:
452,340,50898,1,0,0:0:0:0:
452,340,51059,2,0,L|336:340,1,107.999996704102,0|0,1:0|0:0,0:0:0:0:
336,252,51540,1,0,0:0:0:0:
268,196,51700,6,0,B|240:204|240:204|230:227,1,53.9999983520508,0|0,1:0|1:0,1:0:0:0:
88,84,52181,1,0,1:0:0:0:
88,84,52341,2,0,L|49:45,1,53.9999983520508,0|0,1:0|1:0,1:0:0:0:
184,184,52662,2,0,L|145:145,1,53.9999983520508,0|0,1:0|1:0,1:0:0:0:
112,300,52983,6,0,L|127:229,1,72
168,352,53304,2,0,L|239:367,1,72,0|0,1:0|0:0,0:0:0:0:
268,248,53625,1,0,1:0:0:0:
268,248,53785,1,0,1:0:0:0:
268,247,53946,2,0,P|293:222|325:207,1,72,0|0,1:0|0:0,0:0:0:0:
472,224,54267,6,0,P|425:276|356:288,1,144,0|0,1:0|0:0,0:0:0:0:
264,188,54748,1,0,0:0:0:0:
137,140,54908,1,0,1:0:0:0:
80,184,55069,2,0,L|148:132,1,72,0|0,1:0|1:0,1:0:0:0:
208,92,55390,1,0,0:0:0:0:
424,136,55550,6,0,L|413:179,1,45,2|0,0:0|0:0,0:0:0:0:
120,296,55871,2,0,L|104:253,1,45,2|0,0:0|0:0,0:0:0:0:
180,80,56192,1,2,0:0:0:0:
324,284,56352,1,0,0:0:0:0:
108,96,56513,1,2,0:0:0:0:
400,268,56673,1,0,0:0:0:0:
148,296,56834,5,4,3:0:0:0:
232,72,56994,1,4,3:0:0:0:
356,288,57154,1,4,3:0:0:0:
168,112,58118,6,0,P|167:170|183:226,1,116.999994644165,2|0,0:2|0:0,0:0:0:0:
263,176,58438,2,0,P|321:164|379:159,1,116.999994644165,2|0,1:2|0:0,0:0:0:0:
183,226,58759,2,0,P|125:237|67:242,1,116.999994644165,2|0,0:2|0:0,0:0:0:0:
220,88,59079,1,0,1:0:0:0:
288,180,59240,1,0,0:0:0:0:
288,180,59320,1,0,0:0:0:0:
288,180,59400,6,0,P|246:285|138:322,1,233.999989288331,0|0,0:0|1:0,0:0:0:0:
48,288,59882,1,0,0:0:0:0:
8,200,60042,2,0,P|1:142|4:84,1,116.999994644165
150,141,60363,2,0,P|120:191|108:248,1,116.999994644165,0|0,1:0|3:0,3:0:0:0:
184,320,60684,5,0,0:0:0:0:
272,272,60844,1,0,0:0:0:0:
368,316,61005,2,0,P|379:260|364:203,1,116.999994644165,0|0,1:0|0:0,0:0:0:0:
444,76,61325,2,0,P|432:132|447:189,1,116.999994644165
512,264,61646,1,0,1:0:0:0:
328,260,61807,5,0,0:0:0:0:
280,256,61887,1,0,0:0:0:0:
240,240,61967,1,0,0:0:0:0:
132,132,62128,1,0,0:0:0:0:
188,184,62289,1,0,1:0:0:0:
232,52,62449,1,0,0:0:0:0:
264,200,62610,2,0,P|168:252|72:184,1,233.999989288331,0|0,0:0|1:0,0:0:0:0:
172,124,63090,1,0,0:0:0:0:
264,200,63251,6,0,P|342:121|296:20,1,233.999989288331,0|0,0:0|1:0,0:0:0:0:
192,72,63733,1,0,0:0:0:0:
116,24,63892,2,0,P|59:13|4:29,1,116.999994644165
136,128,64213,2,0,P|191:144|247:130,1,116.999994644165,0|0,1:0|0:0,0:0:0:0:
312,56,64534,6,0,L|280:168,1,116.999994644165
375,311,64855,2,0,P|352:258|353:200,1,116.999994644165,0|0,1:0|0:0,0:0:0:0:
416,124,65176,1,0,0:0:0:0:
432,244,65336,1,0,0:0:0:0:
248,200,65497,1,0,1:0:0:0:
200,320,65657,1,0,0:0:0:0:
200,320,65737,1,0,0:0:0:0:
200,319,65818,6,0,P|306:275|370:180,1,233.999989288331,0|0,0:0|1:0,0:0:0:0:
328,72,66299,1,0,0:0:0:0:
432,8,66460,2,0,L|461:121,1,116.999994644165
480,224,66780,1,0,1:0:0:0:
396,288,66940,2,0,P|282:260|167:275,1,233.999989288331
64,320,67422,1,0,1:0:0:0:
0,192,67582,1,0,0:0:0:0:
0,76,67743,6,0,L|57:91,1,58.4999973220826,0|0,1:0|1:0,1:0:0:0:
112,48,67903,2,0,L|169:32,1,58.4999973220826,0|0,1:0|1:0,1:0:0:0:
216,84,68063,2,0,L|273:99,1,58.4999973220826,0|0,1:0|1:0,1:0:0:0:
324,52,68224,2,0,L|381:36,1,58.4999973220826,0|0,1:0|1:0,1:0:0:0:
432,88,68385,6,0,B|456:204|456:204|412:310,1,233.999989288331,2|2,0:2|1:2,0:0:0:0:
328,356,68866,1,0,0:0:0:0:
248,304,69027,2,0,P|190:295|132:301,1,116.999994644165
272,224,69347,2,0,P|329:232|387:226,1,116.999994644165,0|0,1:0|0:0,0:0:0:0:
484,176,69668,5,0,0:0:0:0:
456,304,69828,1,0,0:0:0:0:
328,232,69989,2,0,L|355:118,1,116.999994644165,0|0,1:0|0:0,0:0:0:0:
256,240,70309,2,0,L|224:352,1,116.999994644165
148,252,70630,2,0,P|89:246|31:252,1,116.999994644165,0|0,1:0|0:0,0:0:0:0:
92,368,70951,5,0,0:0:0:0:
200,324,71112,1,0,0:0:0:0:
304,376,71272,2,0,P|362:375|419:363,1,116.999994644165,0|0,1:0|0:0,0:0:0:0:
460,340,71513,1,0,0:0:0:0:
480,300,71593,1,0,0:0:0:0:
468,180,71753,1,0,0:0:0:0:
360,120,71914,2,0,L|243:120,1,116.999994644165,0|0,1:0|0:0,0:0:0:0:
124,136,72235,5,0,0:0:0:0:
204,216,72396,1,0,0:0:0:0:
248,204,72475,1,0,0:0:0:0:
272,164,72555,1,2,1:3:0:0:
352,216,72717,1,0,0:0:0:0:
303,296,72877,2,0,P|246:303|188:294,1,116.999994644165
266,215,73197,2,0,P|324:206|382:214,1,116.999994644165,0|0,1:0|0:0,0:0:0:0:
448,272,73438,1,0,0:0:0:0:
448,272,73519,6,0,P|514:180|478:74,1,233.999989288331,0|0,0:0|1:0,0:0:0:0:
396,160,74000,1,0,0:0:0:0:
284,120,74160,2,0,L|284:3,1,116.999994644165
332,204,74481,2,0,L|332:320,1,116.999994644165,0|0,1:0|0:0,0:0:0:0:
244,188,74801,6,0,P|185:192|127:187,1,116.999994644165
348,128,75122,2,0,P|406:124|464:130,1,116.999994644165,0|0,1:0|0:0,0:0:0:0:
512,232,75443,5,0,0:0:0:0:
416,296,75603,1,0,0:0:0:0:
328,220,75765,2,0,P|344:163|341:105,1,116.999994644165,0|0,1:0|0:0,0:0:0:0:
144,116,76085,5,0,1:0:0:0:
223,313,76246,1,0,1:0:0:0:
296,80,76406,1,0,1:0:0:0:
80,216,76567,1,0,1:0:0:0:
344,228,76727,1,0,1:0:0:0:
272,20,76888,1,0,1:0:0:0:
264,308,77048,1,0,1:0:0:0:
414,124,77208,6,0,L|324:124,1,90,0|0,1:0|1:0,0:0:0:0:
232,192,77689,1,0,1:0:0:0:
308,8,77849,1,0,1:0:0:0:
344,152,78011,5,0,0:0:0:0:
356,184,78091,1,0,1:0:0:0:
364,224,78170,1,0,1:0:0:0:
364,264,78251,1,0,1:0:0:0:
352,300,78331,1,0,1:0:0:0:
320,328,78412,1,0,1:0:0:0:
284,344,78492,1,0,1:0:0:0:
244,352,78572,1,0,1:0:0:0:
204,348,78652,6,0,P|122:297|106:202,1,198.000006042481,0|0,1:0|1:0,0:0:0:0:
180,136,79134,1,0,0:0:0:0:
184,268,79293,2,0,P|148:301|101:314,1,99.0000030212403,0|0,0:0|0:0,1:0:0:0:
52,224,79614,1,0,1:0:0:0:
100,120,79775,1,0,0:0:0:0:
264,204,79936,6,0,B|343:187|368:105|368:105|357:59,1,198.000006042481,0|0,0:0|1:0,0:0:0:0:
256,16,80416,1,0,0:0:0:0:
176,88,80577,2,0,L|105:157,1,99.0000030212403
0,260,80898,2,0,P|46:273|94:263,1,99.0000030212403,0|0,1:0|0:0,0:0:0:0:
220,188,81219,5,0,0:0:0:0:
216,344,81380,1,0,0:0:0:0:
95,262,81540,2,0,P|69:218|70:170,1,99.0000030212403,0|0,1:0|0:0,0:0:0:0:
69,171,81780,1,0,0:0:0:0:
69,171,81861,1,0,0:0:0:0:
120,76,82021,1,0,0:0:0:0:
220,124,82181,2,0,P|268:131|316:121,1,99.0000030212403,0|0,1:0|0:0,0:0:0:0:
456,64,82502,6,0,B|448:120|483:163|483:163|471:207|471:207|437:176,1,198.000006042481,0|0,0:0|1:0,0:0:0:0:
324,140,82984,1,0,0:0:0:0:
255,227,83144,2,0,P|206:231|157:229,1,99.0000030212403
80,140,83464,1,0,1:0:0:0:
152,48,83625,1,0,1:0:0:0:
152,48,83705,1,0,1:0:0:0:
152,48,83786,6,0,B|191:95|191:95|232:68|280:68|320:93,1,198.000006042481,0|0,1:2|1:0,0:0:0:0:
256,168,84267,1,0,0:0:0:0:
312,248,84427,2,0,L|269:337,1,99.0000030212403
256,168,84748,2,0,L|292:76,1,99.0000030212403,0|0,1:0|0:0,0:0:0:0:
496,172,85069,6,0,B|472:240|404:240|404:240|384:204|347:194,1,198.000006042481,0|0,0:0|1:0,0:0:0:0:
192,208,85551,5,0,0:0:0:0:
347,194,85711,1,0,0:0:0:0:
296,272,85871,5,0,0:0:0:0:
248,116,86031,1,0,1:0:0:0:
192,208,86192,1,0,0:0:0:0:
280,56,86353,5,0,1:0:0:0:
360,192,86513,1,0,0:0:0:0:
256,68,86674,5,0,1:0:0:0:
256,248,86834,1,0,0:0:0:0:
240,56,86995,5,0,1:0:0:0:
144,196,87155,1,0,0:0:0:0:
256,40,87315,5,0,1:0:0:0:
63,175,87475,2,0,P|86:223|136:239,1,107.999996704102,0|0,1:0|1:0,0:0:0:0:
232,72,87956,1,0,1:0:0:0:
200,220,88117,1,0,1:0:0:0:
352,164,88278,5,0,0:0:0:0:
360,184,88358,1,0,0:0:0:0:
368,204,88438,1,0,0:0:0:0:
376,224,88519,1,0,0:0:0:0:
352,256,88599,1,0,1:0:0:0:
316,276,88679,1,0,1:0:0:0:
276,276,88759,1,0,1:0:0:0:
236,272,88839,1,0,1:0:0:0:
196,256,88920,6,0,P|177:171|220:94,1,180,0|0,1:0|1:0,0:0:0:0:
336,60,89401,1,0,0:0:0:0:
440,112,89561,2,0,L|455:23,1,90
504,208,89882,2,0,L|493:297,1,90,0|0,1:2|0:0,0:0:0:0:
404,372,90203,5,0,0:0:0:0:
340,276,90363,2,0,L|354:187,1,90,0|0,0:0|1:0,0:0:0:0:
473,116,90684,2,0,P|438:193|354:186,1,180
235,116,91165,2,0,P|269:193|353:186,1,180,0|0,1:0|0:0,0:0:0:0:
372,88,91646,6,0,L|383:-1,2,90,0|0|0,0:0|1:0|0:0,0:0:0:0:
348,240,92128,1,0,0:0:0:0:
240,140,92288,1,0,0:0:0:0:
372,88,92448,1,0,1:0:0:0:
244,248,92609,1,0,0:0:0:0:
150,140,92770,6,0,L|240:140,1,90,0|0,0:2|0:2,0:2:0:0:
328,88,93091,1,0,1:0:0:0:
431,148,93251,2,0,P|417:190|397:230,1,90
304,328,93571,1,0,0:0:0:0:
288,208,93733,1,0,1:0:0:0:
392,316,93893,1,0,0:0:0:0:
392,316,93973,1,0,0:0:0:0:
392,316,94053,6,0,P|424:234|383:157,1,180,2|0,0:0|1:0,0:0:0:0:
288,68,94535,1,0,0:0:0:0:
196,180,94694,1,0,0:0:0:0:
332,228,94855,1,0,0:0:0:0:
192,80,95015,1,0,0:0:0:0:
76,188,95176,1,0,0:0:0:0:
224,256,95336,5,0,0:0:0:0:
192,80,95497,1,0,0:0:0:0:
280,16,95658,2,0,P|304:92|236:172,1,180,0|0,1:0|0:0,0:0:0:0:
132,240,96139,1,0,0:0:0:0:
136,112,96299,1,0,1:0:0:0:
236,288,96459,1,0,0:0:0:0:
227,299,96540,1,0,0:0:0:0:
219,310,96621,6,0,P|135:338|53:307,1,180,0|0,0:0|1:2,0:0:0:0:
136,204,97102,1,2,0:0:0:0:
219,310,97262,2,0,P|256:229|239:142,1,180,0|0,0:0|1:0,0:0:0:0:
136,204,97743,1,0,0:0:0:0:
56,116,97904,6,2,P|89:85|132:71,1,90
284,72,98225,1,0,1:0:0:0:
360,204,98385,1,0,0:0:0:0:
208,204,98545,1,0,0:0:0:0:
131,71,98706,1,0,0:0:0:0:
92,72,98786,1,0,0:0:0:0:
52,72,98866,1,0,1:0:0:0:
116,184,99027,1,0,0:0:0:0:
160,184,99107,1,0,0:0:0:0:
204,184,99186,6,0,B|280:184|280:184|340:200|373:229,1,180,0|0,2:0|1:0,2:0:0:0:
248,336,99668,1,0,0:0:0:0:
224,224,99828,2,0,P|225:179|236:135,1,90
288,20,100149,1,0,1:0:0:0:
384,144,100309,1,0,0:0:0:0:
295,244,100470,6,0,P|252:253|207:246,1,90
136,152,100791,1,0,1:0:0:0:
244,176,100951,2,0,P|322:140|332:55,1,180
260,4,101432,2,0,P|244:45|252:89,1,90
320,192,101753,5,0,0:0:0:0:
380,88,101914,1,0,0:0:0:0:
252,89,102075,1,0,1:0:0:0:
200,192,102235,1,0,0:0:0:0:
320,192,102396,1,0,0:0:0:0:
256,296,102556,1,0,0:0:0:0:
200,192,102717,1,0,1:0:0:0:
132,296,102877,1,0,0:0:0:0:
256,295,103037,6,0,P|275:255|279:210,1,90
280,112,103358,1,0,1:0:0:0:
192,216,103519,2,0,P|270:258|356:240,1,180
280,112,104000,1,0,1:0:0:0:
148,288,104160,2,0,B|97:261|142:199|71:154|71:154|122:109|109:58,1,270,0|0,0:0|1:0,0:0:0:0:
228,64,104802,5,0,0:0:0:0:
228,64,104962,2,0,L|227:155,2,90,0|0|0,0:0|0:0|1:0,0:0:0:0:
344,64,105444,6,0,P|401:130|393:217,1,180
224,152,105925,2,0,P|266:138|307:153,1,90,0|0,1:0|0:0,0:0:0:0:
236,328,106245,2,0,P|222:285|227:241,1,90
307,153,106566,1,0,1:0:0:0:
361,290,106726,1,0,0:0:0:0:
361,290,106807,1,0,0:0:0:0:
361,290,106888,6,0,B|349:338|313:366|313:366|261:358|235:326,1,180,0|0,0:0|1:0,0:0:0:0:
176,232,107369,1,0,0:0:0:0:
232,116,107529,2,0,L|203:30,1,90
320,176,107849,2,0,L|359:256,1,90,0|0,1:0|0:0,0:0:0:0:
428,192,108090,1,0,0:0:0:0:
428,192,108171,6,0,L|389:110,1,90,0|0,0:0|0:0,3:0:0:0:
96,216,108492,5,0,1:0:0:0:
112,259,108572,1,0,1:0:0:0:
145,300,108652,1,0,1:0:0:0:
204,320,108733,5,0,1:0:0:0:
272,324,108813,5,8,0:3:0:0:
332,80,108973,1,8,0:3:0:0:
176,184,109134,1,8,0:3:0:0:
392,228,109454,6,0,P|367:180|325:146,1,107.999996704102,0|0,1:0|0:1,0:0:0:0:
248,116,109936,1,0,0:0:0:0:
211,248,110095,2,0,P|263:256|304:223,1,107.999996704102,0|0,1:0|0:0,0:0:0:0:
368,168,110577,1,0,0:0:0:0:
216,120,110738,6,0,L|238:171,1,53.9999983520508,0|0,1:0|1:0,1:0:0:0:
228,296,111219,2,0,L|277:273,1,53.9999983520508,0|0,0:0|1:0,1:0:0:0:
368,208,111540,1,0,1:0:0:0:
288,144,111700,1,0,0:0:0:0:
348,324,111861,1,0,1:0:0:0:
256,272,112021,6,0,L|202:272,1,53.9999983520508
116,244,112342,2,0,L|94:194,1,53.9999983520508
144,100,112663,2,0,P|181:137|234:144,1,107.999996704102,0|0,1:0|0:0,0:0:0:0:
320,84,113144,1,0,0:0:0:0:
372,176,113304,5,0,1:0:0:0:
292,236,113465,2,0,P|239:247|186:239,1,107.999996704102,0|0,1:0|0:0,0:0:0:0:
232,40,114107,5,2,0:3:0:0:
316,176,114267,1,8,0:3:0:0:
364,56,114428,1,8,0:3:0:0:
244,128,114588,6,0,P|227:177|247:229,1,107.999996704102,0|0,1:0|0:0,0:0:0:0:
352,280,115069,1,0,0:0:0:0:
404,180,115230,2,0,P|353:163|302:178,1,107.999996704102,0|0,1:0|0:0,0:0:0:0:
240,264,115711,1,0,0:0:0:0:
336,344,115872,5,0,1:0:0:0:
336,344,116032,2,0,P|356:294|356:240,1,107.999996704102
268,160,116513,2,0,L|268:214,1,53.9999983520508,0|0,1:0|1:0,1:0:0:0:
184,168,116833,2,0,L|184:114,1,53.9999983520508,0|0,1:0|1:0,1:0:0:0:
292,52,117155,6,0,P|221:63|149:61,1,144,0|0,0:0|1:0,0:0:0:0:
40,28,117636,2,0,P|51:98|49:170,1,144
0,276,118117,2,0,P|70:264|142:266,1,144,0|0,1:0|0:0,0:0:0:0:
252,312,118598,2,0,P|240:241|242:169,1,144
280,80,119079,5,0,1:0:0:0:
332,192,119241,1,4,3:0:0:0:
328,56,119400,5,2,3:0:0:0:
272,208,119561,1,8,3:0:0:0:
164,148,119722,6,0,L|224:104,1,72,2|0,0:0|0:0,0:0:0:0:
344,248,120043,6,0,L|285:290,1,72,2|0,0:0|0:0,0:0:0:0:
88,120,120363,6,0,L|164:64,1,72,2|0,0:0|0:0,0:0:0:0:
432,264,120684,6,0,L|364:312,1,72,2|0,0:0|0:0,0:0:0:0:
272,356,121005,5,4,3:0:0:0:
136,188,121166,1,4,3:0:0:0:
372,120,121325,1,4,3:0:0:0:
296,188,122288,6,0,P|317:84|421:101,1,233.999989288331,2|2,0:2|1:2,0:0:0:0:
384,244,122770,1,0,0:0:0:0:
268,264,122930,2,0,P|210:271|151:269,1,116.999994644165
328,184,123251,2,0,L|344:300,1,116.999994644165,0|0,1:0|0:0,0:0:0:0:
392,360,123572,6,0,P|471:278|474:163,1,233.999989288331,0|0,0:0|1:0,0:0:0:0:
332,88,124053,1,0,0:0:0:0:
332,88,124133,1,0,0:0:0:0:
332,88,124213,2,0,P|305:145|322:198,1,116.999994644165
292,284,124535,2,0,P|349:275|395:242,1,116.999994644165,0|0,1:0|0:0,0:0:0:0:
336,64,124856,5,0,0:0:0:0:
288,208,125016,1,0,0:0:0:0:
395,136,125176,2,0,P|454:135|511:145,1,116.999994644165,0|0,1:0|0:0,0:0:0:0:
288,208,125497,2,0,P|229:208|172:198,1,116.999994644165
176,48,125817,2,0,P|213:91|269:102,1,116.999994644165,0|0,1:0|0:0,0:0:0:0:
304,96,126058,5,0,0:0:0:0:
340,104,126138,1,0,0:0:0:0:
416,192,126299,1,0,0:0:0:0:
320,264,126459,1,0,1:0:0:0:
404,348,126620,1,0,0:0:0:0:
288,364,126781,2,0,P|229:356|171:355,1,116.999994644165
207,284,127101,2,0,P|206:225|199:167,1,116.999994644165,0|0,1:0|0:0,0:0:0:0:
120,200,127422,6,0,B|64:168|52:108|52:108|64:48|120:20,1,233.999989288331,2|2,0:0|1:2,0:0:0:0:
192,120,127904,1,0,0:0:0:0:
184,264,128064,2,0,P|129:284|74:269,1,116.999994644165
82,125,128384,2,0,P|137:105|192:120,1,116.999994644165,0|0,1:0|0:0,0:0:0:0:
288,184,128706,6,0,P|398:198|467:110,1,233.999989288331,0|0,0:0|1:0,0:0:0:0:
432,8,129187,1,0,0:0:0:0:
367,127,129348,2,0,P|375:185|388:243,1,116.999994644165,0|0,2:0|2:0,2:0:0:0:
456,344,129668,1,0,1:0:0:0:
416,344,129748,1,0,0:0:0:0:
376,344,129828,1,0,0:0:0:0:
336,344,129908,1,0,0:0:0:0:
294,343,129989,6,0,B|224:300|240:192|176:146,1,233.999989288331,0|0,0:0|1:0,0:0:0:0:
108,240,130470,1,0,0:0:0:0:
164,331,130630,2,0,P|216:309|243:258,1,116.999994644165,0|0,0:0|2:0,0:0:0:0:
250,111,130951,1,0,1:0:0:0:
250,111,131112,2,0,P|337:47|419:118,1,233.999989288331
364,208,131593,2,0,P|318:177|333:125,1,116.999994644165,0|0,1:0|0:0,0:0:0:0:
372,264,131914,5,0,1:0:0:0:
328,276,131994,1,0,1:0:0:0:
280,280,132074,1,0,1:0:0:0:
232,272,132154,1,0,1:0:0:0:
196,240,132235,1,0,1:0:0:0:
212,216,132315,1,0,1:0:0:0:
232,192,132396,1,0,1:0:0:0:
252,172,132476,1,0,1:0:0:0:
272,148,132556,6,0,P|257:40|149:31,1,233.999989288331,2|2,1:2|1:2,0:0:0:0:
68,100,133037,1,0,0:0:0:0:
159,153,133198,2,0,P|215:164|271:147,1,116.999994644165
344,232,133518,2,0,P|379:186|380:129,1,116.999994644165,0|0,1:0|0:0,0:0:0:0:
307,44,133839,6,0,P|272:90|271:147,1,116.999994644165
376,224,134160,1,0,1:0:0:0:
348,120,134321,1,0,0:0:0:0:
356,312,134481,2,0,B|295:335|242:309,1,116.999994644165
159,343,134802,2,0,P|149:268|173:197,1,153.000002918243,0|0,1:0|0:0,0:0:0:0:
240,112,135123,5,0,0:0:0:0:
360,284,135283,1,0,0:0:0:0:
416,192,135444,2,0,L|299:192,1,116.999994644165,0|0,1:0|0:0,0:0:0:0:
260,192,135684,1,0,0:0:0:0:
220,192,135765,1,0,0:0:0:0:
144,80,135925,1,0,0:0:0:0:
280,80,136085,2,0,L|397:80,1,116.999994644165,0|0,1:0|0:0,0:0:0:0:
460,192,136406,5,0,0:0:0:0:
416,312,136567,1,0,0:0:0:0:
416,312,136647,1,0,0:0:0:0:
416,312,136727,1,0,1:0:0:0:
348,204,136887,1,0,0:0:0:0:
272,308,137048,6,0,P|218:327|163:309,1,116.999994644165
124,180,137368,2,0,P|177:160|232:178,1,116.999994644165,0|0,1:0|0:0,0:0:0:0:
264,204,137609,1,0,0:0:0:0:
304,203,137690,6,0,P|310:94|209:50,1,233.999989288331,2|0,0:0|1:0,0:0:0:0:
116,104,138170,1,0,0:0:0:0:
135,196,138331,2,0,L|241:147,1,116.999994644165
360,196,138652,2,0,L|256:248,1,116.999994644165,0|0,1:0|0:0,0:0:0:0:
411,268,138973,6,0,P|460:238|474:183,1,116.999994644165,2|0,0:0|0:0,0:0:0:0:
452,56,139293,2,0,P|403:86|389:141,1,116.999994644165,0|0,1:0|0:0,0:0:0:0:
324,256,139615,2,0,P|267:266|212:248,1,116.999994644165
124,172,139935,1,0,1:0:0:0:
184,72,140095,1,0,0:0:0:0:
180,308,140257,5,0,1:0:0:0:
320,204,140417,1,0,1:0:0:0:
220,56,140577,1,0,1:0:0:0:
64,156,140738,1,0,1:0:0:0:
252,312,140898,1,0,1:0:0:0:
320,132,141058,1,0,1:0:0:0:
152,56,141218,1,0,1:0:0:0:
64,223,141379,6,0,P|89:283|153:296,1,135.000005149842,0|0,1:0|1:0,0:0:0:0:
248,248,141860,1,0,1:0:0:0:
172,168,142021,2,0,L|204:140,9,30
268,112,142663,5,0,0:3:0:0:
308,180,142823,1,0,0:3:0:0:
272,252,142984,1,0,0:3:0:0:
196,276,143144,2,0,P|120:236|113:150,1,180,6|0,1:2|0:0,0:0:0:0:
188,56,143626,1,0,0:0:0:0:
192,188,143786,1,0,0:0:0:0:
272,235,143946,6,0,P|302:203|315:160,1,90,2|0,0:0|0:0,0:0:0:0:
288,48,144267,2,0,P|257:80|244:123,1,90,2|0,0:0|0:0,0:0:0:0:
260,316,144587,6,0,P|304:317|345:299,1,90,2|0,0:0|1:0,0:0:0:0:
244,224,144908,2,0,P|199:222|158:240,1,90,2|0,0:0|1:0,0:0:0:0:
220,316,145230,1,2,1:2:0:0:
328,240,145390,5,0,3:0:0:0:
328,240,145550,1,0,3:0:0:0:
244,96,145711,1,0,3:0:0:0:
244,96,145872,1,0,3:0:0:0:
112,164,146032,2,0,P|171:226|254:205,1,180,4|0,1:2|0:0,0:0:0:0:
328,332,146513,6,0,P|362:304|379:262,1,90,2|0,0:0|0:0,0:0:0:0:
236,200,146834,2,0,P|261:236|300:258,1,90,2|0,0:0|0:0,0:0:0:0:
399,63,147155,6,0,P|395:108|371:146,1,90,2|0,0:0|1:0,0:0:0:0:
236,84,147476,2,0,P|278:71|320:85,1,90,2|4,0:0|1:3,0:0:0:0:
280,184,147797,1,4,1:3:0:0:
136,312,147957,5,0,0:0:0:0:
104,172,148118,1,0,0:0:0:0:
247,228,148278,2,0,P|208:248|166:237,1,90,4|0,1:2|0:0,0:0:0:0:
128,136,148599,1,0,0:0:0:0:
244,96,148759,1,0,0:0:0:0:
244,96,148920,1,0,0:0:0:0:
280,260,149080,6,0,P|322:248|356:219,1,90,0|0,0:0|1:0,0:0:0:0:
360,116,149401,1,2,1:2:0:0:
358,114,149561,2,0,P|331:79|291:60,1,90,2|0,0:2|0:0,0:0:0:0:
256,172,149882,2,0,P|288:212|328:220,1,90,0|0,1:0|0:0,0:0:0:0:
256,172,150202,2,0,P|228:140|172:136,1,90,0|0,1:0|1:0,1:0:0:0:
72,272,150523,5,4,0:0:0:0:
224,332,150684,1,0,0:0:0:0:
284,184,150844,1,0,0:0:0:0:
136,116,151005,1,0,0:0:0:0:
112,276,151165,5,2,0:0:0:0:
272,284,151325,1,0,0:0:0:0:
272,120,151486,1,2,0:0:0:0:
112,120,151646,1,2,0:0:0:0:
172,272,151807,5,4,0:0:0:0:
328,224,151967,1,2,0:0:0:0:
280,68,152128,1,2,0:0:0:0:
128,120,152288,1,2,0:0:0:0:
184,272,152449,6,0,L|203:294,11,30,2|2|2|2|2|2|2|2|0|2|0|0,0:0|0:0|0:0|0:0|0:0|0:0|0:0|0:0|0:0|0:0|0:0|0:0,0:0:0:0:
256,192,162075,5,0,1:0:0:0:
292,76,162716,2,0,L|300:47,9,30,0|2|2|2|2|2|2|2|2|0,0:0|0:0|0:0|0:0|0:0|0:0|0:0|0:0|0:0|0:0,0:0:0:0:
131,67,163358,6,0,P|145:110|178:140,1,90,4|0,1:0|0:0,0:0:0:0:
268,200,163679,1,0,3:0:0:0:
444,184,163839,2,0,P|407:158|363:154,1,90,4|0,0:1|1:0,0:0:0:0:
268,200,164160,1,0,0:0:0:0:
167,347,164320,2,0,P|211:336|242:305,1,90,4|0,1:0|0:0,0:0:0:0:
268,200,164641,5,0,1:0:0:0:
364,68,164801,1,0,1:0:0:0:
228,96,164962,1,0,1:0:0:0:
368,184,165123,2,0,P|357:269|278:305,1,180,0|0,1:0|0:0,0:0:0:0:
192,207,165603,2,0,P|236:203|279:216,1,90,0|0,1:0|0:0,0:0:0:0:
400,336,165925,6,0,L|477:290,1,90,2|0,0:1|2:0,0:0:0:0:
468,88,166246,6,0,L|390:134,1,90,2|0,1:1|2:0,0:0:0:0:
304,336,166567,6,0,L|249:264,1,90,2|0,0:1|2:0,0:0:0:0:
252,40,166888,6,0,L|306:112,1,90,2|0,1:1|2:0,0:0:0:0:
268,272,167208,5,0,3:0:0:0:
252,132,167368,1,0,3:0:0:0:
336,308,167529,1,0,0:0:0:0:
176,128,167609,1,0,0:0:0:0:
392,220,167850,5,4,1:0:0:0:
376,252,167930,1,0,0:0:0:0:
352,276,168010,1,0,1:0:0:0:
320,296,168090,1,0,1:0:0:0:
284,304,168170,1,0,1:0:0:0:
248,304,168250,1,0,1:0:0:0:
212,296,168331,1,0,1:0:0:0:
180,284,168411,1,0,1:0:0:0:
152,264,168491,5,2,3:0:0:0:
304,96,168813,1,0,3:0:0:0:
312,260,169134,1,0,3:0:0:0:
140,212,169454,1,0,3:0:0:0:
248,96,169775,1,0,3:0:0:0:
240,296,170095,1,0,3:0:0:0:
120,244,170417,6,0,P|96:160|151:94,1,180,0|0,3:0|3:0,0:0:0:0:
316,104,171059,2,0,P|269:178|183:180,1,180,0|0,3:0|3:0,0:0:0:0:
242,57,171700,2,0,P|321:23|396:68,1,180
305,164,172341,6,0,P|231:207|160:160,1,180
236,56,172984,1,0,3:0:0:0:
236,332,173304,1,0,3:0:0:0:
89,262,173625,6,0,B|136:204|80:144|126:91,1,180
328,52,174267,2,0,P|305:136|229:179,1,180
120,84,174908,5,0,0:0:0:0:
48,240,175229,1,0,0:0:0:0:
184,192,175551,1,0,3:0:0:0:
328,256,175872,1,0,3:0:0:0:
411,212,176192,6,0,P|338:164|255:192,1,180
100,171,176833,6,0,P|173:219|256:191,1,180
340,104,177476,5,0,3:0:0:0:
280,292,177796,1,0,0:0:0:0:
272,64,178117,5,0,0:0:0:0:
356,320,178358,1,0,3:0:0:0:
260,104,178759,5,8,3:0:0:0:
200,280,178920,1,8,3:0:0:0:
348,142,179400,6,0,P|372:178|352:216,1,90
404,76,180042,6,0,P|463:171|418:275,1,233.999989288331,2|0,3:2|1:0,0:0:0:0:
308,308,180524,1,0,0:0:0:0:
236,172,180684,2,0,P|292:159|349:172,1,116.999994644165,0|0,3:0|0:0,0:0:0:0:
184,244,181005,2,0,P|154:194|159:137,1,116.999994644165,0|0,1:0|0:0,0:0:0:0:
280,240,181326,6,0,P|224:333|119:303,1,233.999989288331,0|0,3:0|1:0,0:0:0:0:
72,212,181807,1,0,0:0:0:0:
192,140,181968,2,0,P|204:196|192:253,1,116.999994644165,0|0,3:0|0:0,0:0:0:0:
112,107,182289,2,0,P|154:69|211:58,1,116.999994644165,0|0,1:0|0:0,0:0:0:0:
392,144,182609,6,0,P|349:182|292:193,1,116.999994644165
204,52,182930,1,0,1:0:0:0:
304,52,183091,1,0,0:0:0:0:
212,192,183251,2,0,P|155:181|112:142,1,116.999994644165
228,20,183572,2,0,P|231:76|190:115,1,116.999994644165,0|0,1:0|0:0,0:0:0:0:
72,44,183893,5,0,3:0:0:0:
124,192,184053,1,0,0:0:0:0:
124,192,184134,1,0,0:0:0:0:
124,192,184214,1,0,1:0:0:0:
252,128,184374,1,0,0:0:0:0:
340,263,184535,2,0,P|288:288|233:272,1,116.999994644165,0|0,3:0|0:0,0:0:0:0:
252,104,184856,2,0,P|196:91|146:121,1,116.999994644165,0|0,1:0|0:0,0:0:0:0:
120,160,185095,1,0,0:0:0:0:
100,204,185176,6,0,B|100:296|176:336|176:336|212:324|226:286,1,233.999989288331,2|2,0:2|1:2,0:0:0:0:
276,180,185658,1,0,0:0:0:0:
336,280,185818,2,0,P|392:291|450:283,1,116.999994644165
452,156,186138,2,0,P|395:144|337:152,1,116.999994644165,0|0,1:0|0:0,0:0:0:0:
256,96,186459,6,0,P|244:152|252:210,1,116.999994644165
312,284,186780,1,0,1:0:0:0:
356,140,186941,1,0,0:0:0:0:
144,181,187102,2,0,P|194:209|252:210,1,116.999994644165
440,188,187422,1,0,1:0:0:0:
456,152,187503,1,0,1:0:0:0:
464,112,187583,1,0,1:0:0:0:
464,72,187663,1,0,1:0:0:0:
463,31,187743,6,0,P|349:28|263:103,1,233.999989288331,0|0,1:0|1:0,0:0:0:0:
256,220,188225,1,0,0:0:0:0:
320,316,188385,2,0,P|372:292|404:244,1,116.999994644165
392,144,188705,1,0,1:0:0:0:
312,220,188866,2,0,B|228:220|184:128|103:122,1,233.999989288331,0|8,0:0|3:0,0:0:0:0:
124,336,189347,6,0,P|155:288|143:232,1,116.999994644165
320,336,189668,5,0,1:0:0:0:
338,299,189749,1,0,1:0:0:0:
342,258,189829,1,0,1:0:0:0:
332,219,189909,1,0,1:0:0:0:
310,184,189989,2,0,L|334:132,1,58.4999973220826,0|0,1:0|1:0,1:0:0:0:
373,124,190150,2,0,L|351:70,1,58.4999973220826,0|0,1:0|1:0,1:0:0:0:
360,28,190310,6,0,P|248:33|198:133,1,233.999989288331,2|2,0:0|1:2,0:0:0:0:
220,256,190791,1,0,0:0:0:0:
320,328,190952,2,0,P|375:312|410:266,1,116.999994644165
320,136,191272,2,0,P|305:191|327:244,1,116.999994644165,0|0,1:0|0:0,0:0:0:0:
428,147,191594,6,0,P|375:49|264:46,1,233.999989288331,0|0,0:0|1:0,0:0:0:0:
164,116,192075,1,0,0:0:0:0:
144,236,192235,2,0,P|201:237|250:207,1,116.999994644165
328,304,192555,2,0,P|356:253|370:196,1,116.999994644165,0|0,1:0|0:0,0:0:0:0:
320,48,192877,5,0,0:0:0:0:
264,192,193037,1,0,0:0:0:0:
132,112,193198,2,0,P|187:93|248:104,1,116.999994644165,0|0,1:0|0:0,0:0:0:0:
284,116,193438,1,0,0:0:0:0:
320,140,193519,5,0,0:0:0:0:
392,240,193679,1,0,0:0:0:0:
316,335,193839,2,0,P|258:343|204:323,1,116.999994644165,0|0,1:0|0:0,0:0:0:0:
168,168,194160,5,0,0:0:0:0:
264,264,194321,1,0,0:0:0:0:
264,264,194401,1,0,0:0:0:0:
264,264,194481,1,0,1:0:0:0:
336,148,194642,1,0,0:0:0:0:
471,252,194801,2,0,P|425:286|368:284,1,116.999994644165
232,180,195122,2,0,P|278:145|335:147,1,116.999994644165
251,288,195444,6,0,P|149:243|134:132,1,233.999989288331,0|0,0:3|1:3,0:3:0:0:
192,36,195925,1,0,0:0:0:0:
312,135,196085,2,0,P|278:182|222:194,1,116.999994644165
72,172,196406,2,0,P|105:125|161:113,1,116.999994644165
376,292,196726,6,0,B|142:292,1,233.999989288331,0|0,0:0|1:0,0:0:0:0:
376,292,197368,1,0,0:0:0:0:
142,292,197690,2,0,P|128:236|161:190,1,116.999994644165,0|0,1:0|0:0,0:0:0:0:
356,88,198011,5,2,1:2:0:0:
320,304,198171,1,0,1:0:0:0:
208,132,198331,1,0,1:0:0:0:
440,192,198492,1,0,1:0:0:0:
192,276,198652,5,0,1:0:0:0:
384,136,198813,1,0,1:0:0:0:
384,364,198973,1,0,1:0:0:0:
224,176,199134,6,0,L|134:168,1,90,0|0,0:0|1:0,0:0:0:0:
160,88,199614,6,0,L|160:43,1,45
308,48,199936,5,0,1:0:0:0:
324,88,200015,1,0,1:0:0:0:
332,132,200096,1,0,1:0:0:0:
336,176,200176,1,0,1:0:0:0:
328,220,200257,1,0,1:0:0:0:
288,240,200336,1,0,1:0:0:0:
244,232,200417,1,0,1:0:0:0:
204,208,200497,1,0,1:0:0:0:
180,172,200577,6,0,P|188:128|223:102,1,90,2|0,0:0|0:0,0:0:0:0:
351,164,200898,2,0,P|312:184|270:173,1,90,2|0,1:2|0:0,0:0:0:0:
255,27,201219,2,0,P|291:55|304:97,1,90,2|0,0:0|0:0,0:0:0:0:
284,204,201540,1,0,1:0:0:0:
192,252,201700,2,0,P|151:234|123:198,1,90
180,80,202021,1,0,0:0:0:0:
300,152,202181,2,0,B|264:180|264:180|219:175,1,90,0|0,1:0|0:0,0:0:0:0:
120,84,202502,5,0,0:0:0:0:
256,84,202662,1,0,0:0:0:0:
256,220,202823,1,0,1:0:0:0:
120,220,202983,1,0,0:0:0:0:
8,143,203144,6,0,P|-20:227|10:310,1,180,0|0,0:0|1:0,0:0:0:0:
120,228,203786,2,0,P|194:275|283:271,1,180,0|0,0:0|1:0,0:0:0:0:
476,160,204428,6,0,P|381:36|283:158,1,360
283,158,205390,1,0,1:0:0:0:
376,184,205710,6,0,P|281:308|183:186,1,360
183,185,206673,1,0,1:0:0:0:
320,340,206994,6,0,P|380:275|382:187,1,180,0|0,0:0|1:0,0:0:0:0:
132,276,207636,2,0,P|218:291|293:245,1,180,0|0,0:3|1:0,0:3:0:0:
328,32,208277,6,0,B|284:32|256:48|256:48|220:24|220:24|136:40|64:92|40:216|112:332|164:368|284:376|376:340|404:256,1,776.250029611589
388,212,210203,1,0,1:0:0:0:
360,176,210283,1,0,1:0:0:0:
324,148,210364,1,0,1:0:0:0:
280,140,210444,1,0,1:0:0:0:
240,156,210524,1,0,1:0:0:0:
212,192,210604,1,0,1:0:0:0:
204,236,210684,1,0,1:0:0:0:
224,276,210765,1,0,1:0:0:0:
260,304,210845,6,0,P|345:323|414:267,1,180,0|0,0:0|1:0,0:0:0:0:
392,132,211326,1,0,0:0:0:0:
284,172,211487,2,0,P|296:214|328:246,1,90
408,308,211807,1,0,1:0:0:0:
424,216,211968,1,0,0:0:0:0:
308,336,212128,6,0,P|220:334|163:269,1,180,0|0,0:0|1:0,0:0:0:0:
188,144,212610,1,0,0:0:0:0:
264,256,212770,1,0,0:0:0:0:
152,180,212930,1,0,0:0:0:0:
312,236,213091,2,0,B|292:284|251:298,1,90,4|0,1:2|0:0,0:0:0:0:
144,276,213412,5,0,0:0:0:0:
88,184,213572,1,0,0:0:0:0:
124,79,213733,2,0,P|164:61|208:68,1,90,0|0,1:0|0:0,0:0:0:0:
232,88,213972,1,0,0:0:0:0:
252,112,214053,5,0,0:0:0:0:
284,208,214214,1,0,0:0:0:0:
236,296,214374,2,0,P|191:290|159:261,1,90,0|0,1:0|0:0,0:0:0:0:
76,176,214695,6,0,P|150:132|226:172,1,180,2|0,0:0|1:0,0:0:0:0:
252,288,215176,1,0,0:0:0:0:
344,352,215337,2,0,P|386:338|415:304,1,90
344,128,215657,1,0,1:0:0:0:
415,39,215817,1,0,1:0:0:0:
415,39,215898,1,0,1:0:0:0:
415,39,215979,6,0,P|454:118|430:203,1,180,0|0,1:0|1:0,1:0:0:0:
332,260,216460,1,0,0:0:0:0:
256,192,216620,2,0,P|232:107|271:28,1,180,0|0,0:0|1:0,0:0:0:0:
344,132,217102,1,0,0:0:0:0:
268,288,217262,6,0,P|183:261|143:183,1,180,0|0,0:0|1:0,0:0:0:0:
180,88,217743,1,0,0:0:0:0:
284,120,217904,2,0,P|273:163|243:196,1,90
157,205,218224,2,0,P|201:211|242:195,1,90,0|0,1:0|0:0,0:0:0:0:
328,64,218545,5,0,1:0:0:0:
228,316,218706,1,0,1:0:0:0:
112,124,218866,5,0,1:0:0:0:
428,248,219026,1,0,1:0:0:0:
252,352,219187,5,0,1:0:0:0:
224,312,219267,1,0,1:0:0:0:
204,264,219348,1,0,1:0:0:0:
196,216,219428,1,0,1:0:0:0:
196,168,219507,1,0,1:0:0:0:
204,120,219587,1,0,1:0:0:0:
224,72,219668,1,4,1:0:0:0:
256,192,219828,12,0,223677,0:0:0:0:
