osu file format v13

[General]
AudioFilename: NouRin PV Song.mp3
AudioLeadIn: 0
PreviewTime: 76895
Countdown: 0
SampleSet: Soft
StackLeniency: 0.7
Mode: 3
LetterboxInBreaks: 0
SpecialStyle: 0
WidescreenStoryboard: 0

[Editor]
DistanceSpacing: 1
BeatDivisor: 4
GridSize: 4
TimelineZoom: 1

[Metadata]
Title:Cordless*tere*PHONE ~Yuka-tan no Concert Version~
TitleUnicode:コードレス☆照れ☆PHONE ~ゆかたんコンサートバージョン~
Artist:Tamura Yukari
ArtistUnicode:草壁ゆか(田村ゆかり)
Creator:indyinyou
Version:Basic Drum
Source:Nourin
Tags:
BeatmapID:460894
BeatmapSetID:194039

[Difficulty]
HPDrainRate:7
CircleSize:7
OverallDifficulty:7
ApproachRate:5
SliderMultiplier:1.4
SliderTickRate:1

[Events]
//Background and Video events
0,0,"moe moe moe.jpg",0,0
Video,0,"NouRin PV.flv"
//Break Periods
//Storyboard Layer 0 (Background)
//Storyboard Layer 1 (Fail)
//Storyboard Layer 2 (Pass)
//Storyboard Layer 3 (Foreground)
//Storyboard Sound Samples
//Background Colour Transformations
3,100,163,162,255

[TimingPoints]
6896,357.142857142857,4,2,0,100,1,0
78324,-100,4,2,0,100,0,1
101181,-100,4,2,0,100,0,0
101538,-100,4,2,0,100,0,1
104038,-100,4,2,0,100,0,0
104395,-100,4,2,0,100,0,1
109753,-100,4,2,0,100,0,0

[HitObjects]
36,192,19753,5,0,0:0:0:70:cymbol.wav
475,192,19753,1,0,0:0:0:70:kick.wav
109,192,21181,1,0,0:0:0:30:snare.wav
402,192,21360,1,0,0:0:0:30:snare.wav
182,192,21538,1,0,0:0:0:70:snare.wav
329,192,21717,1,0,0:0:0:30:snare.wav
109,192,21895,1,0,0:0:0:70:snare.wav
402,192,22074,1,0,0:0:0:30:kick.wav
256,192,22253,1,0,0:0:0:30:kick.wav
36,192,22610,1,0,0:0:0:70:kick.wav
475,192,22610,1,0,0:0:0:70:cymbol.wav
329,192,22967,1,0,0:0:0:70:snare.wav
109,192,23324,1,0,0:0:0:70:kick.wav
475,192,23681,1,0,0:0:0:70:snare.wav
256,192,24038,1,0,0:0:0:70:kick.wav
329,192,24395,1,0,0:0:0:70:snare.wav
36,192,24753,1,0,0:0:0:70:kick.wav
475,192,25110,1,0,0:0:0:70:snare.wav
256,192,25467,1,0,0:0:0:70:kick.wav
36,192,25824,1,0,0:0:0:70:snare.wav
402,192,26181,1,0,0:0:0:70:kick.wav
182,192,26538,1,0,0:0:0:70:snare.wav
256,192,26895,1,0,0:0:0:70:kick.wav
36,192,27253,1,0,0:0:0:70:snare.wav
475,192,27610,1,0,0:0:0:70:kick.wav
182,192,27967,1,0,0:0:0:70:snare.wav
256,192,28324,1,0,0:0:0:70:kick.wav
475,192,28681,1,0,0:0:0:70:snare.wav
109,192,29038,1,0,0:0:0:70:kick.wav
329,192,29395,1,0,0:0:0:70:snare.wav
256,192,29753,1,0,0:0:0:70:kick.wav
475,192,30110,1,0,0:0:0:70:snare.wav
36,192,30467,1,0,0:0:0:70:kick.wav
329,192,30824,1,0,0:0:0:70:snare.wav
256,192,31181,1,0,0:0:0:70:kick.wav
182,192,31538,1,0,0:0:0:70:snare.wav
402,192,31895,1,0,0:0:0:70:kick.wav
36,192,32253,1,0,0:0:0:70:snare.wav
329,192,32610,1,0,0:0:0:70:snare.wav
182,192,32610,1,0,0:0:0:70:kick.wav
329,192,32788,1,0,0:0:0:70:snare.wav
182,192,32788,1,0,0:0:0:70:kick.wav
402,192,33324,1,0,0:0:0:70:snare.wav
109,192,33324,1,0,0:0:0:70:kick.wav
109,192,33503,1,0,0:0:0:70:kick.wav
402,192,33503,1,0,0:0:0:70:snare.wav
475,192,34038,1,0,0:0:0:70:kick.wav
36,192,34038,1,0,0:0:0:70:cymbol.wav
256,192,34395,1,0,0:0:0:70:snare01.wav
475,192,34753,1,0,0:0:0:70:kick.wav
256,192,35110,1,0,0:0:0:70:snare01.wav
36,192,35467,1,0,0:0:0:70:kick.wav
256,192,35824,1,0,0:0:0:70:snare01.wav
475,192,36181,1,0,0:0:0:70:kick.wav
256,192,36538,1,0,0:0:0:70:snare01.wav
36,192,36895,1,0,0:0:0:70:kick.wav
475,192,37253,1,0,0:0:0:70:snare01.wav
109,192,37610,1,0,0:0:0:70:kick.wav
329,192,37967,1,0,0:0:0:70:snare01.wav
256,192,38324,1,0,0:0:0:70:kick.wav
475,192,38681,1,0,0:0:0:70:snare01.wav
109,192,39038,1,0,0:0:0:70:kick.wav
329,192,39395,1,0,0:0:0:70:snare01.wav
256,192,39753,1,0,0:0:0:70:kick.wav
36,192,40110,1,0,0:0:0:70:snare01.wav
402,192,40467,1,0,0:0:0:70:kick.wav
182,192,40824,1,0,0:0:0:70:snare01.wav
256,192,41181,1,0,0:0:0:70:kick.wav
36,192,41538,1,0,0:0:0:70:snare01.wav
402,192,41895,1,0,0:0:0:70:kick.wav
182,192,42253,1,0,0:0:0:70:snare01.wav
256,192,42610,1,0,0:0:0:70:kick.wav
36,192,42967,1,0,0:0:0:70:snare01.wav
256,192,43324,1,0,0:0:0:70:kick.wav
475,192,43681,1,0,0:0:0:70:snare01.wav
256,192,44038,1,0,0:0:0:70:kick.wav
36,192,44395,1,0,0:0:0:70:snare01.wav
402,192,44753,1,0,0:0:0:70:kick.wav
256,192,44931,1,0,0:0:0:70:kick.wav
36,192,45110,1,0,0:0:0:50:snare01.wav
109,192,45467,1,0,0:0:0:70:kick.wav
475,192,45467,1,0,0:0:0:70:cymbol.wav
402,192,45824,1,0,0:0:0:70:snare01.wav
36,192,46181,1,0,0:0:0:70:kick.wav
329,192,46538,1,0,0:0:0:70:snare01.wav
109,192,46895,1,0,0:0:0:70:kick.wav
402,192,47253,1,0,0:0:0:70:snare01.wav
36,192,47610,1,0,0:0:0:70:kick.wav
329,192,47967,1,0,0:0:0:70:snare01.wav
256,192,48324,1,0,0:0:0:70:kick.wav
109,192,48681,1,0,0:0:0:70:snare01.wav
475,192,49038,1,0,0:0:0:70:kick.wav
182,192,49395,1,0,0:0:0:70:snare01.wav
402,192,49753,1,0,0:0:0:70:kick.wav
109,192,50110,1,0,0:0:0:70:snare01.wav
475,192,50467,1,0,0:0:0:70:kick.wav
182,192,50824,1,0,0:0:0:70:snare01.wav
256,192,51181,1,0,0:0:0:70:kick.wav
475,192,51538,1,0,0:0:0:70:snare01.wav
36,192,51895,1,0,0:0:0:70:kick.wav
256,192,52253,1,0,0:0:0:70:snare01.wav
402,192,52610,1,0,0:0:0:70:kick.wav
475,192,52967,1,0,0:0:0:70:snare01.wav
182,192,53324,1,0,0:0:0:70:kick.wav
256,192,53681,1,0,0:0:0:70:snare01.wav
475,192,54038,1,0,0:0:0:70:kick.wav
36,192,54395,1,0,0:0:0:70:snare01.wav
402,192,54753,1,0,0:0:0:70:kick.wav
256,192,55110,1,0,0:0:0:70:snare01.wav
109,192,55467,1,0,0:0:0:70:cymbol.wav
402,192,55467,1,0,0:0:0:70:kick.wav
109,192,55645,1,0,0:0:0:70:cymbol.wav
402,192,55645,1,0,0:0:0:70:kick.wav
329,192,56003,1,0,0:0:0:70:cymbol.wav
182,192,56003,1,0,0:0:0:70:kick.wav
402,192,56360,1,0,0:0:0:70:kick.wav
256,192,56538,1,0,0:0:0:50:snare01.wav
109,192,56717,1,0,0:0:0:70:kick.wav
36,192,56895,1,0,0:0:0:70:kick.wav
475,192,56895,1,0,0:0:0:70:cymbol.wav
402,192,57431,1,0,0:0:0:70:kick.wav
402,192,57610,1,0,0:0:0:70:kick.wav
256,192,57967,1,0,0:0:0:30:snare01.wav
329,192,58324,1,0,0:0:0:70:kick.wav
109,192,58592,1,0,0:0:0:70:kick.wav
109,192,58860,1,0,0:0:0:70:kick.wav
109,192,59038,1,0,0:0:0:70:kick.wav
256,192,59395,1,0,0:0:0:30:snare01.wav
36,192,59753,1,0,0:0:0:70:kick.wav
402,192,60288,1,0,0:0:0:70:kick.wav
402,192,60467,1,0,0:0:0:70:kick.wav
256,192,60824,1,0,0:0:0:30:snare01.wav
475,192,61181,1,0,0:0:0:70:kick.wav
109,192,61449,1,0,0:0:0:70:kick.wav
109,192,61717,1,0,0:0:0:70:kick.wav
109,192,61896,1,0,0:0:0:70:kick.wav
256,192,62253,1,0,0:0:0:30:snare01.wav
36,192,62610,1,0,0:0:0:70:kick.wav
402,192,63145,1,0,0:0:0:70:kick.wav
402,192,63324,1,0,0:0:0:70:kick.wav
256,192,63681,1,0,0:0:0:30:snare01.wav
329,192,64038,1,0,0:0:0:70:kick.wav
109,192,64306,1,0,0:0:0:70:kick.wav
109,192,64574,1,0,0:0:0:70:kick.wav
109,192,64753,1,0,0:0:0:70:kick.wav
256,192,65110,1,0,0:0:0:50:snare01.wav
402,192,65288,1,0,0:0:0:70:kick.wav
36,192,65467,1,0,0:0:0:70:kick.wav
182,192,65467,1,0,0:0:0:70:cymbol.wav
475,192,65824,1,0,0:0:0:70:snare01.wav
256,192,66181,1,0,0:0:0:70:kick.wav
36,192,66538,1,0,0:0:0:70:snare01.wav
256,192,66895,1,0,0:0:0:70:kick.wav
475,192,67253,1,0,0:0:0:70:snare01.wav
256,192,67610,1,0,0:0:0:70:kick.wav
36,192,67967,1,0,0:0:0:70:snare01.wav
256,192,68324,1,0,0:0:0:70:kick.wav
109,192,68681,1,0,0:0:0:70:snare01.wav
475,192,69038,1,0,0:0:0:70:kick.wav
256,192,69395,1,0,0:0:0:70:snare01.wav
329,192,69753,1,0,0:0:0:70:kick.wav
109,192,70110,1,0,0:0:0:70:snare01.wav
475,192,70467,1,0,0:0:0:70:kick.wav
402,192,70645,1,0,0:0:0:70:kick.wav
256,192,70824,1,0,0:0:0:50:snare01.wav
36,192,71181,1,0,0:0:0:70:kick.wav
475,192,71181,1,0,0:0:0:70:cymbol.wav
256,192,71538,1,0,0:0:0:70:snare01.wav
475,192,71895,1,0,0:0:0:70:kick.wav
256,192,72253,1,0,0:0:0:70:snare01.wav
36,192,72610,1,0,0:0:0:70:kick.wav
256,192,72967,1,0,0:0:0:70:snare01.wav
475,192,73324,1,0,0:0:0:70:kick.wav
256,192,73681,1,0,0:0:0:70:snare01.wav
36,192,74038,1,0,0:0:0:70:kick.wav
402,192,74395,1,0,0:0:0:70:snare01.wav
256,192,74753,1,0,0:0:0:70:kick.wav
109,192,75110,1,0,0:0:0:70:snare01.wav
256,192,75467,1,0,0:0:0:70:kick.wav
402,192,75824,1,0,0:0:0:70:snare01.wav
182,192,76181,1,0,0:0:0:50:snare01.wav
329,192,76360,1,0,0:0:0:50:snare01.wav
182,192,76538,1,0,0:0:0:50:snare01.wav
475,192,76717,1,0,0:0:0:70:kick.wav
36,192,76717,1,0,0:0:0:40:cymbol.wav
36,192,78324,1,0,0:0:0:70:cymbol.wav
475,192,78324,1,0,0:0:0:70:cymbol.wav
329,192,78681,1,0,0:0:0:70:snare01.wav
109,192,79038,1,0,0:0:0:70:kick.wav
475,192,79395,1,0,0:0:0:70:snare01.wav
256,192,79753,1,0,0:0:0:70:kick.wav
329,192,80110,1,0,0:0:0:70:snare01.wav
109,192,80467,1,0,0:0:0:70:kick.wav
475,192,80824,1,0,0:0:0:70:snare01.wav
402,192,81181,1,0,0:0:0:70:kick.wav
182,192,81538,1,0,0:0:0:70:snare01.wav
402,192,81895,1,0,0:0:0:70:kick.wav
36,192,82253,1,0,0:0:0:70:snare01.wav
256,192,82610,1,0,0:0:0:70:kick.wav
182,192,82967,1,0,0:0:0:70:snare01.wav
402,192,83324,1,0,0:0:0:70:kick.wav
36,192,83681,1,0,0:0:0:70:snare01.wav
256,192,84038,1,0,0:0:0:70:kick.wav
475,192,84395,1,0,0:0:0:70:snare01.wav
36,192,84753,1,0,0:0:0:70:kick.wav
256,192,85110,1,0,0:0:0:70:snare01.wav
109,192,85467,1,0,0:0:0:70:kick.wav
475,192,85824,1,0,0:0:0:70:snare01.wav
36,192,86181,1,0,0:0:0:70:kick.wav
256,192,86538,1,0,0:0:0:70:snare01.wav
402,192,86895,1,0,0:0:0:70:kick.wav
36,192,87253,1,0,0:0:0:70:snare01.wav
475,192,87610,1,0,0:0:0:70:kick.wav
256,192,87967,1,0,0:0:0:70:snare01.wav
109,192,88324,1,0,0:0:0:70:kick.wav
475,192,88681,1,0,0:0:0:50:snare01.wav
36,192,89038,1,0,0:0:0:40:snare.wav
402,192,89217,1,0,0:0:0:40:snare.wav
256,192,89395,1,0,0:0:0:40:snare.wav
182,192,89574,1,0,0:0:0:70:kick.wav
36,192,89753,1,0,0:0:0:70:kick.wav
475,192,89753,1,0,0:0:0:70:cymbol.wav
256,192,90110,1,0,0:0:0:70:snare01.wav
475,192,90467,1,0,0:0:0:70:kick.wav
256,192,90824,1,0,0:0:0:70:snare01.wav
36,192,91181,1,0,0:0:0:70:kick.wav
256,192,91539,1,0,0:0:0:70:snare01.wav
475,192,91895,1,0,0:0:0:70:kick.wav
256,192,92253,1,0,0:0:0:70:snare01.wav
36,192,92610,1,0,0:0:0:70:kick.wav
402,192,92967,1,0,0:0:0:70:snare01.wav
109,192,93324,1,0,0:0:0:70:kick.wav
475,192,93681,1,0,0:0:0:70:snare01.wav
256,192,94038,1,0,0:0:0:70:kick.wav
402,192,94395,1,0,0:0:0:70:snare01.wav
109,192,94753,1,0,0:0:0:70:kick.wav
475,192,95110,1,0,0:0:0:70:snare01.wav
256,192,95467,1,0,0:0:0:70:kick.wav
109,192,95824,1,0,0:0:0:70:snare01.wav
402,192,96181,1,0,0:0:0:70:kick.wav
36,192,96538,1,0,0:0:0:70:snare01.wav
256,192,96895,1,0,0:0:0:70:kick.wav
109,192,97253,1,0,0:0:0:70:snare01.wav
402,192,97610,1,0,0:0:0:70:kick.wav
36,192,97967,1,0,0:0:0:70:snare01.wav
256,192,98324,1,0,0:0:0:70:kick.wav
475,192,98681,1,0,0:0:0:70:snare01.wav
109,192,99038,1,0,0:0:0:70:kick.wav
256,192,99395,1,0,0:0:0:70:snare01.wav
402,192,99753,1,0,0:0:0:70:kick.wav
182,192,100110,1,0,0:0:0:70:snare01.wav
36,192,100467,1,0,0:0:0:20:snare01.wav
475,192,100645,1,0,0:0:0:20:snare01.wav
109,192,100824,1,0,0:0:0:20:snare01.wav
402,192,101003,1,0,0:0:0:20:snare01.wav
256,192,101181,1,0,0:0:0:10:snare01.wav
36,192,101538,1,0,0:0:0:70:cymbol.wav
475,192,101538,1,0,0:0:0:70:kick.wav
402,192,101895,1,0,0:0:0:70:kick.wav
109,192,102253,1,0,0:0:0:70:snare01.wav
256,192,102610,1,0,0:0:0:70:kick.wav
475,192,102967,1,0,0:0:0:70:snare01.wav
256,192,103324,1,0,0:0:0:70:kick.wav
36,192,103681,1,0,0:0:0:70:snare01.wav
256,192,104038,1,0,0:0:0:70:kick.wav
475,192,104395,1,0,0:0:0:70:kick.wav
36,192,104395,1,0,0:0:0:70:cymbol.wav
329,192,104753,1,0,0:0:0:70:kick.wav
182,192,105110,1,0,0:0:0:70:snare01.wav
402,192,105467,1,0,0:0:0:70:kick.wav
36,192,105824,1,0,0:0:0:70:snare01.wav
256,192,106181,1,0,0:0:0:70:kick.wav
475,192,106538,1,0,0:0:0:70:snare01.wav
402,192,106717,1,0,0:0:0:50:snare01.wav
256,192,106895,1,0,0:0:0:70:kick.wav
36,192,106895,1,0,0:0:0:70:cymbol.wav
182,192,107253,1,0,0:0:0:70:snare01.wav
402,192,107610,1,0,0:0:0:70:kick.wav
36,192,107967,1,0,0:0:0:70:snare01.wav
256,192,108324,1,0,0:0:0:70:kick.wav
182,192,108681,1,0,0:0:0:70:snare01.wav
402,192,109038,1,0,0:0:0:70:kick.wav
36,192,109395,1,0,0:0:0:70:snare01.wav
182,192,109753,1,0,0:0:0:50:snare.wav
329,192,109753,1,0,0:0:0:70:kick.wav
329,192,109931,1,0,0:0:0:70:kick.wav
182,192,109931,1,0,0:0:0:50:snare.wav
36,192,110288,1,0,0:0:0:50:snare.wav
475,192,110288,1,0,0:0:0:70:kick.wav
36,192,110467,1,0,0:0:0:70:kick.wav
475,192,110467,1,0,0:0:0:50:snare.wav
182,192,110824,1,0,0:0:0:70:kick.wav
329,192,110824,1,0,0:0:0:50:snare.wav
329,192,111003,1,0,0:0:0:70:kick.wav
182,192,111003,1,0,0:0:0:50:snare.wav
36,192,111360,1,0,0:0:0:50:snare.wav
475,192,111360,1,0,0:0:0:70:kick.wav
36,192,111538,1,0,0:0:0:50:snare.wav
475,192,111538,1,0,0:0:0:70:kick.wav
475,192,112253,1,0,0:0:0:70:snare.wav
256,192,112610,1,0,0:0:0:70:kick.wav
36,192,112967,1,0,0:0:0:30:snare.wav
402,192,113324,1,0,0:0:0:70:kick.wav
329,192,113503,1,0,0:0:0:30:snare.wav
256,192,113681,1,0,0:0:0:70:kick.wav
475,192,113860,1,0,0:0:0:70:kick.wav
36,192,113860,1,0,0:0:0:70:cymbol.wav
