osu file format v14

[General]
AudioFilename: fs.mp3
AudioLeadIn: 0
PreviewTime: 77798
Countdown: 0
SampleSet: Normal
StackLeniency: 0.7
Mode: 0
LetterboxInBreaks: 0
WidescreenStoryboard: 0

[Editor]
DistanceSpacing: 1
BeatDivisor: 4
GridSize: 4
TimelineZoom: 1

[Metadata]
Title:CordlessTerePHONE ~ Yukatan Concert Version ~
TitleUnicode:コードレス☆照れ☆PHONE ~ゆかたんコンサートバージョン~
Artist:Tamura Yukari
ArtistUnicode:田村ゆかり
Creator:AIR
Version:Normal
Source:のうりん
Tags:no_rin nourin ringo kinoshita 木下_林檎 草壁ゆか LIVE
BeatmapID:606571
BeatmapSetID:224293

[Difficulty]
HPDrainRate:4
CircleSize:3.6
OverallDifficulty:4
ApproachRate:5
SliderMultiplier:1.1
SliderTickRate:1

[Events]
//Background and Video events
0,0,"bg.jpg",0,0
Video,0,"yl.flv"
//Break Periods
//Storyboard Layer 0 (Background)
//Storyboard Layer 1 (Fail)
//Storyboard Layer 2 (Pass)
//Storyboard Layer 3 (Foreground)
//Storyboard Sound Samples

[TimingPoints]
7799,357.142857142857,4,1,1,60,1,0
79227,-100,4,1,1,80,0,1
110656,-100,4,1,1,80,0,0
117084,-100,4,1,1,50,0,0
117441,-100,4,1,1,20,0,0
117798,-100,4,1,1,10,0,0

[Colours]
Combo1 : 255,255,98
Combo2 : 217,0,108
Combo3 : 234,234,234
Combo4 : 255,74,74

[HitObjects]
32,332,7799,6,0,P|8:264|92:24,1,330,2|0,2:0|2:0,0:0:0:0:
180,84,9227,6,0,P|381:260|245:22,1,770,4|0,2:0|2:0,0:0:0:0:
136,16,12084,6,0,P|274:356|511:180,1,770,4|0,2:0|2:0,0:0:0:0:
419,119,14941,6,0,B|374:133|343:131|343:131|320:120|285:118|285:118|252:140|197:138,1,220,2|0,2:0|2:0,0:0:0:0:
87,254,16191,2,0,P|47:162|79:26,1,220,2|0,2:0|2:0,0:0:0:0:
242,179,17620,5,0,2:0:0:0:
205,220,17799,2,0,B|228:254|216:300|216:300|275:267|309:296,1,165,2|0,2:0|2:0,0:0:0:0:
386,345,18691,1,0,2:0:0:0:
483,293,19048,1,0,2:0:0:0:
451,253,19227,2,0,B|423:211|538:203|509:114|447:66|389:122|389:122|329:117|324:162,1,330,6|0,2:0|2:0,0:0:0:0:
256,192,20656,12,0,22084,0:0:0:0:
144,356,23513,5,4,0:0:0:0:
132,252,23870,2,0,L|120:128,1,110,8|0,0:0|0:0,0:0:0:0:
164,40,24584,2,0,P|224:24|292:28,1,110,8|0,0:0|0:0,0:0:0:0:
324,120,25298,2,0,P|376:120|444:140,1,110,8|0,0:0|0:0,0:0:0:0:
448,244,26013,6,0,L|440:368,2,110,8|0|8,0:0|0:0|0:0,0:0:0:0:
340,236,27084,2,0,L|332:352,1,110,0|8,0:0|0:0,0:0:0:0:
224,336,27798,2,0,B|156:304|73:335|73:335|72:264|136:252|128:172,1,330,0|8,0:0|0:0,0:0:0:0:
73,165,29048,1,0,0:0:0:0:
24,184,29227,5,0,0:0:0:0:
24,76,29584,2,0,L|156:60,1,110,8|0,0:0|0:0,0:0:0:0:
236,24,30298,2,0,P|252:68|252:148,1,110,8|0,0:0|0:0,0:0:0:0:
264,240,31013,2,0,L|140:228,1,110,8|0,0:0|0:0,0:0:0:0:
44,216,31727,6,0,P|36:272|52:340,1,110,8|0,0:0|0:0,0:0:0:0:
152,360,32441,2,0,L|268:356,1,110,8|0,0:0|0:0,0:0:0:0:
288,308,32977,2,0,P|280:284|284:244,2,55,0|8|0,0:0|0:0|0:0,0:0:0:0:
340,328,33513,2,0,B|380:340|410:328|410:328|436:332|460:324,1,110,0|8,0:0|0:0,0:0:0:0:
376,244,34227,1,4,0:2:0:0:
504,148,34941,6,0,L|272:156,1,220,6|0,0:0|0:0,0:0:0:0:
120,8,36370,2,0,P|96:48|136:216,1,220,2|0,0:0|0:0,0:0:0:0:
225,259,37441,1,0,0:0:0:0:
292,356,37798,6,0,P|316:316|276:148,1,220,2|0,0:0|0:0,0:0:0:0:
92,264,39227,2,0,L|324:256,1,220,2|0,0:0|0:0,0:0:0:0:
428,232,40298,1,0,0:0:0:0:
480,124,40656,6,0,B|500:100|468:24|396:64|396:64|328:16|256:112|332:168,1,330
368,280,42084,2,0,B|388:304|356:380|284:340|284:340|216:388|144:292|220:236,1,330,2|0,0:0|0:0,0:0:0:0:
204,128,43513,6,0,B|224:104|192:28|120:68|120:68|52:20|-20:116|56:172,1,330,2|0,0:0|0:0,0:0:0:0:
112,264,44941,2,0,B|192:256|192:256|240:276|240:276|268:232|268:232|304:248|304:248|368:240,1,275,2|0,0:0|0:0,0:0:0:0:
404,220,46013,2,0,L|472:212,1,55
496,168,46370,6,0,P|436:108|296:124,1,220,6|0,0:0|0:0,0:0:0:0:
256,212,47441,1,8,0:0:0:0:
196,120,47798,2,0,P|90:104|8:172,1,220,2|0,0:0|0:0,0:0:0:0:
48,208,48691,1,0,0:0:0:0:
85,250,48870,2,0,P|86:281|96:313,1,55,8|0,0:0|0:0,0:0:0:0:
132,341,49227,6,0,B|224:353|224:353|244:349|244:349|356:365,1,220,2|0,0:0|0:0,0:0:0:0:
450,320,50298,1,8,0:0:0:0:
354,264,50656,2,0,B|262:252|262:252|242:256|242:256|130:240,1,220,2|0,0:0|0:0,0:0:0:0:
40,186,51727,2,0,P|64:173|104:168,1,55,8|0,0:0|0:0,0:0:0:0:
140,136,52084,6,0,B|232:148|232:148|252:144|252:144|364:160,1,220,0|0,0:0|0:0,0:0:0:0:
448,96,53156,1,8,0:0:0:0:
348,52,53513,2,0,B|256:40|256:40|236:44|236:44|124:28,1,220,2|0,0:0|0:0,0:0:0:0:
104,76,54406,1,0,0:0:0:0:
124,128,54584,1,8,0:0:0:0:
164,228,54941,6,0,B|132:260|140:324|204:352|259:311|259:311|337:338|364:272|368:224|332:192|291:184|278:153,1,440
344,56,57263,5,0,0:0:0:0:
296,40,57441,2,0,L|228:46,1,55,8|0,0:0|0:0,0:0:0:0:
199,15,57798,6,2,B|165:118|165:118|200:146|200:146|216:212,1,220
316,164,58870,1,8,0:0:0:0:
424,140,59227,2,2,B|425:248|425:248|383:264|383:264|346:319,1,220
236,312,60298,1,8,0:0:0:0:
128,340,60656,6,0,P|112:300|128:224,1,110
152,188,61191,2,0,P|168:160|160:72,1,110
64,124,61906,1,0,0:0:0:0:
64,124,62084,2,0,L|244:112,1,165
324,56,62977,2,0,P|372:84|432:80,1,110
436,136,63513,6,2,B|493:228|493:228|465:264|465:264|461:330,1,220
356,300,64584,1,8,0:0:0:0:
248,324,64941,2,2,B|244:258|244:258|216:222|216:222|256:160,1,165
296,160,65656,1,0,0:0:0:0:
291,45,66013,2,0,L|370:34,1,55,8|0,0:0|0:0,0:0:0:0:
400,16,66370,6,0,P|420:104|404:256,1,220,4|0,0:0|0:0,0:0:0:0:
368,332,67441,1,8,0:0:0:0:
261,304,67798,2,0,P|216:232|306:246,1,220
340,288,68691,2,0,B|368:332|368:332|400:268,1,110
410,232,69227,6,0,P|421:123|400:16,1,220
292,28,70298,1,8,0:0:0:0:
312,136,70656,2,0,P|232:168|88:144,1,220
52,128,71548,1,0,0:0:0:0:
16,84,71727,2,0,L|77:68,1,55,8|0,0:0|0:0,0:0:0:0:
120,48,72084,6,0,B|160:96|148:156|148:156|120:224|152:272,1,220,4|0,0:0|0:0,0:0:0:0:
212,344,73156,1,8,0:0:0:0:
252,244,73513,2,0,B|308:220|364:248|364:248|420:264|472:240,1,220
444,192,74406,1,0,0:0:0:0:
472,144,74584,2,0,L|464:80,1,55,8|0,0:0|0:0,0:0:0:0:
468,36,74941,6,0,L|336:48,1,110
308,72,75477,2,0,L|244:80,1,55
200,76,75834,2,0,B|184:112|202:138|202:138|220:164|204:192,1,110
256,192,76370,12,4,77798,0:0:0:0:
236,128,79227,6,0,L|120:120,1,110,6|8,0:0|0:0,0:0:0:0:
148,228,79941,2,0,P|168:304|152:352,1,110,2|8,0:0|0:0,0:0:0:0:
106,329,80477,1,0,0:0:0:0:
56,296,80656,2,0,L|288:280,1,220,2|0,0:0|0:0,0:0:0:0:
336,372,81727,1,8,0:0:0:0:
400,284,82084,6,0,B|404:256|388:224|388:224|376:196|384:168,1,110,2|8,0:0|0:0,0:0:0:0:
492,184,82798,2,0,B|496:156|480:124|480:124|468:96|476:68,1,110,2|8,0:0|0:0,0:0:0:0:
420,64,83334,1,0,0:0:0:0:
364,64,83513,2,0,P|320:24|176:72,1,220,4|0,0:2|0:0,0:0:0:0:
174,174,84584,2,0,L|245:158,1,55,8|0,0:0|0:0,0:0:0:0:
272,124,84941,6,0,B|300:176|280:232|280:232|268:296|312:344,1,220,6|2,0:0|0:0,0:0:0:0:
412,360,86013,2,0,P|416:316|416:296,1,55,8|0,0:0|0:0,0:0:0:0:
388,264,86370,2,0,B|281:284|281:284|265:297|265:297|160:316,1,220,2|2,0:0|0:0,0:0:0:0:
64,312,87441,2,0,P|88:264|91:253,1,55,8|0,0:0|0:0,0:0:0:0:
120,216,87798,6,0,B|205:199|205:199|217:185|217:185|333:164,1,220,6|2,0:0|0:0,0:0:0:0:
420,100,88870,2,0,P|362:81|350:70,1,55,8|0,0:0|0:0,0:0:0:0:
324,48,89227,2,0,P|268:48|212:72,1,110,2|8,0:0|0:0,0:0:0:0:
112,92,89941,2,0,P|56:92|0:116,1,110,2|8,0:0|0:0,0:0:0:0:
80,220,90656,6,0,L|88:336,1,110,6|8,0:2|0:0,0:0:0:0:
192,272,91370,2,0,L|184:162,1,110,2|8,0:0|0:0,0:0:0:0:
201,109,91906,1,0,0:0:0:0:
236,64,92084,2,0,B|292:88|292:88|304:256,1,220,2|2,0:0|0:0,0:0:0:0:
308,356,93156,1,8,0:0:0:0:
400,296,93513,6,0,B|428:307|456:303|456:303|488:284|496:252,1,110,6|8,0:2|0:0,0:0:0:0:
420,184,94227,2,0,B|406:153|406:124|406:124|425:100|427:72,1,110,2|8,0:0|0:0,0:0:0:0:
383,45,94763,1,0,0:0:0:0:
328,36,94941,2,0,B|276:24|224:56|224:56|172:88|112:64,1,220,2|2,0:0|0:0,0:0:0:0:
12,28,96013,1,8,0:0:0:0:
12,28,96370,6,0,B|-4:88|32:136|32:136,1,110,6|0,0:0|0:0,0:0:0:0:
56,184,96906,2,0,P|56:232|32:296,1,110
12,348,97441,1,8,0:0:0:0:
116,312,97798,2,0,B|172:292|224:316|224:316,1,110,6|0,0:0|0:0,0:0:0:0:
276,336,98334,2,0,P|316:344|396:320,1,110
416,284,98870,2,0,P|400:256|376:224,1,55
336,208,99227,6,0,L|328:84,1,110,2|8,0:0|0:0,0:0:0:0:
424,44,99941,1,0,0:0:0:0:
436,96,100120,2,0,P|416:164|368:196,1,110,2|0,0:0|0:0,0:0:0:0:
336,208,100656,2,0,B|272:204|272:204|256:208|256:208|104:196,2,220,2|2|12,0:0|0:0|0:2,0:0:0:0:
400,296,102441,6,0,L|520:288,2,110,10|0|8,0:0|0:0|0:0,0:0:0:0:
312,364,103513,2,0,P|256:368|196:352,1,110,2|8,0:0|0:0,0:0:0:0:
164,320,104048,1,0,0:0:0:0:
112,296,104227,2,0,B|86:313|59:318|59:318|30:306|15:280,2,110,0|8|12,0:0|0:0|0:2,0:0:0:0:
72,192,105298,6,0,B|79:167|65:140|65:140|57:104|78:74,1,110,8|0,0:0|0:0,0:0:0:0:
152,20,106013,1,8,0:0:0:0:
164,128,106370,2,0,P|220:128|284:108,1,110,2|8,0:0|0:0,0:0:0:0:
323,93,106906,1,0,0:0:0:0:
376,80,107084,2,0,B|408:80|428:64|428:64|464:56|500:72,1,110,0|8,0:0|0:0,0:0:0:0:
456,168,107798,6,0,B|492:228|492:228|476:284|424:300|424:300|428:360,1,220,4|0,0:0|0:0,0:0:0:0:
372,336,108691,1,0,0:0:0:0:
316,332,108870,2,0,L|248:340,1,55,8|0,0:0|0:0,0:0:0:0:
208,344,109227,2,0,P|188:296|184:224,1,110,4|0,0:0|0:0,0:0:0:0:
216,196,109763,2,0,P|247:153|256:76,1,110
232,52,110298,6,0,L|164:36,1,55,8|0,0:0|0:0,0:0:0:0:
124,32,110656,1,0,0:0:0:0:
72,44,110834,2,0,P|48:104|48:160,1,110,4|0,0:0|0:0,0:0:0:0:
68,200,111370,2,0,P|64:276|76:320,1,110,4|0,0:0|0:0,0:0:0:0:
88,360,111906,2,0,L|200:348,1,110,4|0,0:0|0:0,0:0:0:0:
244,320,112441,2,0,B|280:284|340:304|340:304|376:320|424:308,1,165,4|0,0:0|0:0,0:0:0:0:
452,292,113156,1,6,0:2:0:0:
388,212,113513,6,0,L|384:88,1,110,0|8,0:0|0:0,0:0:0:0:
284,64,114227,2,0,P|244:56|160:60,1,110,0|8,0:0|0:0,0:0:0:0:
124,72,114763,1,4,0:0:0:0:
256,192,114941,12,0,117798,2:0:0:0:
