osu file format v14

[General]
AudioFilename: fs.mp3
AudioLeadIn: 0
PreviewTime: 77798
Countdown: 0
SampleSet: Normal
StackLeniency: 0.3
Mode: 0
LetterboxInBreaks: 0
WidescreenStoryboard: 0

[Editor]
Bookmarks: 35477,38334
DistanceSpacing: 1
BeatDivisor: 4
GridSize: 4
TimelineZoom: 1

[Metadata]
Title:CordlessTerePHONE ~ Yukatan Concert Version ~
TitleUnicode:コードレス☆照れ☆PHONE ~ゆかたんコンサートバージョン~
Artist:Tamura Yukari
ArtistUnicode:田村ゆかり
Creator:AIR
Version:Hard
Source:のうりん
Tags:no_rin nourin ringo kinoshita 木下_林檎 草壁ゆか LIVE
BeatmapID:606559
BeatmapSetID:224293

[Difficulty]
HPDrainRate:5.5
CircleSize:4
OverallDifficulty:6
ApproachRate:7
SliderMultiplier:1.3
SliderTickRate:1

[Events]
//Background and Video events
0,0,"bg.jpg",0,0
Video,0,"yl.flv"
//Break Periods
//Storyboard Layer 0 (Background)
//Storyboard Layer 1 (Fail)
//Storyboard Layer 2 (Pass)
//Storyboard Layer 3 (Foreground)
//Storyboard Sound Samples

[TimingPoints]
7799,357.142857142857,4,1,1,60,1,0
7799,-125,4,1,1,60,0,0
20656,-125,4,1,1,30,0,0
22084,-100,4,1,1,30,0,0
22441,-100,4,1,1,40,0,0
22798,-100,4,1,1,50,0,0
23513,-83.3333333333333,4,1,1,60,0,0
34941,-100,4,1,1,60,0,0
57798,-125,4,1,1,60,0,0
66370,-100,4,1,1,60,0,0
77798,-125,4,1,1,60,0,0
78156,-100,4,1,1,60,0,0
78513,-83.3333333333333,4,1,1,60,0,0
78870,-71.4285714285714,4,1,1,60,0,0
79227,-83.3333333333333,4,1,1,80,0,1
110656,-100,4,1,1,80,0,0
117084,-100,4,1,1,50,0,0
117441,-100,4,1,1,20,0,0
117798,-100,4,1,1,10,0,0

[Colours]
Combo1 : 255,255,98
Combo2 : 217,0,108
Combo3 : 234,234,234
Combo4 : 255,74,74

[HitObjects]
128,284,7799,6,0,L|120:172,1,104,0|0,2:0|2:0,0:0:0:0:
172,92,8513,2,0,B|196:80|228:92|228:92|260:100|296:88,1,104,0|0,2:0|2:0,0:0:0:0:
372,128,9227,2,0,P|336:176|188:152,1,208,4|0,2:0|2:0,0:0:0:0:
274,94,10299,1,0,2:0:0:0:
274,94,10656,2,0,B|276:176|276:176|284:196|284:196|288:264,1,156,0|0,2:0|2:0,0:0:0:0:
288,352,11549,1,0,2:0:0:0:
376,296,11906,5,0,2:0:0:0:
376,296,12084,2,0,P|388:248|364:184,1,104,4|0,2:0|2:0,0:0:0:0:
287,248,12799,2,0,L|171:256,1,104,0|0,2:0|2:0,0:0:0:0:
92,304,13513,2,0,B|72:268|84:220|84:220|100:180|80:132,1,156,0|0,2:0|2:0,0:0:0:0:
20,72,14406,1,0,2:0:0:0:
8,176,14763,5,0,2:0:0:0:
8,176,14941,2,0,L|172:188,1,156,2|0,2:0|2:0,0:0:0:0:
216,192,15656,1,2,2:0:0:0:
312,232,16013,1,0,2:0:0:0:
312,232,16191,2,0,P|376:224|420:252,1,104,2|0,2:0|2:0,0:0:0:0:
440,324,16727,1,0,2:0:0:0:
354,308,16906,2,0,B|348:247|348:247|368:196|368:196|366:144,1,156,2|0,2:0|2:0,0:0:0:0:
276,44,17620,5,0,2:0:0:0:
276,44,17799,2,0,P|252:104|264:160,1,104,2|0,2:0|2:0,0:0:0:0:
348,112,18334,2,0,L|460:104,1,104,2|2,2:0|2:0,0:0:0:0:
328,204,19048,1,2,2:0:0:0:
328,204,19227,2,0,B|292:224|248:208|248:208|208:196|172:220,1,156,4|0,2:0|2:0,0:0:0:0:
223,287,19941,2,0,B|187:307|143:291|143:291|103:279|67:303,1,156,0|0,2:0|2:0,0:0:0:0:
116,364,20656,6,0,B|140:340|164:280|172:212|164:160|144:100|88:56|88:56|64:56|44:64,1,364,4|0,0:0|2:0,0:0:0:0:
20,128,22084,6,0,L|28:160,3,32.5
56,172,22441,2,0,L|64:204,3,32.5
60,236,22798,2,0,L|68:268,3,32.5
96,284,23156,2,0,L|104:316,3,32.5
96,352,23513,5,6,0:2:0:0:
256,236,23870,2,0,L|344:240,1,77.999997619629,8|0,0:0|0:0,0:0:0:0:
412,232,24227,1,2,0:0:0:0:
412,232,24406,2,0,P|420:188|412:136,1,77.999997619629,0|8,0:0|0:0,0:0:0:0:
360,104,24763,1,0,0:0:0:0:
360,104,24941,2,0,L|192:96,1,155.999995239258,2|8,0:0|0:0,0:0:0:0:
132,124,25477,1,0,0:0:0:0:
80,184,25656,2,0,P|56:148|56:104,1,77.999997619629,2|0,0:0|0:0,0:0:0:0:
204,96,26013,2,0,P|208:144|184:184,1,77.999997619629,8|0,0:0|0:0,0:0:0:0:
152,236,26370,6,0,P|136:296|144:324,1,77.999997619629,2|0,0:0|0:0,0:0:0:0:
216,288,26727,2,0,L|300:276,2,77.999997619629,8|0|2,0:0|0:0|0:0,0:0:0:0:
356,324,27263,1,0,0:0:0:0:
356,324,27441,2,0,P|372:264|364:236,1,77.999997619629,8|0,0:0|0:0,0:0:0:0:
412,180,27798,2,0,B|377:177|377:177|356:196|324:196|324:196|275:180,2,116.999996429443,2|2|2,0:0|0:0|0:0,0:0:0:0:
448,96,28513,2,0,P|452:52|432:16,1,77.999997619629,2|0,0:0|0:0,0:0:0:0:
316,44,28870,2,0,P|312:88|332:124,1,77.999997619629,8|0,0:0|0:0,0:0:0:0:
383,71,29227,6,0,L|299:79,1,77.999997619629,6|0,0:2|0:0,0:0:0:0:
224,60,29584,1,8,0:0:0:0:
244,136,29763,2,0,P|256:188|252:216,2,77.999997619629,0|2|0,0:0|0:0|0:0,0:0:0:0:
180,184,30298,1,8,0:0:0:0:
180,184,30477,2,0,L|84:184,2,77.999997619629,0|2|0,0:0|0:0|0:0,0:0:0:0:
192,260,31013,1,8,0:0:0:0:
192,259,31191,2,0,P|185:298|197:334,2,77.999997619629,0|2|0,0:0|0:0|0:0,0:0:0:0:
264,292,31727,1,8,0:0:0:0:
264,292,31906,2,0,L|344:288,2,77.999997619629,0|2|0,0:0|0:0|0:0,0:0:0:0:
198,336,32441,5,8,0:0:0:0:
198,336,32620,2,0,L|114:340,2,77.999997619629,0|2|0,0:0|0:0|0:0,0:0:0:0:
320,232,33156,2,0,P|344:272|340:320,1,77.999997619629,8|0,0:0|0:0,0:0:0:0:
264,292,33513,1,2,0:0:0:0:
198,336,33691,2,0,B|176:312|184:268|184:268|212:224|184:168,1,155.999995239258
112,224,34227,1,2,0:0:0:0:
112,224,34406,2,0,B|90:200|98:156|98:156|136:112|112:56,1,155.999995239258
32,93,34941,6,0,B|48:44|48:44|124:80,1,130,4|8,0:0|0:0,0:0:0:0:
280,128,35656,2,0,P|264:204|308:256,1,130,0|8,0:0|0:0,0:0:0:0:
405,169,36191,2,0,L|342:181,1,65
368,260,36548,1,0,0:0:0:0:
368,260,36727,2,0,L|504:236,1,130,8|0,0:0|0:0,0:0:0:0:
406,169,37263,1,0,0:0:0:0:
448,100,37441,2,0,P|476:128|484:164,1,65,8|0,0:0|0:0,0:0:0:0:
406,169,37798,6,0,B|364:132|371:87|371:87|348:72|346:33,1,130,4|8,0:0|0:0,0:0:0:0:
161,57,38513,2,0,B|164:72|141:87|141:87|148:132|106:169,1,130,0|8,0:0|0:0,0:0:0:0:
64,100,39048,1,0,0:0:0:0:
64,100,39227,2,0,L|0:84,1,65
28,172,39584,2,0,B|32:208|60:236|60:236|54:284|74:306,1,130,8|0,0:0|0:0,0:0:0:0:
128,340,40120,1,0,0:0:0:0:
140,264,40298,2,0,L|208:256,1,65,8|0,0:0|0:0,0:0:0:0:
276,288,40656,6,2,B|340:280|340:280|356:284|356:284|428:276,1,130,0|8,0:0|0:0,0:0:0:0:
484,280,41191,2,2,B|476:216|476:216|480:200|480:200|474:151,1,130
335,187,41727,2,0,L|400:180,1,65,8|0,0:0|0:0,0:0:0:0:
412,104,42084,2,0,P|408:52|392:24,1,65
269,95,42441,2,0,L|333:87,1,65,8|0,0:0|0:0,0:0:0:0:
196,56,42798,2,0,B|176:104|205:146|205:146|196:172|208:188,1,130,2|10,0:0|0:0,0:0:0:0:
244,252,43334,1,0,0:0:0:0:
244,252,43513,6,0,B|216:272|180:260|180:260|144:248|112:260,1,130,2|10,0:0|0:0,0:0:0:0:
80,332,44048,2,0,P|44:296|52:204,1,130
112,176,44584,1,8,0:0:0:0:
112,176,44763,2,0,P|148:172|192:176,1,65,0|0,0:0|0:0,0:0:0:0:
252,128,45120,1,0,0:0:0:0:
252,128,45298,2,0,P|292:132|320:132,2,65,8|0|0,0:0|0:0|0:0,0:0:0:0:
172,88,45834,1,0,0:0:0:0:
172,88,45923,1,0,0:0:0:0:
172,88,46013,2,0,L|136:84,2,32.5,8|0|0,0:0|0:0|0:0,0:0:0:0:
324,84,46370,6,0,B|344:136|316:180|316:180|324:200|321:209,1,130,4|8,0:0|0:0,0:0:0:0:
256,336,47084,2,0,B|244:300|260:260|260:260|240:236|244:192,1,130,0|8,0:0|0:0,0:0:0:0:
321,209,47620,1,0,0:0:0:0:
321,209,47798,2,0,L|412:204,1,65
444,152,48156,2,0,P|464:216|420:280,1,130,8|0,0:0|0:0,0:0:0:0:
368,128,48691,1,0,0:0:0:0:
368,128,48870,2,0,B|400:72,1,65,8|0,0:0|0:0,0:0:0:0:
308,72,49227,6,0,P|288:136|332:200,1,130,0|8,0:0|0:0,0:0:0:0:
384,44,49941,2,0,B|348:52|324:40|324:40|288:24|252:36,1,130,0|8,0:0|0:0,0:0:0:0:
184,80,50477,2,0,B|148:88|124:76|124:76|88:60|52:72,1,130
4,128,51013,1,8,0:0:0:0:
80,148,51191,2,0,B|84:213|84:213|80:228|80:228|84:280,1,130
224,256,51727,2,0,B|203:257|190:263|190:263|175:257|156:257,1,65,8|0,0:0|0:0,0:0:0:0:
140,332,52084,2,2,B|188:360|232:340|232:340|252:352|268:344,1,130,4|8,0:2|0:0,0:0:0:0:
344,340,52620,6,2,B|356:346|376:334|376:334|420:354|468:326,1,130
404,200,53156,2,0,L|415:265,1,65,8|0,0:0|0:0,0:0:0:0:
492,248,53513,2,0,L|480:176,1,65
426,120,53870,1,8,0:0:0:0:
426,120,54048,2,0,L|416:56,1,65
502,104,54406,1,0,0:0:0:0:
502,104,54584,2,0,L|491:39,1,65,8|0,0:0|0:0,0:0:0:0:
336,20,54941,6,2,B|320:68|348:112|348:112|344:140|364:168,1,130,4|8,0:2|0:0,0:0:0:0:
280,280,55656,2,0,P|276:228|268:196,1,65,4|0,0:2|0:0,0:0:0:0:
188,296,56013,2,0,P|176:256|176:224,1,65,8|0,0:0|0:0,0:0:0:0:
212,148,56370,1,4,0:2:0:0:
212,148,56548,1,0,0:0:0:0:
272,76,56727,1,8,0:2:0:0:
272,76,56906,2,0,L|404:60,1,130
500,56,57441,2,0,L|500:92,3,32.5,8|0|0|0,0:0|0:0|0:0|0:0,0:0:0:0:
484,116,57798,6,0,P|492:168|480:240,1,104,6|2,0:0|0:0,0:0:0:0:
404,272,58334,1,0,0:0:0:0:
404,272,58513,2,0,L|288:264,1,104
204,228,59048,1,0,0:0:0:0:
204,228,59227,2,0,B|172:232|148:224|148:224|124:232|108:216,2,78,2|2|2,0:0|0:0|0:0,0:0:0:0:
288,168,59941,2,0,P|284:128|272:100,1,52,4|0,0:2|0:0,0:0:0:0:
156,136,60298,2,0,P|185:137|208:136,1,52,8|0,0:0|0:0,0:0:0:0:
256,16,60656,5,6,0:0:0:0:
256,16,60834,2,0,P|236:48|232:80,1,52,2|2,0:0|0:0,0:0:0:0:
316,80,61191,2,0,B|352:84|376:72|376:72|408:80|432:72,1,104,2|0,0:0|0:0,0:0:0:0:
504,64,61727,1,0,0:0:0:0:
504,64,61906,1,0,0:0:0:0:
472,140,62084,2,0,B|472:188|472:188|480:196|480:196|480:244,1,104,2|0,0:0|0:0,0:0:0:0:
460,356,62620,2,0,P|448:332|444:296,1,52,2|0,0:0|0:0,0:0:0:0:
352,248,62977,2,0,P|375:241|403:241,1,52,2|0,0:0|0:0,0:0:0:0:
308,320,63334,1,0,0:0:0:0:
231,284,63513,6,2,B|214:274|189:277|189:277|160:280|131:262,1,104,4|0,0:0|0:0,0:0:0:0:
99,189,64048,1,0,0:0:0:0:
179,197,64227,2,0,B|185:165|169:142|169:142|175:110|198:94,1,104
271,35,64763,1,0,0:0:0:0:
271,35,64941,2,2,B|264:66|280:89|280:89|266:119,2,78,0|0|0,0:0|0:0|0:0,0:0:0:0:
354,47,65656,2,0,B|409:53|409:53|416:59|416:59|444:60,1,78
464,52,66013,2,0,L|496:56,2,26
492,184,66370,5,4,0:2:0:0:
492,184,66548,2,0,P|468:220|444:232,1,65,0|8,0:0|0:0,0:0:0:0:
344,192,66906,1,0,0:0:0:0:
344,192,67084,2,0,P|368:176|408:168,1,65
404,312,67441,2,0,P|392:284|364:264,1,65,8|0,0:0|0:0,0:0:0:0:
268,340,67798,2,0,P|316:336|344:324,1,65
276,144,68156,2,0,B|256:184|268:224|268:224|292:248|288:280,1,130,8|0,0:0|0:0,0:0:0:0:
344,192,68691,1,0,0:0:0:0:
216,280,68870,5,8,0:0:0:0:
216,280,69048,2,0,P|176:288|140:288,2,65,0|4|0,0:0|0:2|0:0,0:0:0:0:
80,256,69584,2,0,P|48:256|4:248,1,65,8|0,0:0|0:0,0:0:0:0:
147,143,69941,2,0,P|152:175|144:208,1,65
72,176,70298,2,0,P|40:172|12:156,1,65,8|0,0:0|0:0,0:0:0:0:
80,96,70656,2,0,B|76:64|96:32|96:32|128:60|168:68,1,130,4|8,0:2|0:0,0:0:0:0:
224,104,71191,1,0,0:0:0:0:
367,75,71370,2,0,P|335:72|304:80,1,65
224,104,71727,1,8,0:0:0:0:
224,104,71816,1,0,0:0:0:0:
224,104,71906,1,0,0:0:0:0:
288,224,72084,6,0,L|284:156,1,65,4|0,0:2|0:0,0:0:0:0:
184,212,72441,2,0,P|188:260|208:292,1,65,8|0,0:0|0:0,0:0:0:0:
272,328,72798,2,0,P|304:330|344:316,1,65
392,248,73156,1,8,0:0:0:0:
392,248,73334,1,0,0:0:0:0:
368,160,73513,2,0,L|440:152,2,65,0|0|8,0:0|0:0|0:0,0:0:0:0:
280,100,74048,1,0,0:0:0:0:
280,100,74227,2,0,L|272:24,2,65,0|0|8,0:0|0:0|0:0,0:0:0:0:
220,180,74763,1,0,0:0:0:0:
220,180,74941,6,0,L|148:188,1,65
124,108,75298,1,8,0:0:0:0:
124,108,75477,2,0,L|188:100,1,65
272,4,75834,2,0,B|268:28|284:56|284:56|304:100|284:140,1,130
220,180,76370,2,0,P|220:212|240:252,1,65
388,208,76727,2,0,P|384:173|364:136,1,65,8|0,0:0|0:0,0:0:0:0:
304,200,77084,2,0,L|312:236,3,32.5
308,268,77441,2,0,B|320:304|320:304|320:348,1,65,8|0,0:0|0:0,0:0:0:0:
216,320,77798,6,0,P|192:328|144:328,1,52,2|0,0:0|2:0,0:0:0:0:
136,256,78156,2,0,P|176:256|212:244,1,65,2|0,0:0|2:0,0:0:0:0:
192,176,78513,2,0,P|152:184|112:176,1,77.999997619629,2|0,0:0|2:0,0:0:0:0:
60,104,78870,1,4,0:2:0:0:
44,340,79227,6,0,B|16:308|28:260|28:260|44:212|16:164,1,155.999995239258,6|8,0:0|0:0,0:0:0:0:
12,108,79763,1,0,0:0:0:0:
168,132,79941,2,0,P|104:140|84:140,1,77.999997619629,2|0,0:0|0:0,0:0:0:0:
84,56,80298,2,0,P|132:56|164:48,1,77.999997619629,8|0,0:0|0:0,0:0:0:0:
232,80,80656,2,2,B|288:80|324:56|324:56|360:68|384:56,1,155.999995239258,0|8,0:0|0:0,0:0:0:0:
460,24,81191,2,0,P|484:64|484:108,1,77.999997619629,0|2,0:0|0:0,0:0:0:0:
404,196,81548,2,0,P|400:160|416:120,1,77.999997619629,0|8,0:0|0:0,0:0:0:0:
476,168,81906,5,0,0:0:0:0:
476,168,82084,2,0,B|492:220|452:256|452:256|476:296|468:328,1,155.999995239258,0|8,0:2|0:0,0:0:0:0:
428,376,82620,1,0,0:0:0:0:
388,308,82798,2,0,L|308:316,1,77.999997619629,2|0,0:0|0:0,0:0:0:0:
240,280,83156,2,0,P|232:332|252:368,1,77.999997619629,8|0,0:0|0:0,0:0:0:0:
304,240,83513,2,2,B|312:200|288:160|288:160|248:180|217:167,1,155.999995239258,0|8,0:0|0:0,0:0:0:0:
238,19,84048,2,0,P|246:57|244:96,1,77.999997619629,0|2,0:0|0:0,0:0:0:0:
93,110,84406,2,0,P|132:104|171:107,1,77.999997619629,0|8,0:0|0:0,0:0:0:0:
218,167,84763,5,0,0:0:0:0:
140,180,84941,2,0,B|127:213|143:249|143:249|171:281|163:329,1,155.999995239258,6|8,0:2|0:0,0:0:0:0:
84,312,85477,1,0,0:0:0:0:
84,312,85656,2,0,B|136:300|136:300|192:308|192:308|252:296,1,155.999995239258,2|8,0:0|0:0,0:0:0:0:
336,328,86191,1,0,0:0:0:0:
336,328,86370,2,0,P|340:284|320:236,1,77.999997619629,2|0,0:0|0:0,0:0:0:0:
244,196,86727,1,8,0:0:0:0:
184,256,86906,2,0,B|232:292|284:268|284:268|312:268|336:248,1,155.999995239258,2|0,0:0|0:0,0:0:0:0:
441,166,87441,2,0,P|401:166|362:183,1,77.999997619629,8|0,0:0|0:0,0:0:0:0:
416,244,87798,6,2,B|420:180|420:180|412:136|412:136|414:88,1,155.999995239258,2|8,0:2|0:0,0:0:0:0:
492,32,88334,2,0,P|508:80|500:132,1,77.999997619629,0|2,0:0|0:0,0:0:0:0:
338,141,88691,2,0,P|322:97|330:49,1,77.999997619629,0|8,0:0|0:0,0:0:0:0:
415,89,89048,2,0,P|431:137|423:189,1,77.999997619629,0|2,0:0|0:0,0:0:0:0:
261,198,89406,2,0,P|245:154|253:106,1,77.999997619629,0|8,0:0|0:0,0:0:0:0:
338,142,89763,1,0,0:0:0:0:
164,200,89941,2,0,L|112:196,3,38.9999988098145,2|0|0|0,0:0|0:0|0:0|0:0,0:0:0:0:
88,208,90298,2,0,L|28:200,3,38.9999988098145,8|0|0|0,0:0|0:0|0:0|0:0,0:0:0:0:
12,216,90656,6,0,B|16:272|16:272|24:280|24:280|32:368,1,155.999995239258,6|8,0:0|0:0,0:0:0:0:
136,284,91191,1,0,0:0:0:0:
136,284,91370,2,0,B|140:320|140:320|148:324|148:324|152:372,1,77.999997619629,2|0,0:0|0:0,0:0:0:0:
240,244,91727,2,0,B|244:280|244:280|252:284|252:284|256:332,1,77.999997619629,8|0,0:0|0:0,0:0:0:0:
376,360,92084,2,2,B|372:304|372:304|364:296|364:296|356:208,1,155.999995239258,2|8,0:0|0:0,0:0:0:0:
504,184,92620,2,0,P|464:200|412:188,1,77.999997619629,0|2,0:0|0:0,0:0:0:0:
460,44,92977,2,0,L|456:121,1,77.999997619629,0|8,0:0|0:0,0:0:0:0:
380,136,93334,5,0,0:0:0:0:
380,136,93513,2,0,B|340:144|300:128|300:128|256:112|208:144,1,155.999995239258,0|8,0:2|0:0,0:0:0:0:
192,200,94048,1,0,0:0:0:0:
257,280,94227,2,0,L|272:204,1,77.999997619629,2|0,0:0|0:0,0:0:0:0:
304,104,94584,2,0,P|304:59|284:32,1,77.999997619629,8|0,0:0|0:0,0:0:0:0:
174,49,94941,2,2,B|186:97|186:97|174:137|174:137|192:200,1,155.999995239258,2|8,0:0|0:0,0:0:0:0:
92,292,95477,2,0,P|148:288|172:272,1,77.999997619629,0|2,0:0|0:0,0:0:0:0:
92,140,95834,2,0,L|116:228,1,77.999997619629,0|8,0:0|0:0,0:0:0:0:
36,236,96191,5,0,0:0:0:0:
192,200,96370,2,0,B|200:152|176:112|176:112|160:80|180:40,1,155.999995239258,2|8,0:0|0:0,0:0:0:0:
264,80,96906,2,0,L|424:92,1,155.999995239258,2|0,0:0|0:0,0:0:0:0:
503,47,97441,2,0,P|511:86|507:124,1,77.999997619629,8|0,0:0|0:0,0:0:0:0:
440,184,97798,2,0,B|432:232|456:272|456:272|472:304|452:344,1,155.999995239258,2|8,0:0|0:0,0:0:0:0:
372,304,98334,2,0,L|216:292,1,155.999995239258,2|0,0:0|0:0,0:0:0:0:
132,336,98870,2,0,P|124:288|136:240,1,77.999997619629,8|0,0:0|0:0,0:0:0:0:
196,196,99227,2,0,P|216:152|136:160,1,155.999995239258
24,8,99941,5,2,0:0:0:0:
68,80,100120,2,0,B|92:84|92:84|108:64|144:52,1,77.999997619629
224,56,100477,1,0,0:0:0:0:
304,88,100656,2,0,L|382:80,1,77.999997619629,2|0,0:0|0:0,0:0:0:0:
484,144,101013,2,0,L|400:152,1,77.999997619629,8|0,0:0|0:0,0:0:0:0:
312,196,101370,2,0,L|324:296,1,77.999997619629,2|0,0:0|0:0,0:0:0:0:
252,356,101727,2,0,L|242:278,1,77.999997619629,8|0,0:0|0:0,0:0:0:0:
181,181,102084,6,0,B|181:208|181:208|157:231|150:262|150:262|152:304|176:338,1,155.999995239258,12|8,0:2|0:0,0:0:0:0:
204,68,102798,1,0,0:0:0:0:
292,80,102977,2,0,P|348:80|384:76,1,77.999997619629,0|8,0:0|0:0,0:0:0:0:
504,132,103334,2,0,P|448:144|400:144,2,77.999997619629,0|2|0,0:0|0:0|0:0,0:0:0:0:
452,64,103870,1,8,0:0:0:0:
452,64,104048,2,0,B|408:128|444:180|444:180|456:208|444:224,1,155.999995239258
432,296,104584,1,8,0:0:0:0:
432,296,104763,1,0,0:0:0:0:
372,240,104941,6,0,B|336:228|300:244|300:244|264:264|212:252,1,155.999995239258,12|8,0:2|0:0,0:0:0:0:
92,216,105477,2,0,P|136:196|168:200,1,77.999997619629,0|2,0:0|0:0,0:0:0:0:
156,352,105834,2,0,L|144:268,1,77.999997619629,0|8,0:0|0:0,0:0:0:0:
248,176,106191,1,0,0:0:0:0:
248,176,106370,2,0,B|228:140|240:104|240:104|256:60|232:16,1,155.999995239258,2|8,0:0|0:0,0:0:0:0:
164,68,106906,1,0,0:0:0:0:
164,68,107084,2,0,L|324:56,1,155.999995239258,2|8,0:0|0:0,0:0:0:0:
248,176,107620,5,0,0:0:0:0:
248,176,107709,1,0,0:0:0:0:
248,176,107798,1,6,0:0:0:0:
156,160,107977,2,0,L|76:156,1,77.999997619629,0|8,0:0|0:0,0:0:0:0:
32,272,108334,2,2,B|76:272|104:256|104:256|144:268|188:252,1,155.999995239258
280,352,108870,2,0,P|276:296|264:260,1,77.999997619629,10|0,0:0|0:0,0:0:0:0:
248,176,109227,1,6,0:0:0:0:
340,212,109406,2,0,L|424:200,1,77.999997619629,0|8,0:0|0:0,0:0:0:0:
477,116,109763,2,2,P|518:181|504:256,2,155.999995239258
408,80,110656,5,4,0:2:0:0:
408,80,110834,2,0,B|356:88|356:88|344:96|344:96|272:108,1,130,4|0,0:0|0:0,0:0:0:0:
72,108,111370,2,0,B|124:100|124:100|136:92|136:92|198:81,1,130,4|0,0:0|0:0,0:0:0:0:
220,160,111906,2,0,B|236:192|232:228|232:228|232:264|252:288,1,130,4|0,0:0|0:0,0:0:0:0:
316,236,112441,2,0,P|279:360|177:327,1,260,4|4,0:0|0:2,0:0:0:0:
100,228,113513,6,0,L|16:224,2,65,0|0|8,0:0|0:0|0:0,0:0:0:0:
160,148,114048,1,0,0:0:0:0:
160,148,114227,2,0,L|76:144,1,65
240,72,114584,2,0,L|156:68,1,65,8|4,0:0|0:0,0:0:0:0:
256,192,114941,12,0,117798,2:0:0:0:
