osu file format v13

[General]
AudioFilename: nourin.mp3
AudioLeadIn: 2000
PreviewTime: 60842
Countdown: 0
SampleSet: Soft
StackLeniency: 0.7
Mode: 0
LetterboxInBreaks: 0
WidescreenStoryboard: 0

[Editor]
DistanceSpacing: 1.1
BeatDivisor: 4
GridSize: 4
TimelineZoom: 1

[Metadata]
Title:Mogitate * Fruit Girls
TitleUnicode:も・ぎ・た・て♥フルーツガールズ
Artist:Tamura Yukari & Hanazawa Kana
ArtistUnicode:田村ゆかり&花澤香菜
Creator:Raisa12
Version:Normal
Source:のうりん
Tags:Nourin ending Ringo Kinoshita Minori Nakazawa no-rin kamisamaaa SILVER LINK Nardoxyribonucleic tv size
BeatmapID:357244
BeatmapSetID:143556

[Difficulty]
HPDrainRate:4
CircleSize:3
OverallDifficulty:4
ApproachRate:5
SliderMultiplier:1.04
SliderTickRate:1

[Events]
//Background and Video events
0,0,"nourin_1.jpg",0,0
//Break Periods
//Storyboard Layer 0 (Background)
//Storyboard Layer 1 (Fail)
//Storyboard Layer 2 (Pass)
//Storyboard Layer 3 (Foreground)
//Storyboard Sound Samples

[TimingPoints]
500,342.857142857143,4,2,3,80,1,0
5557,-100,4,2,4,80,0,0
5728,-100,4,2,1,80,0,0
5985,-100,4,2,4,60,0,0
11471,-100,4,2,1,80,0,0
25185,-100,4,2,2,60,0,0
35985,-100,4,2,1,80,0,0
41900,-100,4,2,3,80,0,0
42071,-100,4,2,1,80,0,0
60842,-100,4,2,1,80,0,1
71128,-100,4,2,1,80,0,0
71814,-100,4,2,1,80,0,1
82785,-100,4,2,1,80,0,0
85528,-100,4,2,1,5,0,0
85871,-100,4,2,1,70,0,0
86214,-100,4,2,1,60,0,0
86557,-100,4,2,1,50,0,0
86900,-100,4,2,1,40,0,0
87242,-100,4,2,1,30,0,0
87585,-100,4,2,1,20,0,0
87928,-100,4,2,1,5,0,0

[Colours]
Combo1 : 255,0,204
Combo2 : 244,157,244
Combo3 : 1,203,254
Combo4 : 97,241,92
Combo5 : 255,198,111
Combo6 : 157,136,244
Combo7 : 213,170,170
Combo8 : 39,231,125

[HitObjects]
128,292,500,6,0,L|232:224,1,104,6|8,0:0|0:0,0:0:0:0:
128,180,1185,2,0,L|40:236,1,104,0|8,0:0|0:0,0:0:0:0:
4,140,1871,1,0,0:0:0:0:
64,56,2214,1,8,0:0:0:0:
168,36,2557,1,2,0:0:0:0:
252,96,2900,1,8,0:0:0:0:
256,200,3242,38,0,L|364:212,1,104,4|8,0:0|0:0,0:0:0:0:
444,152,3928,2,0,P|397:111|336:112,1,104,0|8,0:0|0:0,0:0:0:0:
304,108,4442,1,0,0:0:0:0:
252,96,4614,2,0,P|201:86|166:50,2,104,4|0|0,0:0|0:0|0:0,0:0:0:0:
240,200,5642,1,8,0:0:0:0:
139,179,5985,6,0,P|88:180|45:208,2,104,4|0|0,0:0|0:0|0:0,0:0:0:0:
120,284,7013,1,0,0:0:0:0:
120,284,7357,2,0,P|197:271|231:155,1,208,2|2,0:0|0:0,0:0:0:0:
312,92,8385,1,0,0:0:0:0:
380,8,8728,6,0,P|411:48|418:99,1,104,2|0,0:0|0:0,0:0:0:0:
312,92,9414,2,0,P|318:142|352:184,1,104,2|0,0:0|0:0,0:0:0:0:
420,260,10100,2,0,P|344:320|242:294,1,208,2|2,0:0|0:0,0:0:0:0:
140,316,11128,1,0,0:0:0:0:
116,216,11471,6,0,L|215:184,1,104,4|8,0:0|0:0,0:0:0:0:
136,120,12157,2,0,L|36:151,1,104,2|8,0:0|0:0,0:0:0:0:
68,52,12842,2,0,L|168:21,1,104,2|8,0:0|0:0,0:0:0:0:
216,8,13357,1,4,0:0:0:0:
412,180,14214,6,0,L|496:160,2,78,4|4|4,0:0|0:0|0:0,0:0:0:0:
360,172,14900,2,0,L|276:192,2,78,4|4|4,0:0|0:0|0:0,0:0:0:0:
352,120,15585,1,4,0:0:0:0:
448,76,15928,2,0,P|408:24|356:12,2,104,4|0|4,0:0|0:0|0:0,0:0:0:0:
352,120,16957,38,0,L|316:236,1,104,4|8,0:0|0:0,0:0:0:0:
304,268,17471,2,0,P|256:280|200:268,1,104,0|2,0:0|0:0,0:0:0:0:
128,196,18157,2,0,P|116:116|164:40,1,156,2|8,0:0|0:0,0:0:0:0:
252,76,19014,1,2,0:0:0:0:
352,52,19357,1,2,0:0:0:0:
444,100,19700,6,0,P|460:164|445:210,1,104,2|10,0:0|0:0,0:0:0:0:
356,156,20385,2,0,P|304:168|264:204,1,104,2|0,0:0|0:0,0:0:0:0:
232,240,20900,2,0,P|192:273|142:284,2,104,2|2|2,0:0|0:0|0:0,0:0:0:0:
356,144,22100,2,0,P|344:92|308:52,1,104,2|6,0:0|0:0,0:0:0:0:
208,172,22957,6,0,P|174:132|163:82,2,104,2|0|2,0:0|0:0|0:0,0:0:0:0:
304,216,23985,2,0,L|360:208,2,52,0|2|0,0:0|0:0|0:0,0:0:0:0:
268,256,24500,2,0,L|216:264,1,52,4|4,0:0|0:0,0:0:0:0:
80,340,25185,6,0,L|64:236,1,104,4|0,0:0|0:0,0:0:0:0:
44,136,25871,1,2,0:0:0:0:
116,60,26214,1,0,0:0:0:0:
220,68,26557,1,8,0:0:0:0:
284,144,26900,1,2,0:0:0:0:
308,244,27242,2,0,P|248:240|208:212,1,104,8|2,0:0|0:0,0:0:0:0:
284,144,27928,6,0,L|360:56,2,104,12|2|8,0:0|0:0|0:0,0:0:0:0:
212,216,28957,1,2,0:0:0:0:
276,300,29300,1,8,0:0:0:0:
380,292,29642,2,0,P|460:224|448:128,1,208,2|2,0:0|0:0,0:0:0:0:
363,189,30671,6,0,P|303:217|283:265,1,104,4|2,0:0|0:0,0:0:0:0:
308,348,31357,1,8,0:0:0:0:
212,308,31700,2,0,P|188:248|199:198,1,104,2|8,0:0|0:0,0:0:0:0:
140,124,32385,2,0,P|164:64|153:14,1,104,2|8,0:0|0:0,0:0:0:0:
59,59,33071,1,2,0:0:0:0:
44,164,33414,6,0,P|132:228|224:184,1,208,8|2,0:0|0:0,0:0:0:0:
184,96,34442,1,8,0:0:0:0:
260,28,34785,2,0,L|364:44,1,104,4|2,0:0|0:0,0:0:0:0:
468,44,35471,2,0,L|460:104,1,52,2|0,0:0|0:0,0:0:0:0:
424,132,35814,2,0,L|432:192,1,52,2|0,0:0|0:0,0:0:0:0:
452,232,36157,6,0,P|436:281|399:316,1,104,4|8,0:0|0:0,0:0:0:0:
308,264,36842,2,0,P|243:266|201:241,1,104,2|8,0:0|0:0,0:0:0:0:
208,144,37528,2,0,P|160:123|109:128,1,104,2|8,0:0|0:0,0:0:0:0:
44,44,38214,1,2,0:0:0:0:
140,8,38557,1,8,0:0:0:0:
238,26,38900,5,4,0:0:0:0:
332,68,39242,2,0,L|376:172,1,104,8|2,0:0|0:0,0:0:0:0:
468,204,39928,2,0,L|424:308,1,104,8|2,0:0|0:0,0:0:0:0:
328,336,40614,1,8,0:0:0:0:
260,256,40957,1,2,0:0:0:0:
324,172,41300,1,8,0:0:0:0:
260,256,41642,6,0,P|203:255|130:134,1,208,2|2,0:0|0:0,0:0:0:0:
128,33,42671,2,0,P|77:40|44:79,1,104,8|2,0:0|0:0,0:0:0:0:
129,139,43357,2,0,P|179:131|213:93,1,104,8|2,0:0|0:0,0:0:0:0:
284,20,44042,1,8,0:0:0:0:
340,108,44385,6,0,L|460:132,1,104,4|8,0:0|0:0,0:0:0:0:
496,220,45071,2,0,P|478:281|425:310,1,104,2|8,0:0|0:0,0:0:0:0:
396,296,45585,1,4,0:0:0:0:
284,188,46100,5,8,0:0:0:0:
200,124,46442,2,0,P|172:141|155:165,1,52,2|0,0:0|0:0,0:0:0:0:
136,200,46785,2,0,P|118:219|96:232,1,52,8|0,0:0|0:0,0:0:0:0:
44,240,47128,1,8,3:0:0:0:
76,340,47471,1,8,0:0:0:0:
180,340,47814,6,0,L|345:340,1,156,12|8,0:0|0:0,0:0:0:0:
432,216,48842,1,8,0:0:0:0:
324,104,49357,2,0,P|296:52|204:40,1,156,2|8,0:0|3:0,0:0:0:0:
148,124,50214,6,0,P|95:113|67:67,1,104,12|4,0:0|0:0,0:0:0:0:
0,216,51071,1,4,0:0:0:0:
156,220,51585,2,0,P|199:255|248:264,1,104,8|2,0:0|0:0,0:0:0:0:
332,200,52271,6,0,P|345:296|264:372,1,208,8|8,0:0|0:0,0:0:0:0:
244,264,53300,1,2,0:0:0:0:
140,264,53642,2,0,P|156:200|200:168,1,104,8|2,0:0|0:0,0:0:0:0:
272,120,54328,2,0,P|306:82|314:31,1,104,8|2,0:0|0:0,0:0:0:0:
212,36,55014,1,8,0:0:0:0:
168,64,55185,1,0,0:0:0:0:
124,92,55357,6,0,L|30:150,1,104,4|8,0:0|0:0,0:0:0:0:
132,196,56042,2,0,L|220:141,2,104,2|8|2,0:0|0:0|0:0,0:0:0:0:
161,296,57071,2,0,P|205:328|272:324,1,104,8|2,0:0|0:0,0:0:0:0:
368,316,57757,1,8,0:0:0:0:
372,200,58100,6,0,L|472:212,2,78,4|4|4,0:0|0:0|0:0,0:0:0:0:
320,220,58785,2,0,L|242:210,2,78,4|4|4,0:0|0:0|0:0,0:0:0:0:
372,200,59471,1,4,0:0:0:0:
460,52,60842,21,4,0:0:0:0:
360,72,61185,2,0,P|308:44|252:44,1,104,8|2,0:0|0:0,0:0:0:0:
276,144,61871,2,0,P|216:143|167:169,1,104,8|2,0:0|0:0,0:0:0:0:
88,212,62557,1,8,0:0:0:0:
84,108,62900,2,0,L|20:16,2,104,2|8|2,0:0|0:0|0:0,0:0:0:0:
176,160,63928,6,0,L|235:245,1,104,8|2,0:0|0:0,0:0:0:0:
296,328,64614,2,0,P|352:328|392:292,2,104,10|2|10,0:0|0:0|0:0,0:0:0:0:
235,245,65642,2,0,P|224:192|236:136,1,104,2|8,0:0|0:0,0:0:0:0:
256,96,66157,1,0,0:0:0:0:
288,56,66328,1,4,0:0:0:0:
188,24,66671,6,0,L|76:44,2,104,8|2|8,0:0|0:0|0:0,0:0:0:0:
288,56,67700,2,0,P|352:40|400:56,2,104,2|8|2,0:0|0:0|0:0,0:0:0:0:
344,144,68728,2,0,L|312:264,1,104,8|2,0:0|0:0,0:0:0:0:
248,336,69414,5,8,0:0:0:0:
172,252,69757,2,0,L|120:272,1,52,2|0,0:0|0:0,0:0:0:0:
68,292,70100,1,8,0:0:0:0:
68,176,70442,6,0,L|178:133,1,104,4|0,0:0|0:0,0:0:0:0:
276,160,71128,2,0,P|293:194|292:233,2,78,4|4|0,0:0|0:0|0:0,0:0:0:0:
224,132,71814,1,4,0:0:0:0:
40,268,72500,5,2,0:0:0:0:
36,156,72842,2,0,L|62:55,1,104,8|2,0:0|0:0,0:0:0:0:
152,128,73528,2,0,L|125:228,1,104,8|2,0:0|0:0,0:0:0:0:
104,340,74214,2,0,P|152:356|224:340,1,104,8|2,0:0|0:0,0:0:0:0:
236,240,74900,6,0,P|287:233|336:249,1,104,8|2,0:0|0:0,0:0:0:0:
396,344,75585,2,0,L|508:296,1,104,8|2,0:0|0:0,0:0:0:0:
416,228,76271,2,0,L|470:119,2,104,8|2|8,0:0|0:0|0:0,0:0:0:0:
368,252,77128,1,0,0:0:0:0:
316,256,77300,5,4,0:0:0:0:
312,152,77642,2,0,P|260:164|220:220,1,104,8|2,0:0|0:0,0:0:0:0:
200,300,78328,1,8,0:0:0:0:
288,356,78671,2,4,P|368:348|416:284,1,156,4|4,0:0|0:0,0:0:0:0:
472,148,79700,1,12,0:0:0:0:
388,88,80042,6,0,L|310:78,2,78,4|4|4,0:0|0:0|0:0,0:0:0:0:
436,112,80728,2,0,P|457:142|463:196,2,78,4|4|4,0:0|0:0|0:0,0:0:0:0:
388,88,81414,1,4,0:0:0:0:
356,188,81757,1,8,0:0:0:0:
260,228,82100,2,0,L|148:272,1,104,2|6,0:0|0:0,0:0:0:0:
76,208,82785,6,0,P|72:116|140:76,1,156,2|8,0:0|0:0,0:0:0:0:
220,80,83642,2,0,L|322:39,1,104,4|4,0:0|0:0,0:0:0:0:
460,104,84500,5,0,0:0:0:0:
432,204,84842,2,0,L|484:252,1,52,4|4,0:0|0:0,0:0:0:0:
504,340,85357,1,4,0:0:0:0:
256,192,85528,12,0,88271,0:0:0:0:
