osu file format v9

[General]
AudioFilename: lively passion!.mp3
AudioLeadIn: 0
PreviewTime: 51947
Countdown: 1
SampleSet: Soft
StackLeniency: 0.7
Mode: 0
LetterboxInBreaks: 1

[Editor]
Bookmarks: 18556
DistanceSpacing: 1
BeatDivisor: 4
GridSize: 8

[Metadata]
Title:Lively Passion!
Artist:Tamiyasu*ROCK
Creator:regenz
Version:Insane
Source:Yotsuiro Passionato
Tags:Skyfish eroge galge indyinyou

[Difficulty]
HPDrainRate:7
CircleSize:5
OverallDifficulty:7
ApproachRate:9
SliderMultiplier:1.6
SliderTickRate:2

[Events]
//Background and Video events
Video,0,"yotsuiro passionato.flv"
0,0,"passion_background.jpg"
//Break Periods
2,30234,57608
2,61799,79325
//Storyboard Layer 0 (Background)
//Storyboard Layer 1 (Fail)
//Storyboard Layer 2 (Pass)
//Storyboard Layer 3 (Foreground)
//Storyboard Sound Samples
//Background Colour Transformations
3,100,163,162,255

[TimingPoints]
4991,260.869565217391,4,2,0,40,1,0
6034,-100,4,1,0,60,0,0
20121,-100,4,1,0,40,0,0
20251,-100,4,1,0,60,0,0
24295,-100,4,2,0,60,0,0
24425,-100,4,1,0,60,0,0
51947,-100,4,1,0,60,0,1
90556,-100,4,1,0,60,0,0

[HitObjects]
256,40,4991,1,2
128,136,5251,1,2
248,240,5512,1,2
96,304,5773,1,2
248,344,6034,5,0
384,264,6295,1,0
392,184,6425,1,0
232,64,6686,1,0
192,80,6817,1,0
72,240,7077,1,0
184,272,7338,1,0
256,232,7469,1,0
400,160,7730,1,0
432,232,7860,1,0
280,272,8121,1,0
208,128,8382,1,0
136,152,8512,1,0
144,24,8773,1,0
224,48,8904,1,0
344,80,9164,5,0
272,112,9295,1,0
240,136,9360,1,0
224,168,9425,1,0
264,240,9556,1,0
344,248,9686,1,0
416,288,9817,1,0
352,336,9947,1,0
272,352,10077,1,0
192,336,10208,1,4
56,256,10469,5,0
32,176,10599,1,0
192,168,10860,1,0
264,128,10991,1,0
424,136,11251,1,0
472,288,11512,1,0
392,304,11643,1,0
232,304,11904,1,0
152,304,12034,1,0
248,176,12295,5,0
408,192,12556,1,0
352,248,12686,1,0
192,272,12947,1,0
112,272,13077,1,0
88,112,13338,1,0
160,88,13469,1,0
200,88,13534,1,0
240,104,13599,1,0
320,104,13730,1,0
392,128,13860,1,0
392,208,13990,1,0
320,240,14121,1,0
240,256,14251,1,0
160,272,14382,1,4
256,144,14643,5,0
336,168,14773,1,0
296,56,15034,1,0
392,128,15164,1,0
288,248,15425,1,0
136,192,15686,1,0
144,112,15817,1,0
280,192,16077,1,0
304,272,16208,1,0
464,304,16469,1,0
448,144,16730,1,0
464,64,16860,1,0
304,72,17121,1,0
240,120,17251,1,0
296,272,17512,5,0
224,304,17643,1,0
184,296,17708,1,0
144,296,17773,1,0
152,216,17904,1,0
216,168,18034,1,0
136,152,18164,1,0
200,96,18295,1,0
272,120,18425,1,0
344,80,18556,1,4
408,224,18817,5,0
256,280,19077,1,0
184,296,19208,1,0
104,288,19338,1,0
24,152,19599,1,0
184,120,19860,1,0
264,136,19990,1,0
408,208,20251,1,0
360,272,20382,1,0
200,256,20643,1,0
40,272,20904,1,0
88,208,21034,1,0
144,56,21295,1,0
160,136,21425,1,0
296,216,21686,1,0
408,104,21947,5,0
432,184,22077,1,0
440,264,22208,1,0
384,320,22338,1,0
304,328,22469,1,0
224,320,22599,1,0
144,296,22730,1,0
72,152,22990,5,0
208,72,23251,1,0
176,144,23382,1,0
248,176,23512,1,0
408,208,23773,5,0
224,320,24034,1,0
144,312,24164,1,0
40,192,24425,1,0
56,112,24556,1,0
216,136,24817,1,0
328,248,25077,1,0
328,168,25208,1,0
472,96,25469,1,0
440,168,25599,1,0
480,320,25860,1,0
320,304,26121,1,0
240,296,26251,1,0
160,296,26382,1,0
80,288,26512,1,0
48,216,26643,1,0
80,144,26773,1,0
152,104,26904,1,4
312,112,27164,5,0
424,224,27425,1,0
400,304,27556,1,0
320,304,27686,1,0
240,312,27817,1,0
168,288,27947,1,0
152,208,28077,1,0
232,216,28208,1,0
312,232,28338,1,0
384,200,28469,1,0
392,120,28599,1,0
312,112,28730,1,0
152,136,28990,1,0
240,272,29251,1,0
312,304,29382,1,0
464,248,29643,1,0
432,176,29773,1,0
288,112,30034,1,0
208,144,58208,5,0
160,296,58469,1,0
224,288,58730,1,0
384,312,58990,1,0
480,184,59251,1,0
384,56,59512,1,0
224,56,59773,2,0,B|112:120|96:184,2,160
280,112,60425,1,0
256,192,60556,1,0
328,224,60686,1,0
280,288,60817,1,0
352,312,60947,1,0
304,376,61077,1,0
232,352,61208,1,0
168,312,61338,1,0
88,320,61469,1,0
80,240,61599,1,0
264,192,79925,5,0
