osu file format v12

[General]
AudioFilename: track.mp3
AudioLeadIn: 1000
PreviewTime: 10007
Countdown: 0
SampleSet: Normal
StackLeniency: 0.7
Mode: 0
LetterboxInBreaks: 1

[Editor]
DistanceSpacing: 1.2
BeatDivisor: 4
GridSize: 4

[Metadata]
Title:Crayon Tulip
TitleUnicode:くれよんちゅーりっぷ
Artist:Tamiyasu Tomoe, Aoba Ringo
ArtistUnicode:民安 ともえ, 青葉 りんご
Creator:h3k1ru
Version:Hard
Source:Crayon Tulip ~Chidori to Koruri no Yuuwaku Jugyou~
Tags:hentai ecchi alacat cryo[iceeicee] lolicon eroge visual novel game opening
BeatmapID:199667
BeatmapSetID:69160

[Difficulty]
HPDrainRate:6
CircleSize:4
OverallDifficulty:6
ApproachRate:7
SliderMultiplier:1.6
SliderTickRate:1

[Events]
//Background and Video events
0,0,"bg_hard.jpg",0,0
//Break Periods
//Storyboard Layer 0 (Background)
//Storyboard Layer 1 (Fail)
//Storyboard Layer 2 (Pass)
//Storyboard Layer 3 (Foreground)
//Storyboard Sound Samples
//Background Colour Transformations
3,100,163,162,255

[TimingPoints]
7,540.540540540541,4,1,1,25,1,0
7034,-100,4,1,4,15,0,0
7304,-100,4,1,1,25,0,0
8925,-100,4,1,2,30,0,0
10007,-100,4,1,1,25,0,0
10817,-100,4,1,2,30,0,0
11088,-100,4,1,1,30,0,0
11898,-100,4,1,2,30,0,0
12169,-100,4,1,1,30,0,0
12979,-100,4,1,2,30,0,0
13250,-100,4,1,1,30,0,0
14061,-100,4,1,2,30,0,0
14601,-100,4,1,3,30,0,0
15142,-100,4,1,2,30,0,0
15412,-100,4,1,1,30,0,0
16223,-100,4,1,2,30,0,0
16493,-100,4,1,1,30,0,0
17304,-100,4,1,2,30,0,0
17574,-100,4,1,1,30,0,0
18385,-100,4,1,2,30,0,0
18925,-100,4,1,3,30,0,0
19466,-100,4,1,2,30,0,0
19736,-100,4,1,1,30,0,0
20547,-100,4,1,2,30,0,0
20817,-100,4,1,1,30,0,0
21628,-100,4,1,2,30,0,0
21898,-100,4,1,1,30,0,0
22709,-100,4,1,2,30,0,0
23250,-100,4,1,3,30,0,0
23790,-100,4,1,2,30,0,0
24061,-100,4,1,1,30,0,0
24871,-100,4,1,2,30,0,0
25142,-100,4,1,1,30,0,0
25952,-100,4,1,2,30,0,0
26493,-125,4,1,2,30,0,0
27034,-142.857142857143,4,1,2,30,0,0
27574,-200,4,1,2,25,0,0
28115,-100,4,1,2,30,0,0
31628,-100,4,1,1,30,0,0
32439,-100,4,1,2,30,0,0
35952,-100,4,1,1,30,0,0
36763,-100,4,1,2,30,0,0
40277,-100,4,1,1,30,0,0
41088,-100,4,1,1,25,0,0
43250,-100,4,1,2,30,0,0
44601,-100,4,1,1,25,0,0
45412,-100,4,1,2,30,0,0
45682,-100,4,1,1,30,0,0
46493,-100,4,1,2,30,0,0
46763,-100,4,1,1,30,0,0
47574,-100,4,1,2,30,0,0
47844,-100,4,1,1,30,0,0
48655,-100,4,1,2,25,0,0
48925,-100,4,1,1,30,0,0
49736,-100,4,1,2,30,0,0
50007,-100,4,1,1,30,0,0
50817,-100,4,1,2,30,0,0
51088,-100,4,1,1,30,0,0
51898,-100,4,1,2,30,0,0
54601,-100,4,1,1,35,0,0
55142,-100,4,1,2,30,0,0
56223,-100,4,1,1,35,0,0
57304,-100,4,1,2,30,0,0
58385,-100,4,1,2,35,0,0
58925,-100,4,1,2,36,0,0
59466,-100,4,1,2,37,0,0
60007,-100,4,1,2,38,0,0
60547,-100,4,1,1,40,0,0
60817,-100,4,1,2,35,0,0
61898,-100,4,1,2,30,0,0
62709,-100,4,1,2,40,0,1
67034,-100,4,1,1,40,0,1
71358,-100,4,1,2,40,0,1
75682,-100,4,1,1,40,0,1
77844,-100,4,1,1,40,0,0
79196,-100,4,1,2,35,0,0
80007,-100,4,1,2,40,0,1
84331,-100,4,1,1,40,0,1
88655,-100,4,1,2,35,0,1
90547,-100,4,1,2,40,0,1
92979,-100,4,1,1,40,0,0
96628,-133.333333333333,4,1,1,40,0,0
97034,-100,4,1,4,20,0,0

[Colours]
Combo1 : 0,96,191
Combo2 : 191,0,5

[HitObjects]
168,104,1358,1,2,0:0:0:0:
180,200,1628,1,2,0:0:0:0:
248,268,1898,1,2,0:0:0:0:
296,120,2169,6,0,P|328:140|352:176,1,80,2|2,0:0|0:0,0:0:0:0:
360,196,2574,1,0,0:0:0:0:
360,196,2709,1,2,0:0:0:0:
448,264,2979,1,2,0:0:0:0:
356,336,3250,2,0,P|280:308|260:232,1,160,2|8,0:0|0:0,0:0:0:0:
112,68,4331,5,6,0:0:0:0:
68,172,4601,1,2,0:0:0:0:
76,192,4736,1,0,0:0:0:0:
84,212,4871,2,0,P|112:232|160:232,1,80,2|2,0:0|0:0,0:0:0:0:
216,136,5412,2,0,P|256:148|280:184,1,80,2|2,0:0|0:0,0:0:0:0:
316,312,5952,2,0,P|277:309|247:282,1,80,10|2,0:0|0:0,0:0:0:0:
372,232,6493,1,6,0:0:0:0:
200,88,7034,5,0,0:0:0:0:
200,88,7304,2,0,B|164:96|160:120|128:136,1,80,0|0,0:0|0:0,0:0:0:0:
52,180,7844,1,2,0:0:0:0:
92,268,8115,1,10,0:0:0:0:
168,328,8385,1,2,0:0:0:0:
264,340,8655,1,6,0:0:0:0:
388,236,8925,6,2,P|368:200|336:180,1,80,0|2,0:0|0:0,0:0:0:0:
200,88,9466,2,2,P|172:116|160:156,1,80,0|2,0:0|0:0,0:0:0:0:
232,248,10007,5,2,0:0:0:0:
276,164,10277,1,10,0:0:0:0:
348,100,10547,1,2,0:0:0:0:
428,252,10817,6,0,P|388:248|352:224,1,80,6|2,0:0|0:0,0:0:0:0:
276,164,11358,1,0,0:0:0:0:
256,68,11628,1,2,0:0:0:0:
348,100,11898,1,2,0:0:0:0:
276,164,12169,1,2,0:0:0:0:
184,132,12439,2,0,P|156:176|156:212,1,80,8|2,0:0|0:0,0:0:0:0:
196,308,12979,6,0,P|156:316|112:304,2,80,2|2|0,0:0|0:0|0:0,0:0:0:0:
360,204,13790,1,2,0:0:0:0:
400,304,14061,2,2,P|328:304|268:240,1,160,2|8,0:0|0:0,0:0:0:0:
152,88,15142,5,2,0:0:0:0:
248,104,15412,2,0,P|228:144|200:168,2,80,2|0|2,0:0|0:0|0:0,0:0:0:0:
324,40,16223,1,2,0:0:0:0:
324,40,16493,1,2,0:0:0:0:
384,152,16763,1,8,0:0:0:0:
384,152,17034,1,2,0:0:0:0:
292,240,17304,6,0,P|320:264|360:280,2,80,2|2|0,0:0|0:0|0:0,0:0:0:0:
248,104,18115,1,2,0:0:0:0:
60,204,18385,2,2,B|120:230|160:188|228:188,1,160,2|8,0:0|0:0,0:0:0:0:
376,308,19466,5,2,0:0:0:0:
384,212,19736,2,0,L|412:180,2,40,2|0|0,0:0|0:0|0:0,0:0:0:0:
292,240,20277,1,2,0:0:0:0:
300,136,20547,1,2,0:0:0:0:
384,88,20817,1,2,0:0:0:0:
212,88,21088,2,0,P|184:116|164:152,1,80,8|2,0:0|0:0,0:0:0:0:
96,220,21628,6,0,P|132:240|180:240,1,80,2|2,0:0|0:0,0:0:0:0:
300,136,22169,1,0,0:0:0:0:
132,100,22439,1,2,0:0:0:0:
92,280,22709,2,2,P|168:296|236:240,1,160,2|8,0:0|0:0,0:0:0:0:
352,60,23790,6,0,P|384:96|388:136,1,80,2|2,0:0|0:0,0:0:0:0:
392,152,24196,1,0,0:0:0:0:
392,152,24331,1,0,0:0:0:0:
364,248,24601,1,2,0:0:0:0:
272,292,24871,2,0,P|296:332|340:340,2,80,2|2|0,0:0|0:0|0:0,0:0:0:0:
292,180,25682,1,2,0:0:0:0:
108,96,25952,6,0,L|188:96,1,80,10|0,0:0|0:0,0:0:0:0:
128,188,26493,6,0,L|64:188,1,64,10|0,0:0|0:0,0:0:0:0:
156,272,27034,6,0,L|216:272,1,55.9999982910157,10|0,0:0|0:0,0:0:0:0:
344,220,27574,6,2,L|344:176,1,40,10|0,0:0|0:0,0:0:0:0:
252,56,28115,6,2,P|224:84|208:132,1,80,6|0,0:0|0:0,0:0:0:0:
204,220,28655,1,10,0:0:0:0:
276,288,28925,1,0,0:0:0:0:
344,220,29196,1,2,0:0:0:0:
209,122,29466,2,0,P|177:94|133:86,1,80,0|10,0:0|0:0,0:0:0:0:
48,80,30007,1,0,0:0:0:0:
32,232,30277,6,2,P|76:216|100:180,1,80,2|0,0:0|0:0,0:0:0:0:
141,86,30817,1,10,0:0:0:0:
248,40,31088,1,0,0:0:0:0:
352,88,31358,2,2,P|336:124|296:144,1,80,2|2,0:0|0:0,0:0:0:0:
280,148,31763,1,0,0:0:0:0:
258,152,31898,1,10,0:0:0:0:
140,156,32169,1,2,0:0:0:0:
32,232,32439,6,2,P|56:264|96:280,1,80,2|0,0:0|0:0,0:0:0:0:
216,312,32979,2,2,P|222:273|248:242,1,80,10|0,0:0|0:0,0:0:0:0:
332,144,33520,1,2,0:0:0:0:
428,156,33790,1,0,0:0:0:0:
368,232,34061,1,10,0:0:0:0:
332,144,34331,1,0,0:0:0:0:
448,288,34601,6,2,P|424:320|384:328,1,80,2|0,0:0|0:0,0:0:0:0:
292,312,35142,1,10,0:0:0:0:
216,256,35412,1,0,0:0:0:0:
180,168,35682,1,2,0:0:0:0:
308,168,35952,1,2,0:0:0:0:
308,168,36088,1,0,0:0:0:0:
308,168,36223,1,10,0:0:0:0:
216,256,36493,1,2,0:0:0:0:
88,256,36763,6,2,P|60:224|52:184,1,80,2|0,0:0|0:0,0:0:0:0:
140,96,37304,2,2,P|148:140|140:180,1,80,10|0,0:0|0:0,0:0:0:0:
88,256,37844,1,2,0:0:0:0:
216,256,38115,1,0,0:0:0:0:
152,332,38385,1,10,0:0:0:0:
216,156,38655,1,0,0:0:0:0:
304,204,38925,6,2,P|340:192|364:160,1,80,2|0,0:0|0:0,0:0:0:0:
376,136,39331,1,0,0:0:0:0:
376,136,39466,1,10,0:0:0:0:
312,52,39736,1,0,0:0:0:0:
140,140,40007,2,2,P|177:156|216:156,1,80,2|2,0:0|0:0,0:0:0:0:
236,152,40412,1,0,0:0:0:0:
256,148,40547,1,10,0:0:0:0:
312,52,40817,1,2,0:0:0:0:
176,40,41088,6,0,P|136:32|96:40,2,80,6|2|2,0:0|0:0|0:0,0:0:0:0:
140,140,41898,1,2,0:0:0:0:
100,240,42169,2,0,P|64:220|44:184,2,80,6|2|2,0:0|0:0|0:0,0:0:0:0:
204,216,42979,1,2,0:0:0:0:
268,132,43250,6,2,P|296:164|304:200,1,80,8|2,0:0|0:0,0:0:0:0:
304,200,43790,2,2,L|384:200,1,80,8|2,0:0|0:0,0:0:0:0:
472,252,44331,1,8,0:0:0:0:
392,328,44601,5,2,0:0:0:0:
280,328,44871,1,8,0:0:0:0:
216,244,45142,1,2,0:0:0:0:
296,92,45412,6,2,P|292:132|268:172,1,80,6|2,0:0|0:0,0:0:0:0:
216,244,45952,1,2,0:0:0:0:
128,280,46223,1,2,0:0:0:0:
32,140,46493,2,2,P|40:184|68:216,1,80,2|2,0:0|0:0,0:0:0:0:
128,280,47034,1,2,0:0:0:0:
216,244,47304,1,2,0:0:0:0:
316,272,47574,6,2,B|342:252|364:264|380:220,1,80,2|2,0:0|0:0,0:0:0:0:
416,132,48115,1,2,0:0:0:0:
344,68,48385,1,2,0:0:0:0:
316,160,48655,1,2,0:0:0:0:
432,48,48925,1,2,0:0:0:0:
256,48,49196,1,2,0:0:0:0:
316,160,49466,1,2,0:0:0:0:
390,248,49736,6,2,P|354:268|310:272,1,80,2|2,0:0|0:0,0:0:0:0:
216,216,50277,1,2,0:0:0:0:
316,160,50547,2,2,P|288:128|244:104,1,80,2|2,0:0|0:0,0:0:0:0:
168,64,51088,1,2,0:0:0:0:
80,96,51358,1,2,0:0:0:0:
68,192,51628,5,2,0:0:0:0:
68,192,51763,1,0,0:0:0:0:
68,192,51898,2,2,P|96:224|136:228,1,80,2|0,0:0|0:0,0:0:0:0:
224,320,52439,2,2,B|256:312|272:328|304:324,1,80,2|0,0:0|0:0,0:0:0:0:
424,268,52979,2,2,P|400:236|352:212,1,80,2|0,0:0|0:0,0:0:0:0:
176,164,53520,2,2,P|200:196|234:216,1,80,2|0,0:0|0:0,0:0:0:0:
320,96,54061,1,4,0:0:0:0:
112,68,54601,5,2,0:0:0:0:
76,156,54871,1,2,0:0:0:0:
96,252,55142,2,0,L|48:252,2,40,10|0|2,0:0|0:0|0:0,0:0:0:0:
176,164,55682,2,0,L|232:164,2,40,2|0|2,0:0|0:0|0:0,0:0:0:0:
216,276,56223,6,0,P|256:284|296:276,1,80,6|0,0:0|0:0,0:0:0:0:
372,224,56763,1,2,0:0:0:0:
412,136,57034,1,2,0:0:0:0:
292,128,57304,1,10,0:0:0:0:
292,128,57439,1,0,0:0:0:0:
292,128,57574,1,2,0:0:0:0:
224,28,57844,1,10,0:0:0:0:
144,80,58115,1,2,0:0:0:0:
44,136,58385,6,2,P|68:164|108:184,1,80,6|0,0:0|0:0,0:0:0:0:
200,200,58925,1,8,0:0:0:0:
292,164,59196,1,0,0:0:0:0:
388,152,59466,1,8,0:0:0:0:
364,264,59736,1,8,0:0:0:0:
324,68,60006,1,8,0:0:0:0:
272,260,60277,1,8,0:0:0:0:
196,72,60547,1,4,0:0:0:0:
107,184,60817,5,2,0:0:0:0:
107,184,60952,1,0,0:0:0:0:
107,184,61088,2,2,P|115:248|135:264,1,80,2|2,0:0|0:0,0:0:0:0:
196,324,61628,1,2,0:0:0:0:
272,260,61898,1,8,0:0:0:0:
300,248,62034,1,0,0:0:0:0:
320,228,62169,1,10,0:0:0:0:
440,280,62439,1,10,0:0:0:0:
320,104,62709,6,2,P|280:116|256:144,1,80,6|0,0:0|0:0,0:0:0:0:
72,112,63250,2,2,P|84:152|108:180,1,80,10|0,0:0|0:0,0:0:0:0:
196,240,63790,1,2,0:0:0:0:
200,108,64061,1,0,0:0:0:0:
320,228,64331,1,10,0:0:0:0:
372,52,64601,2,2,P|356:84|304:108,1,80,2|0,0:0|0:0,0:0:0:0:
84,76,65142,6,2,P|96:116|128:144,1,80,2|8,0:0|0:0,0:0:0:0:
248,176,65682,1,2,0:0:0:0:
268,40,65952,1,2,0:0:0:0:
400,152,66223,1,2,0:0:0:0:
320,304,66493,2,0,B|286:296|272:312|240:304,1,80,10|2,0:0|0:0,0:0:0:0:
160,248,67034,1,4,0:0:0:0:
104,160,67304,5,2,0:0:0:0:
104,160,67439,1,0,0:0:0:0:
104,160,67574,1,10,0:0:0:0:
188,96,67844,1,2,0:0:0:0:
248,176,68115,2,0,P|288:184|332:172,1,80,2|2,0:0|0:0,0:0:0:0:
440,112,68655,1,10,0:0:0:0:
492,300,68925,1,2,0:0:0:0:
384,224,69196,1,0,0:0:0:0:
328,320,69466,5,2,0:0:0:0:
296,324,69601,1,0,0:0:0:0:
264,320,69736,1,10,0:0:0:0:
184,256,70006,1,2,0:0:0:0:
92,104,70277,2,0,P|96:144|120:176,1,80,2|2,0:0|0:0,0:0:0:0:
248,176,70817,2,0,P|288:164|324:136,1,80,10|2,0:0|0:0,0:0:0:0:
368,52,71358,6,2,B|336:60|320:40|288:52,1,80,2|0,0:0|0:0,0:0:0:0:
92,104,71898,2,2,B|124:112|140:92|172:104,1,80,10|0,0:0|0:0,0:0:0:0:
428,160,72439,2,2,B|396:148|380:168|348:160,1,80,2|0,0:0|0:0,0:0:0:0:
208,240,72979,1,10,0:0:0:0:
208,240,73250,2,2,B|184:196|168:208|152:176,1,80,2|0,0:0|0:0,0:0:0:0:
92,104,73790,6,0,P|56:140|40:176,2,80,2|8|2,0:0|0:0|0:0,0:0:0:0:
264,172,74601,2,0,B|297:178|312:164|348:172,1,80,2|2,0:0|0:0,0:0:0:0:
376,280,75142,1,10,0:0:0:0:
444,120,75412,1,2,0:0:0:0:
292,40,75682,1,4,0:0:0:0:
188,52,75952,5,2,0:0:0:0:
188,52,76088,1,0,0:0:0:0:
188,52,76223,1,10,0:0:0:0:
160,148,76493,1,2,0:0:0:0:
68,184,76763,2,0,P|92:228|128:240,1,80,2|2,0:0|0:0,0:0:0:0:
20,88,77304,2,0,P|56:72|96:72,1,80,10|2,0:0|0:0,0:0:0:0:
160,148,77844,1,0,0:0:0:0:
288,120,78115,5,2,0:0:0:0:
288,120,78385,1,8,0:0:0:0:
256,276,78655,1,2,0:0:0:0:
256,276,78925,1,8,0:0:0:0:
400,200,79196,1,8,0:0:0:0:
400,200,79331,1,0,0:0:0:0:
400,200,79466,1,10,0:0:0:0:
376,324,79736,1,10,0:0:0:0:
228,192,80006,6,2,B|196:184|182:194|148:192,1,80,2|0,0:0|0:0,0:0:0:0:
80,120,80547,1,10,0:0:0:0:
56,236,80817,1,0,0:0:0:0:
148,308,81088,2,2,P|112:332|72:336,2,80,2|2|8,0:0|0:0|0:0,0:0:0:0:
148,192,81898,1,2,0:0:0:0:
280,332,82169,1,0,0:0:0:0:
232,236,82439,6,2,B|264:240|280:224|312:236,1,80,2|8,0:0|0:0,0:0:0:0:
400,304,82979,1,2,0:0:0:0:
432,124,83250,1,2,0:0:0:0:
264,152,83520,1,2,0:0:0:0:
300,60,83790,2,0,B|268:68|252:48|220:64,1,80,10|2,0:0|0:0,0:0:0:0:
148,132,84331,1,4,0:0:0:0:
60,184,84601,5,2,0:0:0:0:
72,212,84736,1,0,0:0:0:0:
96,228,84871,1,10,0:0:0:0:
192,260,85142,1,2,0:0:0:0:
352,336,85412,1,2,0:0:0:0:
352,160,85682,1,0,0:0:0:0:
284,284,85952,1,10,0:0:0:0:
416,244,86223,2,0,P|440:216|448:172,1,80,2|0,0:0|0:0,0:0:0:0:
424,48,86763,5,2,0:0:0:0:
400,72,86898,1,0,0:0:0:0:
368,84,87034,1,10,0:0:0:0:
268,84,87304,1,2,0:0:0:0:
340,232,87574,2,0,P|300:216|268:188,1,80,2|0,0:0|0:0,0:0:0:0:
120,300,88115,2,0,P|160:284|188:260,1,80,10|0,0:0|0:0,0:0:0:0:
40,140,88655,6,2,B|72:176|104:176|200:164,1,160,6|0,0:0|0:0,0:0:0:0:
320,152,89466,1,0,0:0:0:0:
424,232,89736,2,2,B|368:232|356:268|336:304|284:296,1,160,10|0,0:0|0:0,0:0:0:0:
156,282,90547,2,2,P|124:258|104:222,1,80,2|0,0:0|0:0,0:0:0:0:
104,96,91088,5,2,0:0:0:0:
16,188,91358,1,2,0:0:0:0:
192,188,91628,1,2,0:0:0:0:
16,92,91898,1,10,0:0:0:0:
104,224,92169,1,2,0:0:0:0:
192,92,92439,1,2,0:0:0:0:
16,188,92709,1,2,0:0:0:0:
68,316,92979,6,0,P|108:324|148:316,1,80,2|0,0:0|0:0,0:0:0:0:
236,268,93520,1,2,0:0:0:0:
356,88,94061,5,2,0:0:0:0:
356,88,94331,2,0,B|324:100|308:72|277:87,1,80,2|0,0:0|0:0,0:0:0:0:
188,136,94871,1,2,0:0:0:0:
360,260,95412,5,10,0:0:0:0:
360,260,95682,1,10,0:0:0:0:
252,328,95952,2,0,B|220:337|204:325|172:329,2,80,2|8|2,0:0|0:0|0:0,0:0:0:0:
256,192,96763,6,0,L|256:128,1,60.0000022888184,4|0,0:0|0:0,0:0:0:0:
