osu file format v14

[General]
AudioFilename: rorirori.mp3
AudioLeadIn: 0
PreviewTime: 10007
Countdown: 0
SampleSet: Soft
StackLeniency: 0.7
Mode: 3
LetterboxInBreaks: 0
SpecialStyle: 0
WidescreenStoryboard: 0

[Editor]
DistanceSpacing: 1.2
BeatDivisor: 4
GridSize: 4
TimelineZoom: 1.5

[Metadata]
Title:Crayon Tulip
TitleUnicode:くれよんちゅーりっぷ
Artist:Tamiyasu Tomoe, Aoba Ringo
ArtistUnicode:民安ともえ, 青葉りんご
Creator:[Alice-Liddell]
Version:NM
Source:くれよんちゅーりっぷ ~ちどりとこるりの誘惑授業~
Tags:lolicon eroge visual novel game opening Chidori to Koruri no Yuuwaku Jugyou
BeatmapID:658185
BeatmapSetID:292449

[Difficulty]
HPDrainRate:7
CircleSize:6
OverallDifficulty:7
ApproachRate:5
SliderMultiplier:1.4
SliderTickRate:1

[Events]
//Background and Video events
0,0,"bg.jpg",0,0
//Break Periods
//Storyboard Layer 0 (Background)
//Storyboard Layer 1 (Fail)
//Storyboard Layer 2 (Pass)
//Storyboard Layer 3 (Foreground)
//Storyboard Sound Samples

[TimingPoints]
7,540.540540540541,4,2,2,30,1,0
62709,-100,4,2,2,30,0,1
77844,-100,4,2,2,30,0,0
80007,-100,4,2,2,30,0,1
92979,-100,4,2,2,30,0,0

[HitObjects]
298,192,1358,5,8,3:3:0:0:
213,192,1628,1,8,3:3:0:0:
298,192,1898,1,8,3:3:0:0:
42,192,2169,1,0,0:0:0:0:
469,192,2169,1,4,0:0:0:0:
128,192,2439,1,0,0:0:0:0:
213,192,2709,1,0,0:0:0:0:
298,192,2979,1,0,0:0:0:0:
384,192,3250,1,0,0:0:0:0:
42,192,3790,1,8,0:0:0:0:
469,192,4331,1,0,0:0:0:0:
384,192,4601,1,0,0:0:0:0:
298,192,4871,1,0,0:0:0:0:
213,192,5142,1,0,0:0:0:0:
128,192,5412,1,0,0:0:0:0:
469,192,5952,1,8,0:0:0:0:
298,192,6493,1,2,0:0:0:0:
213,192,6493,1,2,0:0:0:0:
298,192,7574,1,2,0:0:0:0:
213,192,7574,1,2,0:0:0:0:
42,192,8115,1,8,0:0:0:0:
384,192,8925,1,8,0:0:0:0:
128,192,9196,1,8,0:0:0:0:
384,192,9466,1,8,0:0:0:0:
128,192,9736,1,8,0:0:0:0:
469,192,10277,1,8,0:0:0:0:
42,192,10277,1,8,0:0:0:0:
128,192,10817,1,4,0:0:0:0:
384,192,10817,1,0,0:0:0:0:
298,192,11088,1,0,0:0:0:0:
213,192,11358,1,0,0:0:0:0:
128,192,11628,1,0,0:0:0:0:
469,192,12439,1,8,0:0:0:0:
384,192,12979,1,0,0:0:0:0:
298,192,13250,1,0,0:0:0:0:
213,192,13520,1,0,0:0:0:0:
128,192,13790,1,0,0:0:0:0:
469,192,14601,1,8,0:0:0:0:
128,192,15142,1,0,0:0:0:0:
213,192,15412,1,0,0:0:0:0:
298,192,15682,1,0,0:0:0:0:
384,192,15952,1,0,0:0:0:0:
42,192,16763,1,8,0:0:0:0:
128,192,17304,1,0,0:0:0:0:
213,192,17574,1,0,0:0:0:0:
298,192,17844,1,0,0:0:0:0:
384,192,18115,1,0,0:0:0:0:
42,192,18925,1,8,0:0:0:0:
469,192,19466,1,0,0:0:0:0:
384,192,19736,1,0,0:0:0:0:
298,192,20007,1,0,0:0:0:0:
213,192,20277,1,0,0:0:0:0:
469,192,21088,1,8,0:0:0:0:
42,192,21628,1,0,0:0:0:0:
128,192,21898,1,0,0:0:0:0:
213,192,22169,1,0,0:0:0:0:
298,192,22439,1,0,0:0:0:0:
42,192,23250,1,8,0:0:0:0:
213,192,23790,1,2,0:0:0:0:
298,192,23790,1,2,0:0:0:0:
128,192,24871,1,2,0:0:0:0:
384,192,24871,1,2,0:0:0:0:
42,192,25952,1,8,0:0:0:0:
469,192,26493,1,8,0:0:0:0:
213,192,27034,1,8,0:0:0:0:
128,192,27574,1,8,3:3:0:0:
384,192,27574,1,8,3:3:0:0:
42,192,28115,1,4,0:0:0:0:
469,192,28115,1,0,0:0:0:0:
384,192,28385,1,0,0:0:0:0:
298,192,28655,1,8,0:0:0:0:
213,192,28925,1,0,0:0:0:0:
42,192,29736,1,8,0:0:0:0:
469,192,30277,1,0,0:0:0:0:
384,192,30547,1,0,0:0:0:0:
298,192,30817,1,8,0:0:0:0:
213,192,31088,1,0,0:0:0:0:
42,192,31898,1,8,0:0:0:0:
42,192,32439,1,0,0:0:0:0:
128,192,32709,1,0,0:0:0:0:
213,192,32979,1,8,0:0:0:0:
298,192,33250,1,0,0:0:0:0:
469,192,34061,1,8,0:0:0:0:
42,192,34601,1,0,0:0:0:0:
128,192,34871,1,0,0:0:0:0:
213,192,35142,1,8,0:0:0:0:
298,192,35412,1,0,0:0:0:0:
469,192,36223,1,8,0:0:0:0:
384,192,36763,1,0,0:0:0:0:
298,192,37034,1,0,0:0:0:0:
213,192,37304,1,8,0:0:0:0:
128,192,37574,1,0,0:0:0:0:
42,192,38385,1,8,0:0:0:0:
384,192,38925,1,0,0:0:0:0:
298,192,39196,1,0,0:0:0:0:
213,192,39466,1,8,0:0:0:0:
128,192,39736,1,0,0:0:0:0:
42,192,40547,1,8,0:0:0:0:
213,192,41088,1,2,0:0:0:0:
298,192,41088,1,2,0:0:0:0:
384,192,42169,1,2,0:0:0:0:
128,192,42169,1,2,0:0:0:0:
469,192,43250,1,8,0:0:0:0:
42,192,43790,1,8,0:0:0:0:
298,192,44331,1,8,0:0:0:0:
213,192,44871,1,8,0:0:0:0:
128,192,45412,1,0,0:0:0:0:
469,192,45412,1,4,0:0:0:0:
384,192,45682,1,0,0:0:0:0:
298,192,45952,1,2,0:0:0:0:
213,192,46223,1,0,0:0:0:0:
128,192,46493,1,0,0:0:0:0:
42,192,47574,1,0,0:0:0:0:
128,192,47844,1,0,0:0:0:0:
213,192,48115,1,2,0:0:0:0:
298,192,48385,1,0,0:0:0:0:
384,192,48655,1,0,0:0:0:0:
213,192,49736,1,0,0:0:0:0:
298,192,50007,1,0,0:0:0:0:
213,192,50277,1,2,0:0:0:0:
298,192,50547,1,0,0:0:0:0:
128,192,50817,1,0,0:0:0:0:
384,192,51358,1,2,0:0:0:0:
469,192,51898,1,0,0:0:0:0:
42,192,51898,1,0,0:0:0:0:
298,192,52439,1,0,0:0:0:0:
128,192,52439,1,0,0:0:0:0:
213,192,52979,1,0,0:0:0:0:
384,192,52979,1,0,0:0:0:0:
42,192,53520,1,8,3:3:0:0:
469,192,53520,1,0,0:0:0:0:
384,192,54061,1,0,0:0:0:0:
128,192,54061,1,4,0:0:0:0:
213,192,54601,1,0,0:0:0:0:
298,192,54871,1,0,0:0:0:0:
42,192,55142,1,8,0:0:0:0:
469,192,56223,1,0,0:0:0:0:
213,192,56763,1,0,0:0:0:0:
128,192,57034,1,0,0:0:0:0:
384,192,57304,1,8,0:0:0:0:
469,192,57844,1,8,0:0:0:0:
128,192,58385,1,8,0:0:0:0:
384,192,58385,1,4,0:0:0:0:
213,192,58925,1,8,0:0:0:0:
298,192,59466,1,8,0:0:0:0:
469,192,60007,1,8,0:0:0:0:
42,192,60277,1,8,0:0:0:0:
384,192,60817,1,8,0:0:0:0:
298,192,61088,1,8,0:0:0:0:
213,192,61358,1,8,0:0:0:0:
128,192,61628,1,8,0:0:0:0:
469,192,62169,1,0,0:0:0:0:
128,192,62709,1,0,0:0:0:0:
384,192,62709,1,4,0:0:0:0:
213,192,63250,1,0,0:0:0:0:
128,192,63790,1,0,0:0:0:0:
213,192,64061,1,0,0:0:0:0:
298,192,64331,1,0,0:0:0:0:
384,192,64601,1,0,0:0:0:0:
469,192,65142,1,0,0:0:0:0:
384,192,65682,1,0,0:0:0:0:
213,192,65952,1,0,0:0:0:0:
298,192,66223,1,0,0:0:0:0:
128,192,66493,1,0,0:0:0:0:
213,192,66763,1,0,0:0:0:0:
298,192,67034,1,0,0:0:0:0:
213,192,67574,1,8,0:0:0:0:
298,192,68115,1,0,0:0:0:0:
213,192,68655,1,8,0:0:0:0:
384,192,69466,1,0,0:0:0:0:
128,192,69736,1,8,0:0:0:0:
384,192,70007,1,0,0:0:0:0:
128,192,70277,1,0,0:0:0:0:
213,192,70547,1,0,0:0:0:0:
384,192,70817,1,8,0:0:0:0:
298,192,71088,1,0,0:0:0:0:
42,192,71358,1,0,0:0:0:0:
213,192,71898,1,0,0:0:0:0:
42,192,72439,1,0,0:0:0:0:
128,192,72709,1,0,0:0:0:0:
213,192,72979,1,0,0:0:0:0:
298,192,73250,1,0,0:0:0:0:
384,192,73790,1,0,0:0:0:0:
298,192,74061,1,0,0:0:0:0:
384,192,74331,1,0,0:0:0:0:
469,192,74601,1,0,0:0:0:0:
298,192,74871,1,0,0:0:0:0:
42,192,75142,1,0,0:0:0:0:
213,192,75412,1,0,0:0:0:0:
384,192,75682,1,0,0:0:0:0:
128,192,76223,1,8,0:0:0:0:
384,192,76763,1,0,0:0:0:0:
128,192,77304,1,8,0:0:0:0:
298,192,78115,1,8,0:0:0:0:
213,192,78385,1,8,0:0:0:0:
298,192,78655,1,8,0:0:0:0:
298,192,78925,1,8,0:0:0:0:
42,192,79466,1,0,0:0:0:0:
128,192,80007,1,0,0:0:0:0:
384,192,80007,1,4,0:0:0:0:
298,192,80547,1,0,0:0:0:0:
128,192,81088,1,0,0:0:0:0:
213,192,81358,1,0,0:0:0:0:
298,192,81628,1,0,0:0:0:0:
213,192,81898,1,0,0:0:0:0:
384,192,82439,1,0,0:0:0:0:
298,192,82709,1,0,0:0:0:0:
384,192,82979,1,0,0:0:0:0:
128,192,83250,1,0,0:0:0:0:
213,192,83520,1,0,0:0:0:0:
128,192,83790,1,0,0:0:0:0:
298,192,84061,1,0,0:0:0:0:
42,192,84331,1,0,0:0:0:0:
469,192,84871,1,8,0:0:0:0:
42,192,85412,1,0,0:0:0:0:
469,192,85952,1,8,0:0:0:0:
128,192,86763,1,0,0:0:0:0:
384,192,87034,1,8,0:0:0:0:
128,192,87304,1,0,0:0:0:0:
384,192,87574,1,0,0:0:0:0:
298,192,87844,1,0,0:0:0:0:
128,192,88115,1,8,0:0:0:0:
213,192,88385,1,0,0:0:0:0:
42,192,88655,1,0,0:0:0:0:
469,192,88655,1,4,0:0:0:0:
213,192,89196,1,0,0:0:0:0:
298,192,89466,1,0,0:0:0:0:
213,192,89736,1,8,0:0:0:0:
298,192,90007,1,0,0:0:0:0:
384,192,90277,1,0,0:0:0:0:
469,192,90547,1,0,0:0:0:0:
469,192,91088,1,0,0:0:0:0:
384,192,91358,1,0,0:0:0:0:
298,192,91628,1,0,0:0:0:0:
42,192,91898,1,8,0:0:0:0:
213,192,92169,1,0,0:0:0:0:
128,192,92439,1,0,0:0:0:0:
298,192,92709,1,0,0:0:0:0:
213,192,92979,1,0,0:0:0:0:
469,192,92979,1,4,0:0:0:0:
128,192,93250,1,0,0:0:0:0:
298,192,93520,1,8,0:0:0:0:
384,192,93790,1,0,0:0:0:0:
213,192,94061,1,0,0:0:0:0:
213,192,94331,1,0,0:0:0:0:
469,192,94601,1,8,0:0:0:0:
298,192,94871,1,0,0:0:0:0:
213,192,95412,1,8,0:0:0:0:
213,192,95682,1,8,0:0:0:0:
42,192,95952,1,8,0:0:0:0:
213,192,96223,1,8,0:0:0:0:
469,192,96763,1,2,0:0:0:0:
