osu file format v12

[General]
AudioFilename: 18-Summer days rhapsody - half chorus.mp3
AudioLeadIn: 1000
PreviewTime: 54160
Countdown: 1
SampleSet: Soft
StackLeniency: 0.7
Mode: 0
LetterboxInBreaks: 1

[Editor]
Bookmarks: 16259,54154,80996,83207,83523,100259
DistanceSpacing: 0.7
BeatDivisor: 4
GridSize: 4

[Metadata]
Title:Summer days rhapsody (Short Ver.)
TitleUnicode:Summer days rhapsody (Short Ver.)
Artist:Tamiyasu Tomoe
ArtistUnicode:民安ともえ
Creator:Alternative
Version:Easy days
Source:Kicking Horse Rhapsody
Tags:E_m_p_t_y Rych-I Alcot visual novel eroge opening 0gre
BeatmapID:201961
BeatmapSetID:69633

[Difficulty]
HPDrainRate:2
CircleSize:2
OverallDifficulty:2
ApproachRate:3
SliderMultiplier:0.8
SliderTickRate:1

[Events]
//Background and Video events
0,0,"BG Rych-I's Easy.jpg",0,0
//Break Periods
//Storyboard Layer 0 (Background)
//Storyboard Layer 1 (Fail)
//Storyboard Layer 2 (Pass)
//Storyboard Layer 3 (Foreground)
//Storyboard Sound Samples
//Background Colour Transformations
3,100,163,162,255

[TimingPoints]
1102,315.789473684211,4,2,1,60,1,0
1102,-100,4,2,1,50,0,0
20996,-100,4,2,1,60,0,0
44680,-100,4,2,1,50,0,0
54154,-100,4,2,1,60,0,1
81944,-100,4,2,1,60,0,0

[Colours]
Combo1 : 26,26,255
Combo2 : 181,90,0
Combo3 : 255,255,81
Combo4 : 220,57,238

[HitObjects]
120,180,1101,2,4,P|176:140|200:52,1,160,4|0,0:0|0:0,0:0:0:0:
312,60,2365,2,4,P|336:144|392:184,1,160,4|0,0:0|0:0,0:0:0:0:
312,264,3628,6,4,P|256:288|206:264,2,120,4|0|0,0:0|0:0|0:0,0:0:0:0:
356,228,4891,1,12,0:0:0:0:
356,116,5523,1,12,0:0:0:0:
256,68,6154,6,4,P|64:160|172:344,1,480,4|0,0:0|0:0,0:0:0:0:
256,268,8680,2,0,P|144:212|56:268,1,240
256,192,9944,12,0,12470,0:0:0:0:
256,48,13733,6,4,P|368:68|400:180,1,240,4|2,0:0|0:0,0:0:0:0:
400,232,14996,2,6,L|236:232,1,160,4|2,0:0|0:0,0:0:0:0:
256,120,16259,6,0,P|144:140|111:249,1,240,6|2,0:0|0:0,0:0:0:0:
112,304,17523,2,4,L|272:304,1,160,4|2,0:0|0:0,0:0:0:0:
372,252,18786,6,0,P|339:143|227:123,1,240,4|0,0:0|0:0,0:0:0:0:
172,120,20049,2,4,L|172:280,1,160,4|2,0:0|0:0,0:0:0:0:
256,192,21312,12,8,23523,0:0:0:0:
68,112,24154,6,2,L|308:112,1,240
256,212,25733,1,2,0:0:0:0:
256,324,26365,6,2,B|304:316|352:276|360:212,1,160
452,152,27628,1,2,0:0:0:0:
368,80,28259,1,2,0:0:0:0:
256,72,28891,6,2,L|136:72,2,120,2|0|2,0:0|0:0|0:0,0:0:0:0:
256,128,30154,1,0,0:0:0:0:
152,168,30786,1,0,0:0:0:0:
92,260,31417,38,2,P|184:272|228:228,1,160
268,332,32680,2,2,P|344:292|376:228,1,160
428,68,34259,22,2,L|268:68,1,160
212,68,35207,1,2,0:0:0:0:
100,68,35838,1,2,0:0:0:0:
56,172,36470,2,2,P|160:228|256:172,1,240
308,152,37733,6,2,P|418:208|398:304,1,240
344,324,38996,2,2,L|224:324,2,120,2|0|2,0:0|0:0|0:0,0:0:0:0:
344,272,40259,2,2,B|304:240|280:256|280:256|264:240|264:240|208:176|256:104,1,240
352,48,41838,6,2,L|432:48,2,80
352,104,42786,2,0,P|296:220|136:176,1,320
96,72,44680,5,2,0:0:0:0:
208,72,45312,2,2,P|244:140|228:220,1,160
120,248,46575,5,2,0:0:0:0:
204,324,47207,1,2,0:0:0:0:
316,328,47838,2,6,P|363:209|299:130,1,240
192,96,49417,6,2,P|96:124|108:244,1,240,0|0,0:0|0:0,0:0:0:0:
208,296,50996,1,2,0:0:0:0:
308,244,51628,6,0,L|428:136,1,160
404,56,52733,2,0,L|256:192,1,200
256,304,54154,6,4,P|180:328|104:300,1,160,4|0,0:0|0:0,0:0:0:0:
24,224,55417,2,4,P|100:200|176:228,1,160,4|0,0:0|0:0,0:0:0:0:
284,228,56680,6,0,L|444:228,2,160,4|0|0,0:0|0:0|0:0,0:0:0:0:
196,160,58575,1,2,0:0:0:0:
112,88,59207,6,0,P|224:48|336:88,1,240,4|0,0:0|0:0,0:0:0:0:
372,128,60470,2,2,P|394:158|406:198,2,80,0|2|0,0:0|0:0|0:0,0:0:0:0:
276,68,61733,5,2,0:0:0:0:
164,64,62365,1,2,0:0:0:0:
88,148,62996,2,2,P|127:217|200:248,1,160
296,192,64259,6,4,P|368:176|452:192,1,160,4|0,0:0|0:0,0:0:0:0:
452,80,65523,2,4,P|368:64|296:80,1,160,4|0,0:0|0:0,0:0:0:0:
208,148,66786,22,2,B|148:80|104:188|232:252|256:288|256:288|280:252|408:188|352:80|296:156,1,480
256,48,69312,6,0,P|340:32|412:48,3,160
384,156,71838,2,0,P|424:212|468:234,2,120,4|2|0,0:0|0:0|0:0,0:0:0:0:
344,116,73102,2,4,P|216:44|76:120,1,320
48,200,74838,6,4,L|80:276,1,80
120,312,75470,2,2,P|208:352|300:316,1,200
396,260,76891,2,0,P|448:168|392:56,1,240,4|0,0:0|0:0,0:0:0:0:
336,48,78154,6,0,L|256:48,1,80,4|4,0:0|0:0,0:0:0:0:
200,48,78786,2,0,L|120:48,1,80,4|4,0:0|0:0,0:0:0:0:
120,104,79417,6,4,P|256:332|372:100,1,640,4|4,0:0|0:0,0:0:0:0:
288,176,82575,6,0,L|288:16,1,160,4|2,0:0|0:0,0:0:0:0:
208,96,83838,2,0,L|208:256,1,160,4|2,0:0|0:0,0:0:0:0:
128,336,85102,2,0,L|128:176,1,160,4|2,0:0|0:0,0:0:0:0:
128,120,86049,2,4,L|48:120,2,80,4|2|0,0:0|0:0|0:0,0:0:0:0:
256,192,86838,12,4,88891,0:0:0:0:
176,188,89523,6,4,P|256:204|332:188,2,160
80,248,91417,2,0,P|92:288|116:316,2,80,4|4|4,0:0|0:0|0:0,0:0:0:0:
76,136,92680,6,4,P|156:120|236:136,1,160
288,148,93628,2,4,L|288:308,1,160,4|0,0:0|0:0,0:0:0:0:
344,308,94575,2,4,L|464:308,2,120,0|4|0,0:0|0:0|0:0,0:0:0:0:
340,252,95838,2,4,P|348:164|392:112,1,160,4|0,0:0|0:0,0:0:0:0:
464,24,97102,6,4,L|304:24,1,160
196,56,98365,1,0,0:0:0:0:
144,156,98996,1,0,0:0:0:0:
184,260,99628,2,0,P|256:292|328:260,1,160
256,192,100733,12,0,101838,0:0:0:0:
208,192,102154,6,4,L|128:192,2,80,4|2|2,0:0|0:0|0:0,0:0:0:0:
256,164,103102,1,4,0:0:0:0:
304,192,103417,2,4,L|384:192,2,80,4|2|2,0:0|0:0|0:0,0:0:0:0:
256,192,104680,12,4,106575,0:0:0:0:
