osu file format v14

[General]
AudioFilename: Dakko Shite Gyu! ~Nanji Tonari no Yome wo Aise~.mp3
AudioLeadIn: 0
PreviewTime: 64188
Countdown: 1
SampleSet: Normal
StackLeniency: 0.7
Mode: 1
LetterboxInBreaks: 1
WidescreenStoryboard: 1

[Editor]
Bookmarks: 121631,122142,122654,123165,123676,124188,124699,125211
DistanceSpacing: 0.5
BeatDivisor: 4
GridSize: 32
TimelineZoom: 1.6

[Metadata]
Title:Dakkoshite Gyu! -Nanji, Tonari no Yome wo Aise
TitleUnicode:だっこしてぎゅっ! ~汝、隣の枕(よめ)を愛せ
Artist:Tamiyasu Tomoe
ArtistUnicode:民安ともえ
Creator:Naryuga
Version:Muzukashii
Source:だっこしてぎゅっ! ~オレの嫁は抱き枕~
Tags:Dakko shite gyu! opening
BeatmapID:805951
BeatmapSetID:367469

[Difficulty]
HPDrainRate:5
CircleSize:5
OverallDifficulty:5
ApproachRate:5
SliderMultiplier:1.4
SliderTickRate:1

[Events]
//Background and Video events
0,0,"dakko_1024_768.jpg",0,0
//Break Periods
//Storyboard Layer 0 (Background)
//Storyboard Layer 1 (Fail)
//Storyboard Layer 2 (Pass)
//Storyboard Layer 3 (Foreground)
//Storyboard Sound Samples

[TimingPoints]
7102,340.909090909091,4,1,0,80,1,0
42556,-117.647058823529,4,2,0,60,0,0
52954,-100,4,1,0,80,0,0
64374,-100,4,1,0,80,0,1
86192,-117.647058823529,4,1,0,80,0,0
91647,-100,4,1,0,80,0,0
108011,-100,4,1,0,80,0,1
127102,-100,4,1,0,80,0,0

[HitObjects]
256,192,7102,5,0,0:0:0:0:
256,192,7442,1,8,0:0:0:0:
256,192,7783,1,0,0:0:0:0:
256,192,7954,1,0,0:0:0:0:
256,192,8124,1,8,0:0:0:0:
256,192,8465,1,0,0:0:0:0:
256,192,8806,1,8,0:0:0:0:
256,192,8977,1,4,0:0:0:0:
256,192,9317,1,4,0:0:0:0:
256,192,9658,1,4,0:0:0:0:
256,192,9829,1,8,0:0:0:0:
256,192,10170,1,8,0:0:0:0:
256,192,10511,1,0,0:0:0:0:
256,192,10681,1,0,0:0:0:0:
256,192,10852,1,8,0:0:0:0:
256,192,11192,1,0,0:0:0:0:
256,192,11533,1,8,0:0:0:0:
256,192,11704,1,4,0:0:0:0:
256,192,12045,1,14,0:0:0:0:
256,192,12386,1,14,0:0:0:0:
256,192,12556,1,0,0:0:0:0:
256,192,12897,1,8,0:0:0:0:
256,192,13238,1,0,0:0:0:0:
256,192,13408,1,0,0:0:0:0:
256,192,13579,1,8,0:0:0:0:
256,192,13920,1,0,0:0:0:0:
256,192,14261,1,8,0:0:0:0:
256,192,14431,1,0,0:0:0:0:
256,192,14602,1,8,0:0:0:0:
256,192,14942,1,8,0:0:0:0:
256,192,15283,1,14,0:0:0:0:
256,192,15454,1,14,0:0:0:0:
256,192,15965,1,14,0:0:0:0:
256,192,16136,1,14,0:0:0:0:
256,192,16477,1,4,0:0:0:0:
256,192,16817,1,4,0:0:0:0:
256,192,17158,1,0,0:0:0:0:
256,192,17329,1,14,0:0:0:0:
256,192,17840,1,0,0:0:0:0:
256,192,17925,1,0,0:0:0:0:
256,192,18011,1,0,0:0:0:0:
256,192,18352,1,8,0:0:0:0:
256,192,18522,1,8,0:0:0:0:
256,192,18692,1,0,0:0:0:0:
256,192,19033,1,8,0:0:0:0:
256,192,19204,1,0,0:0:0:0:
256,192,19374,1,0,0:0:0:0:
256,192,19715,1,8,0:0:0:0:
256,192,19886,1,8,0:0:0:0:
256,192,20227,1,8,0:0:0:0:
256,192,20567,1,0,0:0:0:0:
256,192,20908,1,8,0:0:0:0:
256,192,21079,1,8,0:0:0:0:
256,192,21249,1,0,0:0:0:0:
256,192,21420,1,0,0:0:0:0:
256,192,21761,1,8,0:0:0:0:
256,192,22102,1,0,0:0:0:0:
256,192,22272,1,8,0:0:0:0:
256,192,22442,1,8,0:0:0:0:
256,192,22613,1,8,0:0:0:0:
256,192,22954,1,8,0:0:0:0:
256,192,23295,1,0,0:0:0:0:
256,192,23636,1,0,0:0:0:0:
256,192,23806,1,8,0:0:0:0:
256,192,23977,1,8,0:0:0:0:
256,192,24147,1,0,0:0:0:0:
256,192,24488,1,8,0:0:0:0:
256,192,24658,1,0,0:0:0:0:
256,192,24829,1,0,0:0:0:0:
256,192,25170,1,8,0:0:0:0:
256,192,25340,1,0,0:0:0:0:
256,192,25681,1,8,0:0:0:0:
256,192,25852,1,8,0:0:0:0:
256,192,26022,1,8,0:0:0:0:
256,192,26192,1,0,0:0:0:0:
256,192,26533,1,8,0:0:0:0:
256,192,26874,1,0,0:0:0:0:
256,192,27215,1,8,0:0:0:0:
256,192,27556,1,0,0:0:0:0:
256,192,27727,1,0,0:0:0:0:
256,192,27897,1,8,0:0:0:0:
256,192,28067,1,0,0:0:0:0:
256,192,28408,1,8,0:0:0:0:
256,192,28579,1,8,0:0:0:0:
256,192,28920,1,4,0:0:0:0:
256,192,29261,1,8,0:0:0:0:
256,192,29431,1,0,0:0:0:0:
256,192,29602,1,0,0:0:0:0:
256,192,29942,1,8,0:0:0:0:
256,192,30113,1,0,0:0:0:0:
256,192,30283,1,8,0:0:0:0:
256,192,30624,1,0,0:0:0:0:
256,192,30795,1,14,0:0:0:0:
256,192,31136,1,14,0:0:0:0:
256,192,31477,1,4,0:0:0:0:
256,192,31817,1,0,0:0:0:0:
256,192,31988,1,8,0:0:0:0:
256,192,32158,1,0,0:0:0:0:
256,192,32329,1,0,0:0:0:0:
256,192,32499,1,0,0:0:0:0:
256,192,32670,1,8,0:0:0:0:
256,192,33011,1,8,0:0:0:0:
256,192,33181,1,8,0:0:0:0:
256,192,33352,1,0,0:0:0:0:
256,192,33522,1,14,0:0:0:0:
256,192,33863,1,14,0:0:0:0:
256,192,34204,1,4,0:0:0:0:
256,192,34545,1,0,0:0:0:0:
256,192,34715,1,8,0:0:0:0:
256,192,35056,1,0,0:0:0:0:
256,192,35227,1,0,0:0:0:0:
256,192,35397,1,8,0:0:0:0:
256,192,35738,1,8,0:0:0:0:
256,192,35908,1,8,0:0:0:0:
256,192,36079,1,0,0:0:0:0:
256,192,36249,1,8,0:0:0:0:
256,192,36590,1,0,0:0:0:0:
256,192,36761,1,8,0:0:0:0:
256,192,36931,1,8,0:0:0:0:
256,192,37102,1,0,0:0:0:0:
256,192,37442,1,8,0:0:0:0:
256,192,37783,1,0,0:0:0:0:
256,192,37954,1,0,0:0:0:0:
256,192,38124,1,8,0:0:0:0:
256,192,38465,1,0,0:0:0:0:
256,192,38636,1,0,0:0:0:0:
256,192,38806,1,8,0:0:0:0:
256,192,38977,1,8,0:0:0:0:
256,192,39317,1,0,0:0:0:0:
256,192,39488,1,8,0:0:0:0:
256,192,39658,1,8,0:0:0:0:
256,192,39829,1,0,0:0:0:0:
256,192,40170,1,8,0:0:0:0:
256,192,40340,1,0,0:0:0:0:
256,192,40681,1,0,0:0:0:0:
256,192,40852,1,8,0:0:0:0:
256,192,41022,1,0,0:0:0:0:
256,192,41192,2,0,L|297:185,12,35
256,192,42556,1,0,0:0:0:0:
256,192,43067,1,0,0:0:0:0:
256,192,43579,1,8,0:0:0:0:
256,192,43920,1,0,0:0:0:0:
256,192,44431,1,8,0:0:0:0:
256,192,44942,1,0,0:0:0:0:
256,192,45283,1,0,0:0:0:0:
256,192,45795,1,0,0:0:0:0:
256,192,46306,1,8,0:0:0:0:
256,192,46647,1,0,0:0:0:0:
256,192,46988,1,8,0:0:0:0:
256,192,47329,1,8,0:0:0:0:
256,192,47670,1,0,0:0:0:0:
256,192,48011,1,0,0:0:0:0:
256,192,48522,1,0,0:0:0:0:
256,192,49033,1,8,0:0:0:0:
256,192,49374,1,0,0:0:0:0:
256,192,49886,1,8,0:0:0:0:
256,192,50397,1,0,0:0:0:0:
256,192,50738,1,0,0:0:0:0:
256,192,51249,1,0,0:0:0:0:
256,192,51761,1,8,0:0:0:0:
256,192,52102,1,0,0:0:0:0:
256,192,52613,1,0,0:0:0:0:
256,192,52783,1,8,0:0:0:0:
256,192,53124,1,14,0:0:0:0:
256,192,53465,1,4,0:0:0:0:
256,192,53806,1,8,0:0:0:0:
256,192,53977,1,0,0:0:0:0:
256,192,54147,1,8,0:0:0:0:
256,192,54317,1,8,0:0:0:0:
256,192,54488,1,8,0:0:0:0:
256,192,54829,1,0,0:0:0:0:
256,192,55170,1,0,0:0:0:0:
256,192,55340,1,0,0:0:0:0:
256,192,55511,1,8,0:0:0:0:
256,192,55596,1,8,0:0:0:0:
256,192,55681,1,8,0:0:0:0:
256,192,55852,1,0,0:0:0:0:
256,192,56192,1,8,0:0:0:0:
256,192,56363,1,0,0:0:0:0:
256,192,56533,1,8,0:0:0:0:
256,192,56704,1,0,0:0:0:0:
256,192,57045,1,8,0:0:0:0:
256,192,57130,1,8,0:0:0:0:
256,192,57215,1,8,0:0:0:0:
256,192,57386,1,0,0:0:0:0:
256,192,57556,1,8,0:0:0:0:
256,192,57897,1,0,0:0:0:0:
256,192,58067,1,0,0:0:0:0:
256,192,58238,1,8,0:0:0:0:
256,192,58408,1,8,0:0:0:0:
256,192,58579,1,0,0:0:0:0:
256,192,58920,1,0,0:0:0:0:
256,192,59261,1,0,0:0:0:0:
256,192,59431,1,8,0:0:0:0:
256,192,59602,1,0,0:0:0:0:
256,192,59942,1,8,0:0:0:0:
256,192,60113,1,8,0:0:0:0:
256,192,60283,1,0,0:0:0:0:
256,192,60454,1,8,0:0:0:0:
256,192,60624,1,0,0:0:0:0:
256,192,60795,1,8,0:0:0:0:
256,192,61136,1,8,0:0:0:0:
256,192,61306,1,0,0:0:0:0:
256,192,61477,1,8,0:0:0:0:
256,192,61647,1,0,0:0:0:0:
256,192,61988,1,8,0:0:0:0:
256,192,62158,1,8,0:0:0:0:
256,192,62329,1,0,0:0:0:0:
256,192,62499,1,0,0:0:0:0:
256,192,62670,1,8,0:0:0:0:
256,192,62755,1,8,0:0:0:0:
256,192,62840,1,8,0:0:0:0:
256,192,62925,1,8,0:0:0:0:
256,192,63181,1,14,0:0:0:0:
256,192,63351,1,14,0:0:0:0:
256,192,63521,1,14,0:0:0:0:
256,192,63692,1,14,0:0:0:0:
256,192,64374,1,4,0:0:0:0:
256,192,64715,1,8,0:0:0:0:
256,192,64886,1,8,0:0:0:0:
256,192,65056,1,0,0:0:0:0:
256,192,65227,1,0,0:0:0:0:
256,192,65397,1,8,0:0:0:0:
256,192,65738,1,8,0:0:0:0:
256,192,65908,1,8,0:0:0:0:
256,192,66079,1,0,0:0:0:0:
256,192,66249,1,14,0:0:0:0:
256,192,66590,1,14,0:0:0:0:
256,192,66931,1,4,0:0:0:0:
256,192,67272,1,0,0:0:0:0:
256,192,67442,1,8,0:0:0:0:
256,192,67613,1,0,0:0:0:0:
256,192,67783,1,8,0:0:0:0:
256,192,68124,1,8,0:0:0:0:
256,192,68295,1,0,0:0:0:0:
256,192,68465,1,8,0:0:0:0:
256,192,68636,1,8,0:0:0:0:
256,192,68806,1,0,0:0:0:0:
256,192,68977,1,8,0:0:0:0:
256,192,69317,1,8,0:0:0:0:
256,192,69488,1,0,0:0:0:0:
256,192,69658,1,8,0:0:0:0:
256,192,69829,1,0,0:0:0:0:
256,192,70170,1,8,0:0:0:0:
256,192,70511,1,0,0:0:0:0:
256,192,70596,1,0,0:0:0:0:
256,192,70681,1,0,0:0:0:0:
256,192,70852,1,8,0:0:0:0:
256,192,71022,1,0,0:0:0:0:
256,192,71192,1,0,0:0:0:0:
256,192,71533,1,8,0:0:0:0:
256,192,71874,1,8,0:0:0:0:
256,192,72045,1,8,0:0:0:0:
256,192,72215,1,0,0:0:0:0:
256,192,72386,1,8,0:0:0:0:
256,192,72556,1,8,0:0:0:0:
256,192,72897,1,0,0:0:0:0:
256,192,73238,1,8,0:0:0:0:
256,192,73408,1,8,0:0:0:0:
256,192,73579,1,0,0:0:0:0:
256,192,73920,1,14,0:0:0:0:
256,192,74090,1,14,0:0:0:0:
256,192,74431,1,4,0:0:0:0:
256,192,74772,1,0,0:0:0:0:
256,192,74942,1,8,0:0:0:0:
256,192,75113,1,8,0:0:0:0:
256,192,75283,1,0,0:0:0:0:
256,192,75624,1,8,0:0:0:0:
256,192,75795,1,8,0:0:0:0:
256,192,75965,1,0,0:0:0:0:
256,192,76306,1,8,0:0:0:0:
256,192,76477,1,0,0:0:0:0:
256,192,76647,1,8,0:0:0:0:
256,192,76817,1,8,0:0:0:0:
256,192,76988,1,0,0:0:0:0:
256,192,77158,1,14,0:0:0:0:
256,192,77499,1,14,0:0:0:0:
256,192,77840,1,4,0:0:0:0:
256,192,78181,1,0,0:0:0:0:
256,192,78352,1,8,0:0:0:0:
256,192,78522,1,0,0:0:0:0:
256,192,78692,1,8,0:0:0:0:
256,192,79033,1,8,0:0:0:0:
256,192,79204,1,0,0:0:0:0:
256,192,79374,1,8,0:0:0:0:
256,192,79545,1,8,0:0:0:0:
256,192,79715,1,0,0:0:0:0:
256,192,79886,1,8,0:0:0:0:
256,192,80227,1,8,0:0:0:0:
256,192,80397,1,0,0:0:0:0:
256,192,80567,1,8,0:0:0:0:
256,192,80738,1,0,0:0:0:0:
256,192,81079,1,8,0:0:0:0:
256,192,81420,1,0,0:0:0:0:
256,192,81505,1,0,0:0:0:0:
256,192,81590,1,0,0:0:0:0:
256,192,81761,1,8,0:0:0:0:
256,192,81931,1,0,0:0:0:0:
256,192,82102,1,0,0:0:0:0:
256,192,82442,1,8,0:0:0:0:
256,192,82613,1,0,0:0:0:0:
256,192,82783,1,8,0:0:0:0:
256,192,82954,1,8,0:0:0:0:
256,192,83124,1,0,0:0:0:0:
256,192,83295,1,8,0:0:0:0:
256,192,83465,1,0,0:0:0:0:
256,192,83806,1,0,0:0:0:0:
256,192,84147,1,8,0:0:0:0:
256,192,84317,1,8,0:0:0:0:
256,192,84488,1,8,0:0:0:0:
256,192,84829,1,8,0:0:0:0:
256,192,84999,1,0,0:0:0:0:
256,192,85340,1,14,0:0:0:0:
256,192,85681,1,14,0:0:0:0:
256,192,85852,1,14,0:0:0:0:
256,192,86192,1,0,0:0:0:0:
256,192,86704,1,0,0:0:0:0:
256,192,87215,1,8,0:0:0:0:
256,192,87556,1,0,0:0:0:0:
256,192,88067,1,8,0:0:0:0:
256,192,88579,1,0,0:0:0:0:
256,192,88920,1,0,0:0:0:0:
256,192,89431,1,0,0:0:0:0:
256,192,89942,1,8,0:0:0:0:
256,192,90283,1,0,0:0:0:0:
256,192,90624,1,8,0:0:0:0:
256,192,90795,1,0,0:0:0:0:
256,192,90965,1,8,0:0:0:0:
256,192,91306,1,0,0:0:0:0:
256,192,91647,1,4,0:0:0:0:
256,192,91988,1,8,0:0:0:0:
256,192,92329,1,8,0:0:0:0:
256,192,92499,1,8,0:0:0:0:
256,192,92670,1,0,0:0:0:0:
256,192,92840,1,8,0:0:0:0:
256,192,93181,1,8,0:0:0:0:
256,192,93352,1,0,0:0:0:0:
256,192,93522,1,0,0:0:0:0:
256,192,93692,1,8,0:0:0:0:
256,192,93863,1,0,0:0:0:0:
256,192,94033,1,8,0:0:0:0:
256,192,94374,1,0,0:0:0:0:
256,192,94715,1,8,0:0:0:0:
256,192,95056,1,0,0:0:0:0:
256,192,95227,1,0,0:0:0:0:
256,192,95397,1,8,0:0:0:0:
256,192,95738,1,0,0:0:0:0:
256,192,95908,1,0,0:0:0:0:
256,192,96079,1,8,0:0:0:0:
256,192,96420,1,0,0:0:0:0:
256,192,96505,1,0,0:0:0:0:
256,192,96590,1,0,0:0:0:0:
256,192,96761,1,8,0:0:0:0:
256,192,97102,1,4,0:0:0:0:
256,192,97272,1,4,0:0:0:0:
256,192,97783,1,4,0:0:0:0:
256,192,97954,1,4,0:0:0:0:
256,192,98295,1,4,0:0:0:0:
256,192,98636,1,4,0:0:0:0:
256,192,98977,1,4,0:0:0:0:
256,192,99147,1,4,0:0:0:0:
256,192,99829,1,4,0:0:0:0:
256,192,99999,1,4,0:0:0:0:
256,192,100510,1,4,0:0:0:0:
256,192,100681,1,4,0:0:0:0:
256,192,101022,1,4,0:0:0:0:
256,192,101363,1,4,0:0:0:0:
256,192,101704,1,4,0:0:0:0:
256,192,101874,1,4,0:0:0:0:
256,192,102556,1,14,0:0:0:0:
256,192,102726,1,14,0:0:0:0:
256,192,103237,1,14,0:0:0:0:
256,192,103408,1,14,0:0:0:0:
256,192,103749,1,4,0:0:0:0:
256,192,104090,1,4,0:0:0:0:
256,192,104431,1,4,0:0:0:0:
256,192,104601,1,14,0:0:0:0:
256,192,105283,1,14,0:0:0:0:
256,192,105453,1,14,0:0:0:0:
256,192,105964,1,14,0:0:0:0:
256,192,106135,1,14,0:0:0:0:
256,192,106476,1,4,0:0:0:0:
256,192,106817,1,4,0:0:0:0:
256,192,107158,1,4,0:0:0:0:
256,192,107328,1,14,0:0:0:0:
256,192,108011,1,0,0:0:0:0:
256,192,108181,1,0,0:0:0:0:
256,192,108352,1,8,0:0:0:0:
256,192,108522,1,8,0:0:0:0:
256,192,108692,1,0,0:0:0:0:
256,192,109033,1,8,0:0:0:0:
256,192,109204,1,14,0:0:0:0:
256,192,109545,1,8,0:0:0:0:
256,192,109715,1,0,0:0:0:0:
256,192,109886,1,8,0:0:0:0:
256,192,110056,1,0,0:0:0:0:
256,192,110227,1,0,0:0:0:0:
256,192,110397,1,8,0:0:0:0:
256,192,110738,1,8,0:0:0:0:
256,192,111079,1,0,0:0:0:0:
256,192,111249,1,14,0:0:0:0:
256,192,111590,1,8,0:0:0:0:
256,192,111761,1,0,0:0:0:0:
256,192,111931,1,8,0:0:0:0:
256,192,112102,1,0,0:0:0:0:
256,192,112442,1,8,0:0:0:0:
256,192,112613,1,0,0:0:0:0:
256,192,112783,1,8,0:0:0:0:
256,192,112954,1,8,0:0:0:0:
256,192,113124,1,0,0:0:0:0:
256,192,113295,1,6,0:0:0:0:
256,192,113636,1,8,0:0:0:0:
256,192,113806,1,0,0:0:0:0:
256,192,113977,1,8,0:0:0:0:
256,192,114147,1,0,0:0:0:0:
256,192,114488,1,8,0:0:0:0:
256,192,114658,1,0,0:0:0:0:
256,192,114829,1,8,0:0:0:0:
256,192,114999,1,8,0:0:0:0:
256,192,115170,1,0,0:0:0:0:
256,192,115340,1,14,0:0:0:0:
256,192,115681,1,8,0:0:0:0:
256,192,115852,1,0,0:0:0:0:
256,192,116022,1,8,0:0:0:0:
256,192,116192,1,4,0:0:0:0:
256,192,116533,1,8,0:0:0:0:
256,192,116704,1,8,0:0:0:0:
256,192,116874,1,0,0:0:0:0:
256,192,117045,1,0,0:0:0:0:
256,192,117215,1,8,0:0:0:0:
256,192,117556,1,0,0:0:0:0:
256,192,117727,1,0,0:0:0:0:
256,192,117897,1,8,0:0:0:0:
256,192,118067,1,8,0:0:0:0:
256,192,118238,1,0,0:0:0:0:
256,192,118408,1,0,0:0:0:0:
256,192,118579,1,8,0:0:0:0:
256,192,118920,1,0,0:0:0:0:
256,192,119090,1,0,0:0:0:0:
256,192,119261,1,8,0:0:0:0:
256,192,119602,1,0,0:0:0:0:
256,192,119772,1,0,0:0:0:0:
256,192,119942,1,8,0:0:0:0:
256,192,120113,1,8,0:0:0:0:
256,192,120283,1,0,0:0:0:0:
256,192,120624,1,8,0:0:0:0:
256,192,120709,1,8,0:0:0:0:
256,192,120795,1,8,0:0:0:0:
256,192,120965,1,0,0:0:0:0:
256,192,121136,1,0,0:0:0:0:
256,192,121306,1,8,0:0:0:0:
256,192,121647,1,14,0:0:0:0:
256,192,121817,1,0,0:0:0:0:
256,192,121988,1,0,0:0:0:0:
256,192,122158,1,8,0:0:0:0:
256,192,122244,1,8,0:0:0:0:
256,192,122329,1,8,0:0:0:0:
256,192,122499,1,0,0:0:0:0:
256,192,122670,1,8,0:0:0:0:
256,192,123011,1,0,0:0:0:0:
256,192,123181,1,8,0:0:0:0:
256,192,123352,1,0,0:0:0:0:
256,192,123437,1,0,0:0:0:0:
256,192,123522,1,0,0:0:0:0:
256,192,123692,1,8,0:0:0:0:
256,192,124033,1,0,0:0:0:0:
256,192,124204,1,8,0:0:0:0:
256,192,124374,1,0,0:0:0:0:
256,192,124545,1,0,0:0:0:0:
256,192,124715,1,8,0:0:0:0:
256,192,124800,1,8,0:0:0:0:
256,192,124886,1,8,0:0:0:0:
256,192,125056,1,0,0:0:0:0:
256,192,125227,1,8,0:0:0:0:
256,192,125397,1,8,0:0:0:0:
256,192,125738,1,8,0:0:0:0:
256,192,125908,1,8,0:0:0:0:
256,192,126079,1,0,0:0:0:0:
256,192,126249,1,0,0:0:0:0:
256,192,126420,1,8,0:0:0:0:
256,192,126590,1,8,0:0:0:0:
256,192,126761,1,0,0:0:0:0:
256,192,126846,1,0,0:0:0:0:
256,192,126931,1,0,0:0:0:0:
256,192,127102,1,14,0:0:0:0:
256,192,127783,1,14,0:0:0:0:
256,192,128465,1,4,0:0:0:0:
256,192,129147,1,4,0:0:0:0:
256,192,129829,12,0,131022,2:0:0:0:
256,192,131192,5,14,0:0:0:0:
256,192,131363,1,14,0:0:0:0:
256,192,131533,1,4,0:0:0:0:
256,192,131704,1,4,0:0:0:0:
256,192,131874,1,14,0:0:0:0:
