osu file format v14

[General]
AudioFilename: Dakko Shite Gyu! ~Nanji Tonari no Yome wo Aise~.mp3
AudioLeadIn: 0
PreviewTime: 64188
Countdown: 0
SampleSet: Normal
StackLeniency: 0.7
Mode: 1
LetterboxInBreaks: 0
WidescreenStoryboard: 0

[Editor]
Bookmarks: 121631,122142,122654,123165,123676,124188,124699,125211
DistanceSpacing: 0.5
BeatDivisor: 4
GridSize: 32
TimelineZoom: 1.6

[Metadata]
Title:Dakkoshite Gyu! -Nanji, Tonari no Yome wo Aise
TitleUnicode:だっこしてぎゅっ! ~汝、隣の枕(よめ)を愛せ
Artist:Tamiyasu Tomoe
ArtistUnicode:民安ともえ
Creator:Naryuga
Version:Kantan
Source:だっこしてぎゅっ! ~オレの嫁は抱き枕~
Tags:eroge opening
BeatmapID:805949
BeatmapSetID:367469

[Difficulty]
HPDrainRate:6
CircleSize:5
OverallDifficulty:3.5
ApproachRate:5
SliderMultiplier:1.4
SliderTickRate:1

[Events]
//Background and Video events
0,0,"dakko_1024_768.jpg",0,0
//Break Periods
//Storyboard Layer 0 (Background)
//Storyboard Layer 1 (Fail)
//Storyboard Layer 2 (Pass)
//Storyboard Layer 3 (Foreground)
//Storyboard Sound Samples

[TimingPoints]
7102,340.909090909091,4,1,0,80,1,0
42556,-100,4,1,0,80,0,0
64374,-100,4,1,0,80,0,1
86192,-100,4,1,0,80,0,0
108011,-100,4,1,0,80,0,1
127102,-100,4,1,0,80,0,0

[HitObjects]
256,192,7102,5,0,0:0:0:0:
256,192,8465,1,0,0:0:0:0:
256,192,9147,1,0,0:0:0:0:
256,192,9829,1,8,0:0:0:0:
256,192,11192,1,0,0:0:0:0:
256,192,11874,1,0,0:0:0:0:
256,192,12556,1,0,0:0:0:0:
256,192,13920,1,8,0:0:0:0:
256,192,14602,1,8,0:0:0:0:
256,192,15283,12,2,17329,0:0:0:0:
256,192,18011,5,0,0:0:0:0:
256,192,18692,1,0,0:0:0:0:
256,192,19374,1,0,0:0:0:0:
256,192,20738,1,8,0:0:0:0:
256,192,21420,1,8,0:0:0:0:
256,192,22102,1,8,0:0:0:0:
256,192,23465,1,0,0:0:0:0:
256,192,24147,1,0,0:0:0:0:
256,192,24829,1,8,0:0:0:0:
256,192,26192,1,0,0:0:0:0:
256,192,26533,1,0,0:0:0:0:
256,192,26874,1,0,0:0:0:0:
256,192,27556,1,8,0:0:0:0:
256,192,27897,1,8,0:0:0:0:
256,192,28920,1,0,0:0:0:0:
256,192,29602,1,0,0:0:0:0:
256,192,30283,1,8,0:0:0:0:
256,192,31477,1,0,0:0:0:0:
256,192,32329,1,0,0:0:0:0:
256,192,33011,1,8,0:0:0:0:
256,192,34204,1,0,0:0:0:0:
256,192,35056,1,0,0:0:0:0:
256,192,35738,1,8,0:0:0:0:
256,192,37102,1,8,0:0:0:0:
256,192,37783,1,8,0:0:0:0:
256,192,38465,1,0,0:0:0:0:
256,192,38806,1,0,0:0:0:0:
256,192,39147,1,0,0:0:0:0:
256,192,39829,1,0,0:0:0:0:
256,192,40511,1,0,0:0:0:0:
256,192,41192,1,8,0:0:0:0:
256,192,42556,5,0,0:0:0:0:
256,192,43920,1,0,0:0:0:0:
256,192,45283,1,0,0:0:0:0:
256,192,46647,1,8,0:0:0:0:
256,192,47329,1,8,0:0:0:0:
256,192,48011,1,0,0:0:0:0:
256,192,49374,1,0,0:0:0:0:
256,192,50738,1,0,0:0:0:0:
256,192,51420,1,0,0:0:0:0:
256,192,52102,1,8,0:0:0:0:
256,192,53465,1,0,0:0:0:0:
256,192,54147,1,0,0:0:0:0:
256,192,54829,1,8,0:0:0:0:
256,192,55511,1,8,0:0:0:0:
256,192,56192,1,0,0:0:0:0:
256,192,56533,1,0,0:0:0:0:
256,192,56874,1,0,0:0:0:0:
256,192,57556,1,8,0:0:0:0:
256,192,57897,1,8,0:0:0:0:
256,192,58238,1,8,0:0:0:0:
256,192,58920,1,0,0:0:0:0:
256,192,59602,1,8,0:0:0:0:
256,192,60283,1,0,0:0:0:0:
256,192,60965,1,8,0:0:0:0:
256,192,61647,12,0,63011,0:0:0:0:
256,192,64374,5,4,0:0:0:0:
256,192,65056,1,8,0:0:0:0:
256,192,65738,1,0,0:0:0:0:
256,192,66249,1,8,0:0:0:0:
256,192,66590,1,8,0:0:0:0:
256,192,66931,1,8,0:0:0:0:
256,192,67783,1,0,0:0:0:0:
256,192,68465,1,8,0:0:0:0:
256,192,68977,1,0,0:0:0:0:
256,192,69317,1,0,0:0:0:0:
256,192,69658,1,0,0:0:0:0:
256,192,71192,1,0,0:0:0:0:
256,192,71874,1,0,0:0:0:0:
256,192,72556,1,8,0:0:0:0:
256,192,72897,1,8,0:0:0:0:
256,192,73238,1,8,0:0:0:0:
256,192,73920,1,14,0:0:0:0:
256,192,75283,1,0,0:0:0:0:
256,192,75965,1,8,0:0:0:0:
256,192,76647,1,0,0:0:0:0:
256,192,77158,1,8,0:0:0:0:
256,192,77499,1,8,0:0:0:0:
256,192,77840,1,8,0:0:0:0:
256,192,78692,1,0,0:0:0:0:
256,192,79374,1,8,0:0:0:0:
256,192,79886,1,0,0:0:0:0:
256,192,80227,1,0,0:0:0:0:
256,192,80567,1,0,0:0:0:0:
256,192,82102,1,0,0:0:0:0:
256,192,82783,1,0,0:0:0:0:
256,192,83465,1,8,0:0:0:0:
256,192,84147,1,0,0:0:0:0:
256,192,84829,1,8,0:0:0:0:
256,192,86192,1,0,0:0:0:0:
256,192,87556,1,0,0:0:0:0:
256,192,88920,1,0,0:0:0:0:
256,192,90283,1,0,0:0:0:0:
256,192,91647,1,4,0:0:0:0:
256,192,92329,1,8,0:0:0:0:
256,192,93011,1,0,0:0:0:0:
256,192,93692,1,8,0:0:0:0:
256,192,94374,1,0,0:0:0:0:
256,192,95056,1,0,0:0:0:0:
256,192,95738,1,8,0:0:0:0:
256,192,96420,1,8,0:0:0:0:
256,192,97102,1,4,0:0:0:0:
256,192,99147,1,8,0:0:0:0:
256,192,99829,1,0,0:0:0:0:
256,192,101874,1,8,0:0:0:0:
256,192,102556,1,0,0:0:0:0:
256,192,103237,1,0,0:0:0:0:
256,192,104601,1,8,0:0:0:0:
256,192,105283,1,0,0:0:0:0:
256,192,105964,1,0,0:0:0:0:
256,192,107328,1,8,0:0:0:0:
256,192,108011,1,0,0:0:0:0:
256,192,108692,1,0,0:0:0:0:
256,192,109374,1,8,0:0:0:0:
256,192,110056,1,8,0:0:0:0:
256,192,110738,1,0,0:0:0:0:
256,192,111079,1,0,0:0:0:0:
256,192,111420,1,0,0:0:0:0:
256,192,112102,1,0,0:0:0:0:
256,192,112783,1,0,0:0:0:0:
256,192,113465,1,8,0:0:0:0:
256,192,114147,1,8,0:0:0:0:
256,192,114829,1,0,0:0:0:0:
256,192,115170,1,0,0:0:0:0:
256,192,115511,1,0,0:0:0:0:
256,192,116192,1,0,0:0:0:0:
256,192,116874,1,0,0:0:0:0:
256,192,117556,1,8,0:0:0:0:
256,192,118238,1,8,0:0:0:0:
256,192,118920,1,0,0:0:0:0:
256,192,119261,1,0,0:0:0:0:
256,192,119602,1,0,0:0:0:0:
256,192,120283,1,8,0:0:0:0:
256,192,120624,1,8,0:0:0:0:
256,192,120965,1,8,0:0:0:0:
256,192,121647,1,4,0:0:0:0:
256,192,122329,1,0,0:0:0:0:
256,192,123011,1,8,0:0:0:0:
256,192,123692,1,8,0:0:0:0:
256,192,124374,1,0,0:0:0:0:
256,192,124715,1,0,0:0:0:0:
256,192,125056,1,0,0:0:0:0:
256,192,125738,1,8,0:0:0:0:
256,192,126079,1,8,0:0:0:0:
256,192,126420,1,8,0:0:0:0:
256,192,126761,1,8,0:0:0:0:
256,192,127102,1,4,0:0:0:0:
256,192,127783,1,4,0:0:0:0:
256,192,128465,1,4,0:0:0:0:
256,192,129147,1,4,0:0:0:0:
256,192,129829,1,4,0:0:0:0:
256,192,131192,1,4,0:0:0:0:
256,192,131533,1,4,0:0:0:0:
256,192,131874,1,4,0:0:0:0:
