osu file format v14

[General]
AudioFilename: Dakko Shite Gyu! ~Nanji Tonari no Yome wo Aise~.mp3
AudioLeadIn: 0
PreviewTime: 64188
Countdown: 1
SampleSet: Normal
StackLeniency: 0.7
Mode: 1
LetterboxInBreaks: 1
WidescreenStoryboard: 1

[Editor]
Bookmarks: 121631,122142,122654,123165,123676,124188,124699,125211
DistanceSpacing: 0.5
BeatDivisor: 4
GridSize: 32
TimelineZoom: 1.6

[Metadata]
Title:Dakkoshite Gyu! -Nanji, Tonari no Yome wo Aise
TitleUnicode:だっこしてぎゅっ! ~汝、隣の枕(よめ)を愛せ
Artist:Tamiyasu Tomoe
ArtistUnicode:民安ともえ
Creator:Naryuga
Version:Futsuu
Source:だっこしてぎゅっ! ~オレの嫁は抱き枕~
Tags:Dakko shite gyu! opening
BeatmapID:805948
BeatmapSetID:367469

[Difficulty]
HPDrainRate:5.5
CircleSize:5
OverallDifficulty:4
ApproachRate:5
SliderMultiplier:1.4
SliderTickRate:1

[Events]
//Background and Video events
0,0,"dakko_1024_768.jpg",0,0
//Break Periods
//Storyboard Layer 0 (Background)
//Storyboard Layer 1 (Fail)
//Storyboard Layer 2 (Pass)
//Storyboard Layer 3 (Foreground)
//Storyboard Sound Samples

[TimingPoints]
7102,340.909090909091,4,1,0,80,1,0
42556,-117.647058823529,4,2,0,60,0,0
52954,-100,4,1,0,80,0,0
64374,-100,4,1,0,80,0,1
86192,-117.647058823529,4,1,0,80,0,0
91647,-100,4,1,0,80,0,0
108011,-100,4,1,0,80,0,1
127102,-100,4,1,0,80,0,0

[HitObjects]
256,192,7102,5,0,0:0:0:0:
256,192,7783,1,0,0:0:0:0:
256,192,8124,1,0,0:0:0:0:
256,192,8465,1,0,0:0:0:0:
256,192,8977,1,0,0:0:0:0:
256,192,9317,1,0,0:0:0:0:
256,192,9658,1,0,0:0:0:0:
256,192,9829,1,8,0:0:0:0:
256,192,10511,1,0,0:0:0:0:
256,192,10852,1,0,0:0:0:0:
256,192,11192,1,0,0:0:0:0:
256,192,11704,1,8,0:0:0:0:
256,192,12045,1,10,0:0:0:0:
256,192,12386,1,10,0:0:0:0:
256,192,12556,1,0,0:0:0:0:
256,192,13238,1,0,0:0:0:0:
256,192,13579,1,0,0:0:0:0:
256,192,13920,1,0,0:0:0:0:
256,192,14602,1,8,0:0:0:0:
256,192,14942,1,0,0:0:0:0:
256,192,15283,1,8,0:0:0:0:
256,192,15454,1,8,0:0:0:0:
256,192,15965,1,8,0:0:0:0:
256,192,16136,1,8,0:0:0:0:
256,192,16477,1,0,0:0:0:0:
256,192,16817,1,0,0:0:0:0:
256,192,17158,1,0,0:0:0:0:
256,192,17329,1,8,0:0:0:0:
256,192,18011,1,0,0:0:0:0:
256,192,18692,1,0,0:0:0:0:
256,192,19033,1,8,0:0:0:0:
256,192,19374,1,0,0:0:0:0:
256,192,19715,1,8,0:0:0:0:
256,192,19886,1,8,0:0:0:0:
256,192,20227,1,8,0:0:0:0:
256,192,20567,1,0,0:0:0:0:
256,192,21420,1,0,0:0:0:0:
256,192,21761,1,8,0:0:0:0:
256,192,22102,1,0,0:0:0:0:
256,192,22442,1,8,0:0:0:0:
256,192,22613,1,8,0:0:0:0:
256,192,22954,1,8,0:0:0:0:
256,192,23295,1,0,0:0:0:0:
256,192,24147,1,0,0:0:0:0:
256,192,24488,1,8,0:0:0:0:
256,192,24829,1,0,0:0:0:0:
256,192,25170,1,8,0:0:0:0:
256,192,25340,1,8,0:0:0:0:
256,192,25681,1,8,0:0:0:0:
256,192,25852,1,8,0:0:0:0:
256,192,26192,1,0,0:0:0:0:
256,192,26533,1,0,0:0:0:0:
256,192,26874,1,0,0:0:0:0:
256,192,27215,1,0,0:0:0:0:
256,192,27556,1,8,0:0:0:0:
256,192,27897,1,8,0:0:0:0:
256,192,28067,1,8,0:0:0:0:
256,192,28920,1,4,0:0:0:0:
256,192,29261,1,8,0:0:0:0:
256,192,29602,1,0,0:0:0:0:
256,192,29942,1,8,0:0:0:0:
256,192,30283,1,8,0:0:0:0:
256,192,30624,1,0,0:0:0:0:
256,192,30795,1,0,0:0:0:0:
256,192,31136,1,0,0:0:0:0:
256,192,31477,1,4,0:0:0:0:
256,192,31988,1,8,0:0:0:0:
256,192,32329,1,0,0:0:0:0:
256,192,32670,1,8,0:0:0:0:
256,192,33011,1,8,0:0:0:0:
256,192,33352,1,8,0:0:0:0:
256,192,33522,1,8,0:0:0:0:
256,192,33863,1,8,0:0:0:0:
256,192,34204,1,4,0:0:0:0:
256,192,34715,1,8,0:0:0:0:
256,192,35056,1,0,0:0:0:0:
256,192,35397,1,8,0:0:0:0:
256,192,35738,1,0,0:0:0:0:
256,192,36079,1,8,0:0:0:0:
256,192,36249,1,8,0:0:0:0:
256,192,37102,1,0,0:0:0:0:
256,192,37442,1,0,0:0:0:0:
256,192,37783,1,8,0:0:0:0:
256,192,38124,1,8,0:0:0:0:
256,192,38465,1,0,0:0:0:0:
256,192,38806,1,8,0:0:0:0:
256,192,38977,1,8,0:0:0:0:
256,192,39317,1,0,0:0:0:0:
256,192,39658,1,0,0:0:0:0:
256,192,39829,1,0,0:0:0:0:
256,192,40511,1,0,0:0:0:0:
256,192,41192,12,0,42215,0:0:0:0:
256,192,42556,5,0,0:0:0:0:
256,192,43067,1,0,0:0:0:0:
256,192,43579,1,8,0:0:0:0:
256,192,43920,1,0,0:0:0:0:
256,192,44431,1,0,0:0:0:0:
256,192,45283,1,0,0:0:0:0:
256,192,45795,1,0,0:0:0:0:
256,192,46306,1,8,0:0:0:0:
256,192,46647,1,0,0:0:0:0:
256,192,47158,1,0,0:0:0:0:
256,192,48011,1,0,0:0:0:0:
256,192,48522,1,0,0:0:0:0:
256,192,49033,1,8,0:0:0:0:
256,192,49374,1,0,0:0:0:0:
256,192,49886,1,0,0:0:0:0:
256,192,50397,1,8,0:0:0:0:
256,192,50738,1,0,0:0:0:0:
256,192,51249,1,0,0:0:0:0:
256,192,51761,1,8,0:0:0:0:
256,192,52102,1,0,0:0:0:0:
256,192,52613,1,0,0:0:0:0:
256,192,53124,1,14,0:0:0:0:
256,192,53465,1,4,0:0:0:0:
256,192,54147,1,8,0:0:0:0:
256,192,54488,1,8,0:0:0:0:
256,192,54829,1,0,0:0:0:0:
256,192,55511,1,8,0:0:0:0:
256,192,55681,1,8,0:0:0:0:
256,192,55852,1,8,0:0:0:0:
256,192,56192,1,0,0:0:0:0:
256,192,56533,1,0,0:0:0:0:
256,192,57215,1,8,0:0:0:0:
256,192,57556,1,8,0:0:0:0:
256,192,57897,1,0,0:0:0:0:
256,192,58238,1,8,0:0:0:0:
256,192,58408,1,8,0:0:0:0:
256,192,58579,1,8,0:0:0:0:
256,192,58920,1,0,0:0:0:0:
256,192,59261,1,0,0:0:0:0:
256,192,59602,1,8,0:0:0:0:
256,192,59942,1,0,0:0:0:0:
256,192,60283,1,8,0:0:0:0:
256,192,60795,1,8,0:0:0:0:
256,192,61306,1,8,0:0:0:0:
256,192,61647,1,0,0:0:0:0:
256,192,61988,1,0,0:0:0:0:
256,192,62329,1,0,0:0:0:0:
256,192,62499,1,0,0:0:0:0:
256,192,62840,1,0,0:0:0:0:
256,192,63181,1,8,0:0:0:0:
256,192,63352,1,8,0:0:0:0:
256,192,63521,1,8,0:0:0:0:
256,192,63692,1,8,0:0:0:0:
256,192,64374,1,4,0:0:0:0:
256,192,64715,1,8,0:0:0:0:
256,192,65056,1,0,0:0:0:0:
256,192,65397,1,8,0:0:0:0:
256,192,65738,1,0,0:0:0:0:
256,192,66249,1,8,0:0:0:0:
256,192,66590,1,8,0:0:0:0:
256,192,66931,1,8,0:0:0:0:
256,192,67442,1,0,0:0:0:0:
256,192,67783,1,8,0:0:0:0:
256,192,68124,1,0,0:0:0:0:
256,192,68465,1,8,0:0:0:0:
256,192,68977,1,0,0:0:0:0:
256,192,69317,1,0,0:0:0:0:
256,192,69658,1,0,0:0:0:0:
256,192,70170,1,8,0:0:0:0:
256,192,70511,1,0,0:0:0:0:
256,192,70852,1,0,0:0:0:0:
256,192,71022,1,0,0:0:0:0:
256,192,71192,1,0,0:0:0:0:
256,192,71533,1,8,0:0:0:0:
256,192,71874,1,0,0:0:0:0:
256,192,72556,1,8,0:0:0:0:
256,192,72897,1,0,0:0:0:0:
256,192,73238,1,8,0:0:0:0:
256,192,73579,1,0,0:0:0:0:
256,192,73920,1,8,0:0:0:0:
256,192,74090,1,8,0:0:0:0:
256,192,74431,1,14,0:0:0:0:
256,192,75283,1,0,0:0:0:0:
256,192,75624,1,8,0:0:0:0:
256,192,75965,1,0,0:0:0:0:
256,192,76306,1,8,0:0:0:0:
256,192,76647,1,0,0:0:0:0:
256,192,77158,1,8,0:0:0:0:
256,192,77499,1,8,0:0:0:0:
256,192,77840,1,8,0:0:0:0:
256,192,78352,1,0,0:0:0:0:
256,192,78692,1,8,0:0:0:0:
256,192,79033,1,0,0:0:0:0:
256,192,79374,1,8,0:0:0:0:
256,192,79886,1,0,0:0:0:0:
256,192,80227,1,0,0:0:0:0:
256,192,80567,1,0,0:0:0:0:
256,192,81079,1,8,0:0:0:0:
256,192,81420,1,0,0:0:0:0:
256,192,81761,1,0,0:0:0:0:
256,192,81931,1,0,0:0:0:0:
256,192,82102,1,0,0:0:0:0:
256,192,82442,1,8,0:0:0:0:
256,192,82783,1,8,0:0:0:0:
256,192,83465,1,0,0:0:0:0:
256,192,83806,1,0,0:0:0:0:
256,192,84147,1,8,0:0:0:0:
256,192,84488,1,8,0:0:0:0:
256,192,84829,1,0,0:0:0:0:
256,192,85340,1,0,0:0:0:0:
256,192,86192,1,0,0:0:0:0:
256,192,86704,1,0,0:0:0:0:
256,192,87215,1,8,0:0:0:0:
256,192,87556,1,0,0:0:0:0:
256,192,88067,1,0,0:0:0:0:
256,192,88920,1,0,0:0:0:0:
256,192,89431,1,0,0:0:0:0:
256,192,89942,1,8,0:0:0:0:
256,192,90283,1,0,0:0:0:0:
256,192,90795,1,0,0:0:0:0:
256,192,91647,1,4,0:0:0:0:
256,192,91988,1,8,0:0:0:0:
256,192,92329,1,8,0:0:0:0:
256,192,93011,1,0,0:0:0:0:
256,192,93352,1,8,0:0:0:0:
256,192,93692,1,8,0:0:0:0:
256,192,94033,1,8,0:0:0:0:
256,192,94374,1,0,0:0:0:0:
256,192,95056,1,0,0:0:0:0:
256,192,95738,1,0,0:0:0:0:
256,192,96079,1,0,0:0:0:0:
256,192,96420,1,8,0:0:0:0:
256,192,97102,1,0,0:0:0:0:
256,192,97783,1,0,0:0:0:0:
256,192,98295,1,0,0:0:0:0:
256,192,98636,1,0,0:0:0:0:
256,192,98977,1,0,0:0:0:0:
256,192,99147,1,0,0:0:0:0:
256,192,99829,1,0,0:0:0:0:
256,192,100510,1,0,0:0:0:0:
256,192,101022,1,0,0:0:0:0:
256,192,101363,1,0,0:0:0:0:
256,192,101704,1,0,0:0:0:0:
256,192,101874,1,0,0:0:0:0:
256,192,102556,1,0,0:0:0:0:
256,192,103237,1,0,0:0:0:0:
256,192,103749,1,8,0:0:0:0:
256,192,104090,1,8,0:0:0:0:
256,192,104431,1,8,0:0:0:0:
256,192,104601,1,0,0:0:0:0:
256,192,105283,1,0,0:0:0:0:
256,192,105964,1,0,0:0:0:0:
256,192,106476,1,8,0:0:0:0:
256,192,106817,1,8,0:0:0:0:
256,192,107158,1,8,0:0:0:0:
256,192,107328,1,0,0:0:0:0:
256,192,108011,1,0,0:0:0:0:
256,192,108692,1,0,0:0:0:0:
256,192,109033,1,8,0:0:0:0:
256,192,109204,1,8,0:0:0:0:
256,192,109545,1,8,0:0:0:0:
256,192,109886,1,0,0:0:0:0:
256,192,110056,1,0,0:0:0:0:
256,192,110738,1,8,0:0:0:0:
256,192,111079,1,0,0:0:0:0:
256,192,111249,1,0,0:0:0:0:
256,192,111590,1,8,0:0:0:0:
256,192,111931,1,0,0:0:0:0:
256,192,112102,1,0,0:0:0:0:
256,192,112783,1,0,0:0:0:0:
256,192,113124,1,8,0:0:0:0:
256,192,113295,1,8,0:0:0:0:
256,192,113636,1,8,0:0:0:0:
256,192,113977,1,0,0:0:0:0:
256,192,114147,1,0,0:0:0:0:
256,192,114829,1,8,0:0:0:0:
256,192,115170,1,0,0:0:0:0:
256,192,115340,1,0,0:0:0:0:
256,192,115681,1,8,0:0:0:0:
256,192,116022,1,0,0:0:0:0:
256,192,116192,1,0,0:0:0:0:
256,192,116874,1,0,0:0:0:0:
256,192,117215,1,8,0:0:0:0:
256,192,117556,1,0,0:0:0:0:
256,192,118238,1,8,0:0:0:0:
256,192,118579,1,8,0:0:0:0:
256,192,118920,1,0,0:0:0:0:
256,192,119090,1,0,0:0:0:0:
256,192,119261,1,0,0:0:0:0:
256,192,119602,1,0,0:0:0:0:
256,192,119772,1,0,0:0:0:0:
256,192,119942,1,0,0:0:0:0:
256,192,120283,1,0,0:0:0:0:
256,192,120624,1,8,0:0:0:0:
256,192,120965,1,0,0:0:0:0:
256,192,121306,1,8,0:0:0:0:
256,192,121647,1,14,0:0:0:0:
256,192,122329,1,8,0:0:0:0:
256,192,122670,1,0,0:0:0:0:
256,192,123011,1,8,0:0:0:0:
256,192,123352,1,8,0:0:0:0:
256,192,123522,1,8,0:0:0:0:
256,192,123692,1,8,0:0:0:0:
256,192,124033,1,0,0:0:0:0:
256,192,124374,1,8,0:0:0:0:
256,192,125056,1,8,0:0:0:0:
256,192,125397,1,0,0:0:0:0:
256,192,125738,1,8,0:0:0:0:
256,192,126079,1,0,0:0:0:0:
256,192,126250,1,0,0:0:0:0:
256,192,126420,1,0,0:0:0:0:
256,192,126761,1,0,0:0:0:0:
256,192,127102,1,14,0:0:0:0:
256,192,127783,1,14,0:0:0:0:
256,192,128465,1,4,0:0:0:0:
256,192,129147,1,4,0:0:0:0:
256,192,129829,1,14,0:0:0:0:
256,192,131192,1,14,0:0:0:0:
256,192,131533,1,4,0:0:0:0:
256,192,131874,1,14,0:0:0:0:
