osu file format v12

[General]
AudioFilename: Vergin Engage(saqwz Remix).mp3
AudioLeadIn: 500
PreviewTime: 22031
Countdown: 0
SampleSet: Normal
StackLeniency: 0.7
Mode: 0
LetterboxInBreaks: 0
WidescreenStoryboard: 1

[Editor]
Bookmarks: 22364,38364
DistanceSpacing: 1
BeatDivisor: 4
GridSize: 4

[Metadata]
Title:Virgin Engage (saqwz Remix)
TitleUnicode:バージンエンゲージ (saqwz Remix)
Artist:Tamiyasu Rock
ArtistUnicode:民安★ROCK
Creator:regenz
Version:Insane
Source:Guardian Place Do S na Imouto to 3-nin no Yome
Tags:hentai galge eroge Skyfish NewRulerNA Tamiyasu Tomoe
BeatmapID:316454
BeatmapSetID:123720

[Difficulty]
HPDrainRate:6
CircleSize:4
OverallDifficulty:8
ApproachRate:9
SliderMultiplier:2
SliderTickRate:1

[Events]
//Background and Video events
0,0,"BG.jpg",0,0
//Break Periods
2,49064,59264
//Storyboard Layer 0 (Background)
//Storyboard Layer 1 (Fail)
//Storyboard Layer 2 (Pass)
//Storyboard Layer 3 (Foreground)
//Storyboard Sound Samples
//Background Colour Transformations
3,100,163,162,255

[TimingPoints]
1198,333.333333333333,4,1,0,70,1,0
22197,-100,4,2,0,70,0,0
22531,-83.3333333333333,4,1,0,70,0,1
38531,-100,4,1,0,70,0,0
91864,-100,4,1,0,70,0,1
118531,-100,4,1,0,70,0,0

[Colours]
Combo1 : 255,128,0
Combo2 : 0,128,255
Combo3 : 0,255,0
Combo4 : 242,24,57
Combo5 : 255,255,0

[HitObjects]
79,132,1198,6,0,P|106:89|147:62,1,100
352,68,1531,2,0,P|328:108|252:144,1,100
112,244,1864,1,0,0:0:0:0:
340,344,2031,1,0,0:0:0:0:
340,344,2114,1,0,0:0:0:0:
340,344,2197,1,0,0:0:0:0:
236,184,2364,1,0,0:0:0:0:
236,184,2447,1,0,0:0:0:0:
236,184,2531,5,0,0:0:0:0:
484,232,2697,1,0,0:0:0:0:
484,232,2781,1,0,0:0:0:0:
484,232,2864,2,0,P|472:156|432:124,1,100
368,76,3197,1,0,0:0:0:0:
368,76,3281,1,0,0:0:0:0:
336,188,3447,1,0,0:0:0:0:
336,188,3531,2,0,P|304:240|240:260,1,100
208,336,3864,5,0,0:0:0:0:
108,320,4031,2,0,L|52:296,2,50
104,220,4364,1,0,0:0:0:0:
196,48,4531,1,0,0:0:0:0:
256,260,4697,1,0,0:0:0:0:
316,48,4864,1,0,0:0:0:0:
408,220,5031,1,0,0:0:0:0:
252,136,5197,5,0,0:0:0:0:
124,244,5364,2,0,P|130:195|108:152,1,100
388,244,5697,2,0,P|382:195|404:152,1,100
44,40,6197,1,0,0:0:0:0:
472,344,6531,6,0,P|464:288|396:240,1,100
436,256,6781,1,0,0:0:0:0:
436,256,6864,1,0,0:0:0:0:
328,68,7031,1,0,0:0:0:0:
92,208,7197,1,0,0:0:0:0:
224,44,7364,1,0,0:0:0:0:
140,308,7531,1,0,0:0:0:0:
132,96,7697,1,0,0:0:0:0:
352,268,7864,5,0,0:0:0:0:
480,76,8031,2,0,L|432:64,2,50
224,224,8364,1,0,0:0:0:0:
352,160,8531,1,0,0:0:0:0:
352,160,8614,1,0,0:0:0:0:
352,160,8697,1,0,0:0:0:0:
168,340,8864,1,0,0:0:0:0:
216,96,9031,1,0,0:0:0:0:
216,96,9114,1,0,0:0:0:0:
216,96,9197,1,0,0:0:0:0:
392,324,9364,6,0,L|444:288,2,50
440,112,9697,2,0,P|376:68|340:76,1,100
72,112,10031,2,0,P|136:68|172:76,1,100
256,336,10364,2,0,L|256:200,1,100
252,48,10697,5,0,0:0:0:0:
252,48,11031,1,0,0:0:0:0:
364,156,11197,1,0,0:0:0:0:
364,156,11281,2,0,P|344:208|252:232,1,150
252,80,11697,1,0,0:0:0:0:
252,80,11781,1,0,0:0:0:0:
252,80,11864,1,0,0:0:0:0:
112,160,12031,6,0,L|56:200,2,50
196,300,12364,2,0,L|328:344,1,100
420,272,12697,1,0,0:0:0:0:
420,272,12781,1,0,0:0:0:0:
420,272,12864,2,0,L|316:228,1,100
192,72,13197,5,0,0:0:0:0:
12,292,13364,2,0,L|52:252,2,50
272,308,13697,1,0,0:0:0:0:
164,208,13864,1,0,0:0:0:0:
328,184,14031,1,0,0:0:0:0:
108,320,14197,1,0,0:0:0:0:
60,56,14364,1,0,0:0:0:0:
276,256,14531,5,0,0:0:0:0:
500,92,14698,2,0,L|460:132,2,50
240,76,15031,1,0,0:0:0:0:
348,176,15198,1,0,0:0:0:0:
184,200,15365,1,0,0:0:0:0:
404,64,15531,1,0,0:0:0:0:
452,328,15698,1,0,0:0:0:0:
208,312,15864,5,0,0:0:0:0:
108,96,16031,1,0,0:0:0:0:
108,96,16114,1,0,0:0:0:0:
108,96,16197,2,0,P|184:84|240:108,1,100
413,111,16531,2,0,P|385:183|336:220,1,100
246,368,16864,2,0,P|198:308|191:247,1,100
324,92,17197,5,0,0:0:0:0:
80,232,17364,2,0,L|20:240,2,50
352,256,17697,1,0,0:0:0:0:
148,56,17864,1,0,0:0:0:0:
212,336,18031,2,0,L|168:308,2,50
224,184,18364,5,0,0:0:0:0:
276,268,18531,1,0,0:0:0:0:
276,268,18614,1,0,0:0:0:0:
276,268,18697,1,0,0:0:0:0:
332,184,18864,1,0,0:0:0:0:
416,236,19031,1,0,0:0:0:0:
428,136,19197,1,0,0:0:0:0:
312,92,19364,1,0,0:0:0:0:
312,92,19447,1,0,0:0:0:0:
312,92,19531,1,0,0:0:0:0:
332,184,19697,1,0,0:0:0:0:
272,272,19864,5,0,0:0:0:0:
271,291,19947,1,0,0:0:0:0:
266,311,20031,1,0,0:0:0:0:
256,328,20114,1,0,0:0:0:0:
243,343,20197,1,0,0:0:0:0:
226,355,20281,1,0,0:0:0:0:
207,362,20364,1,0,0:0:0:0:
188,365,20447,1,0,0:0:0:0:
168,363,20531,1,0,0:0:0:0:
149,356,20614,1,0,0:0:0:0:
132,346,20697,1,0,0:0:0:0:
118,332,20781,1,0,0:0:0:0:
107,314,20864,1,0,0:0:0:0:
101,295,20947,1,0,0:0:0:0:
100,276,21031,1,0,0:0:0:0:
103,256,21114,1,0,0:0:0:0:
110,237,21197,5,0,0:0:0:0:
284,148,21364,1,0,0:0:0:0:
24,104,21531,1,0,0:0:0:0:
204,36,21697,1,0,0:0:0:0:
108,236,21864,1,0,0:0:0:0:
108,236,21947,1,0,0:0:0:0:
108,236,22031,1,0,0:0:0:0:
108,236,22114,1,0,0:0:0:0:
108,236,22197,2,0,P|184:208|204:96,1,200
316,48,22697,5,0,0:0:0:0:
428,96,22864,2,0,P|472:148|464:240,1,119.999996337891
329,353,23197,2,0,P|288:310|280:252,1,119.999996337891
248,96,23531,1,0,0:0:0:0:
120,320,23697,1,0,0:0:0:0:
88,160,23864,5,0,0:0:0:0:
280,252,24031,2,0,P|332:288|392:292,1,119.999996337891
439,86,24364,2,0,P|415:140|368:176,2,119.999996337891
328,44,24864,1,0,0:0:0:0:
176,220,25031,1,0,0:0:0:0:
232,116,25197,5,0,0:0:0:0:
72,280,25364,1,0,0:0:0:0:
72,280,25531,2,0,P|8:264|-12:208,1,119.999996337891
252,204,25864,2,0,P|316:188|336:132,2,119.999996337891
132,60,26364,1,0,0:0:0:0:
32,144,26531,5,0,0:0:0:0:
228,272,26697,1,0,0:0:0:0:
136,360,26864,1,0,0:0:0:0:
120,224,27031,1,0,0:0:0:0:
232,136,27197,1,0,0:0:0:0:
360,200,27364,1,0,0:0:0:0:
360,200,27447,1,0,0:0:0:0:
360,200,27531,2,0,L|400:316,1,119.999996337891
176,348,27864,5,0,0:0:0:0:
176,153,28031,1,0,0:0:0:0:
61,310,28197,1,0,0:0:0:0:
246,250,28364,1,0,0:0:0:0:
61,190,28531,1,0,0:0:0:0:
176,348,28697,1,0,0:0:0:0:
176,348,28781,1,0,0:0:0:0:
176,348,28864,2,0,P|260:352|300:340,1,119.999996337891
450,208,29197,6,0,P|446:267|412:316,1,119.999996337891
302,116,29531,2,0,P|302:174|340:220,1,119.999996337891
244,328,29864,1,0,0:0:0:0:
144,232,30031,1,0,0:0:0:0:
144,232,30114,1,0,0:0:0:0:
144,232,30197,1,0,0:0:0:0:
192,104,30364,1,0,0:0:0:0:
312,40,30531,6,0,P|376:56|392:148,1,119.999996337891
200,344,30864,2,0,P|136:328|120:236,1,119.999996337891
400,283,31197,2,0,P|369:333|312:344,1,119.999996337891
111,100,31530,2,0,P|142:50|200:40,1,119.999996337891
284,128,31864,5,0,0:0:0:0:
304,248,32031,1,0,0:0:0:0:
168,176,32197,1,0,0:0:0:0:
200,292,32364,1,0,0:0:0:0:
200,292,32447,1,0,0:0:0:0:
200,292,32531,2,0,P|256:332|340:324,1,119.999996337891
424,320,32864,1,0,0:0:0:0:
464,208,33031,1,0,0:0:0:0:
464,208,33114,1,0,0:0:0:0:
464,208,33197,6,0,P|440:140|364:108,1,119.999996337891
145,199,33531,1,0,0:0:0:0:
316,199,33697,1,0,0:0:0:0:
59,113,33864,1,0,0:0:0:0:
231,114,34031,1,0,0:0:0:0:
54,262,34197,1,0,0:0:0:0:
226,263,34364,1,0,0:0:0:0:
140,348,34531,5,0,0:0:0:0:
311,348,34697,1,0,0:0:0:0:
408,120,34864,2,0,L|444:64,2,59.9999981689454
200,192,35197,2,0,P|254:169|313:177,1,119.999996337891
232,320,35531,2,0,P|177:342|118:334,1,119.999996337891
76,220,35864,1,0,0:0:0:0:
63,199,35947,1,0,0:0:0:0:
56,176,36031,1,0,0:0:0:0:
55,152,36114,1,0,0:0:0:0:
60,129,36197,1,0,0:0:0:0:
70,107,36281,1,0,0:0:0:0:
86,89,36364,1,0,0:0:0:0:
106,75,36447,1,0,0:0:0:0:
128,67,36531,1,0,0:0:0:0:
152,64,36614,1,0,0:0:0:0:
176,67,36697,1,0,0:0:0:0:
198,77,36781,1,0,0:0:0:0:
222,84,36864,5,0,0:0:0:0:
245,94,36947,1,0,0:0:0:0:
269,97,37031,1,0,0:0:0:0:
292,94,37114,1,0,0:0:0:0:
256,192,37197,12,0,38197,0:0:0:0:
444,56,38531,5,0,0:0:0:0:
320,96,38697,1,0,0:0:0:0:
320,96,38781,1,0,0:0:0:0:
320,96,38864,2,0,P|264:56|192:60,1,100
110,266,39197,1,0,0:0:0:0:
360,267,39364,1,0,0:0:0:0:
109,122,39531,1,0,0:0:0:0:
359,123,39697,1,0,0:0:0:0:
234,339,39864,5,0,0:0:0:0:
236,52,40031,1,0,0:0:0:0:
236,52,40114,1,0,0:0:0:0:
236,52,40197,1,0,0:0:0:0:
244,252,40364,1,0,0:0:0:0:
156,184,40531,1,0,0:0:0:0:
316,132,40697,1,0,0:0:0:0:
316,132,40781,1,0,0:0:0:0:
316,132,40864,2,0,P|368:152|440:136,1,100
424,196,41114,1,0,0:0:0:0:
440,244,41197,1,0,0:0:0:0:
392,332,41364,1,0,0:0:0:0:
392,332,41447,1,0,0:0:0:0:
392,332,41531,1,0,0:0:0:0:
292,320,41697,1,0,0:0:0:0:
196,292,41864,1,0,0:0:0:0:
96,284,42031,1,0,0:0:0:0:
48,280,42114,1,0,0:0:0:0:
48,280,42197,1,0,0:0:0:0:
16,184,42364,1,0,0:0:0:0:
16,84,42531,1,0,0:0:0:0:
180,140,42697,1,0,0:0:0:0:
196,40,42781,1,0,0:0:0:0:
196,40,42864,1,0,0:0:0:0:
196,40,43031,1,0,0:0:0:0:
196,88,43114,1,0,0:0:0:0:
280,96,43197,1,0,0:0:0:0:
300,192,43364,1,0,0:0:0:0:
300,240,43447,1,0,0:0:0:0:
300,240,43531,1,0,0:0:0:0:
232,316,43697,1,0,0:0:0:0:
264,280,43781,1,0,0:0:0:0:
232,316,43864,1,0,0:0:0:0:
136,292,44031,1,0,0:0:0:0:
88,204,44197,1,0,0:0:0:0:
432,336,44364,1,0,0:0:0:0:
416,236,44531,1,0,0:0:0:0:
412,136,44697,1,0,0:0:0:0:
344,208,44864,1,0,0:0:0:0:
312,304,45031,1,0,0:0:0:0:
216,276,45197,1,0,0:0:0:0:
344,208,45364,1,0,0:0:0:0:
392,220,45447,1,0,0:0:0:0:
404,172,45531,1,0,0:0:0:0:
380,128,45614,1,0,0:0:0:0:
228,104,45697,1,0,0:0:0:0:
168,184,45864,1,0,0:0:0:0:
80,136,46031,1,0,0:0:0:0:
52,232,46197,1,0,0:0:0:0:
48,332,46364,1,0,0:0:0:0:
148,336,46531,1,0,0:0:0:0:
444,280,47031,1,0,0:0:0:0:
364,220,47197,1,0,0:0:0:0:
276,268,47364,1,0,0:0:0:0:
256,168,47531,1,0,0:0:0:0:
196,248,47697,1,0,0:0:0:0:
152,160,47864,1,0,0:0:0:0:
216,84,48031,1,0,0:0:0:0:
376,204,48364,1,0,0:0:0:0:
348,300,48531,1,0,0:0:0:0:
248,288,48697,1,0,0:0:0:0:
152,260,48864,1,0,0:0:0:0:
188,116,59864,6,0,L|224:224,1,100
300,152,60197,2,0,L|504:72,1,200
508,176,60697,2,0,L|416:244,1,100
352,300,61031,2,0,L|224:280,1,100
156,300,61364,2,0,P|180:224|112:136,1,200
212,148,61864,2,0,L|320:104,1,100
304,212,62197,2,0,L|240:308,1,100
348,284,62531,2,0,L|464:252,1,100
416,160,62864,2,0,P|304:80|220:108,1,200
284,184,63364,2,0,L|188:248,1,100
124,176,63697,2,0,L|20:120,1,100
32,228,64031,2,0,L|60:344,1,100
256,324,64531,2,0,L|404:308,1,100
448,272,64864,2,0,L|460:144,1,100
424,80,65197,2,0,L|312:92,1,100
224,100,65531,2,0,P|112:72|60:132,1,200
148,180,66031,2,0,L|232:284,1,100
308,280,66364,2,0,L|400:224,1,100
304,180,66697,1,0,0:0:0:0:
212,136,66864,2,0,L|-16:144,1,200
88,208,67364,2,0,L|180:292,1,100
244,332,67697,2,0,L|324:248,1,100
456,248,68197,1,0,0:0:0:0:
360,72,68531,2,0,L|148:128,1,200
156,324,69197,2,0,L|356:212,1,200
152,140,69864,1,0,0:0:0:0:
172,184,70031,1,0,0:0:0:0:
172,184,70197,1,0,0:0:0:0:
372,160,70531,2,0,P|308:100|184:104,1,200,4|0,0:0|0:0,0:0:0:0:
