osu file format v11

[General]
AudioFilename: 03 COZIMC DRIVE feat..mp3
AudioLeadIn: 0
PreviewTime: -1
Countdown: 0
SampleSet: Normal
StackLeniency: 0.7
Mode: 0
LetterboxInBreaks: 1

[Editor]
DistanceSpacing: 0.1
BeatDivisor: 8
GridSize: 32

[Metadata]
Title:COZMIC DRIVE feat.Youko
TitleUnicode:COZMIC DRIVE feat. 妖狐
Artist:Tamaonsen
ArtistUnicode:魂音泉
Creator:caren_sk
Version:CRN MORE DRIVE
Source:Touhou
Tags:
BeatmapID:220330
BeatmapSetID:78859

[Difficulty]
HPDrainRate:7
CircleSize:4
OverallDifficulty:8
ApproachRate:9
SliderMultiplier:1.09999990463257
SliderTickRate:1

[Events]
//Background and Video events
0,0,"BG.jpg"
//Break Periods
2,77075,89400
2,152075,164400
//Storyboard Layer 0 (Background)
//Storyboard Layer 1 (Fail)
//Storyboard Layer 2 (Pass)
//Storyboard Layer 3 (Foreground)
//Storyboard Sound Samples
//Background Colour Transformations
3,100,163,162,255

[TimingPoints]
0,234.375,4,1,1,50,1,0
1875,-200,4,2,1,50,0,0
30000,-200,4,1,1,20,0,0
31406,-100,4,1,1,50,0,0
31875,-66.6666666666667,4,1,1,50,0,0
90000,-66.6666666666667,4,1,1,5,0,0
91875,-50,4,1,1,70,0,1
120000,-66.6666666666667,4,1,1,50,0,0
142675,-66.6666666666667,4,1,1,5,0,0
142734,-66.6666666666667,4,1,1,50,0,0
165000,-66.6666666666667,4,1,1,5,0,0
166875,-50,4,1,1,70,0,1
196875,-66.6666666666667,4,1,1,50,0,0
211757,-66.6666666666667,4,1,1,5,0,0
211875,-66.6666666666667,4,1,1,50,0,0
225234,-66.6666666666667,4,2,1,80,0,0
226406,-66.6666666666667,4,2,1,100,0,0
226875,-66.6666666666667,4,1,1,5,0,0
228750,117.1875,4,1,1,50,1,0
228750,-86.9565217391304,4,1,1,70,0,1
258398,-100,4,1,1,50,0,1
258750,-100,4,1,1,50,0,0
295781,-100,4,1,1,5,0,0

[Colours]
Combo1 : 255,0,0
Combo2 : 0,200,0
Combo3 : 81,81,255
Combo4 : 200,0,200
Combo5 : 255,255,0

[HitObjects]
256,320,1875,1,2,0:0:0
32,32,3750,1,2,0:0:0
480,32,4687,1,2,0:0:0
256,320,5625,1,2,0:0:0
32,224,7500,1,2,0:0:0
480,224,8437,1,2,0:0:0
256,32,9375,5,2,0:0:0
256,352,11250,1,2,0:0:0
256,64,12187,1,2,0:0:0
256,352,13125,1,2,0:0:0
64,320,15000,1,2,0:0:0
448,64,15937,1,2,0:0:0
256,32,16875,5,2,0:0:0
32,192,17343,1,2,0:0:0
256,352,17812,1,2,0:0:0
480,192,18281,1,2,0:0:0
256,32,18750,1,2,0:0:0
32,192,19218,1,2,0:0:0
256,352,19687,1,2,0:0:0
480,192,20156,1,2,0:0:0
32,32,20625,5,2,0:0:0
480,64,21093,1,2,0:0:0
32,128,21562,1,2,0:0:0
480,160,22031,1,2,0:0:0
256,352,22500,1,2,0:0:0
64,64,22968,1,2,0:0:0
448,64,23437,1,2,0:0:0
320,192,23671,1,2,0:0:0
448,256,23906,1,2,0:0:0
416,288,24023,1,2,0:0:0
384,320,24140,1,2,0:0:0
256,32,24375,5,2,0:0:0
32,192,24843,1,2,0:0:0
256,352,25312,1,2,0:0:0
480,192,25781,1,2,0:0:0
64,320,26250,1,2,0:0:0
416,64,26718,1,2,0:0:0
128,384,27187,1,2,0:0:0
320,32,27656,1,2,0:0:0
160,256,27890,1,2,0:0:0
448,192,28125,5,2,0:0:0
256,352,28593,1,2,0:0:0
32,192,29062,1,2,0:0:0
256,32,29531,1,2,0:0:0
448,192,30000,6,0,P|438:224,1,27.4999976158142
334,325,30234,6,0,P|302:315,1,27.4999976158142
176,226,30468,6,0,P|186:194,1,27.4999976158142
331,75,30703,6,0,P|363:85,1,27.4999976158142
190,129,30937,2,0,P|105:143,1,82.4999928474425
347,211,31406,2,0,P|533:173,1,164.999985694885
300,9,31875,6,0,P|264:93|291:175,1,164.999991989135,6|0,0:0|0:0,0:0:0
417,294,32226,1,0,0:0:0
325,359,32343,2,0,P|274:341|220:341,2,82.4999959945678,2|0|2,0:0|0:0|0:0,0:0:0
219,253,32695,1,0,0:0:0
71,347,32812,2,0,P|57:311|65:255,1,82.4999959945678,2|0,0:0|0:0,0:0:0
16,151,33046,2,0,P|54:156|98:191,1,82.4999959945678
292,213,33281,2,0,P|202:256|113:233,1,164.999991989136,2|0,0:0|0:0,0:0:0
140,247,33632,1,0,0:0:0
300,369,33750,6,0,P|354:295|365:198,1,164.999991989136,2|0,0:0|0:0,0:0:0
384,59,34101,2,0,P|366:104|370:146,1,82.4999959945678,0|2,0:0|0:0,0:0:0
490,192,34335,1,0,0:0:0
490,192,34453,2,0,P|508:147|504:105,1,82.4999959945678,2|0,0:0|0:0,0:0:0
384,59,34687,2,0,P|261:98|147:64,1,247.499987983704,2|0,0:0|0:0,0:0:0
6,21,35156,1,2,0:0:0
83,99,35273,1,0,0:0:0
8,189,35390,1,2,0:0:0
127,218,35507,1,0,0:0:0
77,301,35625,6,0,P|109:375|198:378,1,164.999991989136,2|0,0:0|0:0,0:0:0
282,291,35976,1,0,0:0:0
381,357,36093,2,0,P|484:348,1,82.4999959945678
352,188,36328,2,0,P|249:197,2,82.4999959945678,0|0|2,0:0|0:0|0:0,0:0:0
495,107,36679,1,0,0:0:0
441,293,36796,2,0,P|343:256,1,82.4999959945678,0|0,0:0|0:0,0:0:0
136,136,37031,2,0,P|50:165|-12:239,1,164.999991989136,2|0,0:0|0:0,0:0:0
56,52,37382,1,0,0:0:0
172,253,37500,6,0,P|221:191|236:114|227:42|210:19,1,247.499987983704,6|0,0:0|0:0,0:0:0
390,76,37968,2,0,P|366:121|369:155,1,82.4999959945678
384,283,38203,1,0,0:0:0
498,237,38320,1,0,0:0:0
463,357,38437,2,0,P|393:377|339:376|287:347,1,164.999991989136,6|0,0:0|0:0,0:0:0
71,283,38789,2,0,P|179:276,1,82.4999959945678,0|2,0:0|0:0,0:0:0
253,159,39023,2,0,P|145:166,1,82.4999959945678,0|2,0:0|0:0,0:0:0
1,91,39257,1,0,0:0:0
113,24,39375,6,0,P|189:54|275:35,1,164.999991989136,6|0,0:0|0:0,0:0:0
472,54,39726,2,0,P|435:94|389:107,1,82.4999959945678,0|2,0:0|0:0,0:0:0
252,160,39960,2,0,P|254:203|280:244,1,82.4999959945678,0|0,0:0|0:0,0:0:0
234,350,40195,2,0,P|131:357,1,82.4999959945678,0|2,0:0|0:0,0:0:0
73,205,40429,2,0,P|66:271|46:316|-24:365,1,164.999991989136
161,227,40781,2,0,P|168:161|188:116|258:67,1,164.999991989136,2|0,0:0|0:0,0:0:0
371,15,41132,1,0,0:0:0
371,15,41250,6,0,P|399:44|439:55,1,82.4999959945678,2|0,0:0|0:0,0:0:0
500,146,41484,1,0,0:0:0
392,132,41601,2,0,P|369:172|366:210,1,82.4999959945678
430,329,41835,1,0,0:0:0
331,380,41953,2,0,P|284:367|257:337,1,82.4999959945678,2|0,0:0|0:0,0:0:0
88,248,42187,2,0,P|87:293|65:338,1,82.4999959945678,2|0,0:0|0:0,0:0:0
292,267,42421,1,0,0:0:0
177,326,42539,2,0,P|163:253|190:181|241:128|305:124,1,247.499987983704,2|0,0:0|0:0,0:0:0
443,27,43007,1,0,0:0:0
443,27,43125,6,0,P|417:68|370:101,1,82.4999959945678,2|0,0:0|0:0,0:0:0
285,127,43359,2,0,P|237:125|187:109,1,82.4999959945678
78,35,43593,2,0,P|73:147,2,82.4999959945678,2|0|2,0:0|0:0|0:0,0:0:0
138,192,43945,1,0,0:0:0
14,212,44062,2,0,P|44:277|162:284,1,164.999991989136,2|0,0:0|0:0,0:0:0
240,364,44414,1,0,0:0:0
241,364,44531,2,0,P|238:296|274:242|346:230,1,164.999991989136,2|2,0:0|0:0,0:0:0
433,94,44882,1,0,0:0:0
499,215,45000,1,2,0:0:0
82,91,46406,5,0,0:0:0
89,93,46523,1,0,0:0:0
96,96,46640,1,0,0:0:0
103,98,46757,1,0,0:0:0
110,100,46875,6,0,P|184:117|271:101,1,164.999991989136,6|0,0:0|0:0,0:0:0
377,196,47226,1,0,0:0:0
477,136,47343,2,0,P|490:180|467:257,1,123.749993991852
448,311,47578,2,0,P|351:292,1,82.4999959945678,2|0,0:0|0:0,0:0:0
186,276,47812,2,0,P|197:374,2,82.4999959945678
209,45,48164,1,0,0:0:0
83,194,48281,2,0,P|123:203|178:191,1,82.4999959945678,2|0,0:0|0:0,0:0:0
274,262,48515,2,0,P|261:222|223:181,1,82.4999959945678,2|0,0:0|0:0,0:0:0
210,45,48750,6,0,P|170:103|164:200,1,164.999991989136,2|0,0:0|0:0,0:0:0
200,348,49101,1,0,0:0:0
200,348,49218,2,0,P|161:366|109:373,1,82.4999959945678,0|2,0:0|0:0,0:0:0
368,227,49453,1,0,0:0:0
296,348,49570,2,0,P|368:380|463:377,1,164.999991989136,2|0,0:0|0:0,0:0:0
512,286,49921,1,0,0:0:0
512,286,50039,2,0,P|471:256|451:204,1,82.4999959945678,2|0,0:0|0:0,0:0:0
430,81,50273,2,0,P|421:124|431:171,2,82.4999959945678,2|0|2,0:0|0:0|0:0,0:0:0
347,26,50625,5,0,0:0:0
347,26,50742,1,0,0:0:0
216,107,50859,1,0,0:0:0
216,107,50976,1,2,0:0:0
314,149,51093,2,0,P|320:191|313:240,1,82.4999959945678,2|0,0:0|0:0,0:0:0
142,287,51328,2,0,P|136:329|143:378,1,82.4999959945678,2|0,0:0|0:0,0:0:0
315,230,51562,2,0,P|230:209|141:223,1,164.999991989136,2|0,0:0|0:0,0:0:0
45,311,51914,2,0,P|19:275|9:231,1,82.4999959945678,2|0,0:0|0:0,0:0:0
51,109,52148,5,0,0:0:0
51,109,52265,1,0,0:0:0
154,218,52382,2,0,P|179:184|186:141,1,82.4999959945678,0|2,0:0|0:0,0:0:0
338,26,52617,2,0,P|365:103|466:128,1,164.999991989136
512,282,52968,2,0,P|450:296|422:354,1,123.749993991852,2|0,0:0|0:0,0:0:0
375,372,53203,2,0,P|270:363,1,82.4999959945678
224,259,53437,2,0,P|329:268,1,82.4999959945678,2|0,0:0|0:0,0:0:0
462,163,53671,1,2,0:0:0
462,163,53789,2,0,P|342:155|272:126,1,164.999991989136,2|0,0:0|0:0,0:0:0
208,25,54140,1,0,0:0:0
208,25,54257,1,0,0:0:0
192,160,54375,5,0,0:0:0
52,237,54550,1,0,0:0:0
309,270,54726,1,0,0:0:0
160,320,54843,1,0,0:0:0
32,64,55195,5,0,0:0:0
32,64,55312,1,0,0:0:0
32,64,55429,2,0,P|73:82|122:82,1,82.4999959945678
366,37,55664,2,0,P|370:81|395:123,1,82.4999959945678,0|2,0:0|0:0,0:0:0
503,179,55898,2,0,P|438:205|329:182,1,164.999991989136,2|0,0:0|0:0,0:0:0
176,269,56250,1,0,0:0:0
176,269,56367,6,0,P|163:216|171:178,1,82.4999959945678,2|0,0:0|0:0,0:0:0
322,295,56601,1,2,0:0:0
322,295,56718,2,0,P|335:348|327:386,1,82.4999959945678,0|0,0:0|0:0,0:0:0
122,357,56953,2,0,P|77:276|98:195,1,164.999991989136,2|0,0:0|0:0,0:0:0
177,77,57304,2,0,P|140:103|120:140,1,82.4999959945678,2|0,0:0|0:0,0:0:0
256,128,57539,2,0,P|256:32,1,82.4999959945678,2|0,0:0|0:0,0:0:0
335,77,57773,2,0,P|372:103|392:140,2,82.4999959945678,2|0|0,0:0|0:0|0:0,0:0:0
403,212,58125,6,0,P|408:287|492:342,1,164.999991989136,2|0,0:0|0:0,0:0:0
331,327,58476,2,0,P|290:360|245:365,1,82.4999959945678
95,227,58710,1,0,0:0:0
19,328,58828,2,0,P|60:361|104:366,1,82.4999959945678
257,289,59062,2,0,P|209:215|245:118,1,164.999991989136,2|0,0:0|0:0,0:0:0
299,43,59414,2,0,P|413:51,1,82.4999959945678
127,92,59648,2,0,P|13:84,1,82.4999959945678
200,27,59882,1,0,0:0:0
332,188,60000,6,0,P|407:168|452:91,1,164.999991989136,2|0,0:0|0:0,0:0:0
180,196,60351,2,0,P|105:216|60:293,1,164.999991989136,2|0,0:0|0:0,0:0:0
60,286,60703,1,0,0:0:0
60,286,60820,1,0,0:0:0
60,286,60937,2,0,P|146:353|168:353,1,123.749993991852,2|0,0:0|0:0,0:0:0
213,358,61171,2,0,P|244:317|229:267,1,82.4999959945678
307,229,61406,2,0,P|359:236|394:198,1,82.4999959945678,2|0,0:0|0:0,0:0:0
512,285,61640,2,0,P|492:238|442:226,1,82.4999959945678,2|0,0:0|0:0,0:0:0
384,60,61875,6,0,P|366:138|388:233,1,164.999991989136,6|0,0:0|0:0,0:0:0
381,220,62226,1,0,0:0:0
253,162,62343,2,0,P|208:176|162:164,1,82.4999959945678,2|0,0:0|0:0,0:0:0
174,169,62578,1,0,0:0:0
259,5,62695,2,0,P|289:80|366:129,1,164.999991989136
356,126,63046,1,0,0:0:0
356,126,63164,1,0,0:0:0
384,13,63281,1,0,0:0:0
472,74,63398,1,0,0:0:0
472,74,63515,6,0,P|499:152|461:221,1,164.999991989136,0|0,0:0|0:0,0:0:0
394,313,63867,2,0,P|490:296,1,82.4999959945678
329,369,64101,2,0,P|301:283,1,82.4999959945678
356,127,64335,2,0,P|276:139|219:228,1,164.999991989136
127,313,64687,2,0,P|179:309|207:293,2,82.4999959945678,2|0|0,0:0|0:0|0:0,0:0:0
39,367,65039,2,0,P|-19:182,1,164.999991989136,2|0,0:0|0:0,0:0:0
153,231,65390,1,0,0:0:0
153,231,65507,1,0,0:0:0
359,372,65625,6,0,P|427:336|455:251,1,164.999991989136,2|0,0:0|0:0,0:0:0
410,71,65976,2,0,P|378:97|370:135,1,82.4999959945678
356,254,66210,1,0,0:0:0
458,175,66328,1,0,0:0:0
275,152,66445,6,0,P|241:196|234:234,1,82.4999959945678,2|0,0:0|0:0,0:0:0
224,367,66679,1,0,0:0:0
68,325,66796,1,0,0:0:0
224,366,66914,2,0,P|258:322|265:284,1,82.4999959945678,0|2,0:0|0:0,0:0:0
108,255,67148,2,0,P|74:299|67:337,1,82.4999959945678
235,222,67382,1,0,0:0:0
350,306,67500,6,0,P|384:179|350:47,1,247.499987983704,2|0,0:0|0:0,0:0:0
260,19,67968,2,0,P|215:28|169:20,1,82.4999959945678
67,110,68203,2,0,P|112:101|158:109,1,82.4999959945678
293,177,68437,2,0,P|221:195|101:176,3,164.999991989136,2|2|2|2,0:0|0:0|0:0|0:0,0:0:0
87,309,69257,5,0,0:0:0
314,357,69375,1,0,0:0:0
503,200,69550,1,0,0:0:0
421,98,69726,1,0,0:0:0
503,200,69843,2,0,P|422:215|315:194,1,164.999991989136
77,120,70195,6,0,P|62:202,1,82.4999959945678
142,64,70429,2,0,P|162:155,1,82.4999959945678
214,35,70664,2,0,P|293:73,1,82.4999959945678
417,127,70898,2,0,P|407:79|420:22,1,82.4999959945678
503,200,71132,1,0,0:0:0
503,200,71250,6,0,P|456:257|457:358,1,164.999991989136,2|0,0:0|0:0,0:0:0
339,248,71601,5,0,0:0:0
305,351,71718,1,2,0:0:0
218,278,71835,1,0,0:0:0
339,248,71953,5,0,0:0:0
305,351,72070,1,0,0:0:0
218,278,72187,1,2,0:0:0
339,248,72304,5,0,0:0:0
305,351,72421,1,2,0:0:0
218,278,72538,1,0,0:0:0
339,248,72656,5,2,0:0:0
305,351,72773,1,0,0:0:0
218,278,72890,2,0,P|196:318|154:340,1,82.4999959945678
73,364,73125,6,0,P|21:319|21:226,1,164.999991989136,2|0,0:0|0:0,0:0:0
97,123,73476,2,0,P|-17:128,2,82.4999959945678
176,35,73828,1,0,0:0:0
334,158,73945,2,0,P|383:101|399:7,1,164.999991989136,2|0,0:0|0:0,0:0:0
399,14,74296,5,0,0:0:0
482,108,74414,1,0,0:0:0
417,193,74531,1,0,0:0:0
498,267,74648,1,0,0:0:0
498,267,74765,1,0,0:0:0
349,239,74882,6,0,P|255:256,1,82.4999959945678,0|2,0:0|0:0,0:0:0
129,299,75117,1,0,0:0:0
129,299,75234,2,0,P|172:369,1,82.4999959945678
56,183,75468,1,2,0:0:0
56,183,75585,2,0,P|10:251,1,82.4999959945678,0|2,0:0|0:0,0:0:0
175,170,75820,6,0,P|135:98|52:73,1,164.999991989136,2|0,0:0|0:0,0:0:0
261,29,76171,2,0,P|271:120,1,82.4999959945678,2|0,0:0|0:0,0:0:0
375,143,76406,2,0,P|421:62,1,82.4999959945678,2|0,0:0|0:0,0:0:0
286,228,76640,2,0,P|366:273,1,82.4999959945678,2|0,0:0|0:0,0:0:0
499,330,76875,1,6,0:0:0
256,192,90000,5,0,0:0:0
256,192,90468,1,0,0:0:0
256,192,90937,1,0,0:0:0
256,192,90996,12,0,91757,0:0:0
257,192,91875,6,0,P|344:224|475:205,1,219.999980926514,6|0,0:0|0:0,0:0:0
226,95,92226,1,0,0:0:0
340,318,92343,2,0,P|253:350|122:331,1,219.999980926514,2|0,0:0|0:0,0:0:0
33,242,92694,1,0,0:0:0
169,254,92812,2,0,P|193:201|178:145,1,109.999990463257,2|0,0:0|0:0,0:0:0
297,31,93046,2,0,P|273:84|288:140,1,109.999990463257
334,213,93281,1,2,0:0:0
456,179,93398,1,0,0:0:0
334,213,93515,1,2,0:0:0
456,179,93632,1,0,0:0:0
334,213,93750,6,0,P|381:329|490:361,1,219.999980926514,6|0,0:0|0:0,0:0:0
256,96,94101,1,0,0:0:0
178,213,94218,2,0,P|131:329|22:361,1,219.999980926514,2|0,0:0|0:0,0:0:0
256,96,94569,1,0,0:0:0
334,213,94687,6,0,P|448:192,1,109.999990463257,2|0,0:0|0:0,0:0:0
113,47,94921,2,0,P|142:97|195:128,1,109.999990463257
178,213,95156,2,0,P|64:192,1,109.999990463257,2|0,0:0|0:0,0:0:0
325,129,95390,2,0,P|354:79|407:48,1,109.999990463257
178,213,95625,6,0,P|150:299|58:345|-8:340,1,219.999980926514,6|0,0:0|0:0,0:0:0
254,279,95976,1,0,0:0:0
254,279,96093,2,0,P|372:297|486:281,1,219.999980926514,2|0,0:0|0:0,0:0:0
510,137,96444,1,0,0:0:0
397,200,96562,2,0,P|278:165,1,109.999990463257,2|0,0:0|0:0,0:0:0
115,184,96796,2,0,P|234:219,1,109.999990463257
12,242,97031,2,0,P|4:176|25:120,2,109.999990463257,2|0|2,0:0|0:0|0:0,0:0:0
116,31,97382,5,0,0:0:0
116,31,97500,2,0,P|214:72|319:19,1,219.999980926514,2|0,0:0|0:0,0:0:0
497,101,97851,1,0,0:0:0
497,101,97969,2,0,P|456:199|509:304,1,219.999980926514,2|0,0:0|0:0,0:0:0
336,217,98319,1,0,0:0:0
333,379,98437,2,0,P|467:364,1,109.999990463257,2|0,0:0|0:0,0:0:0
267,278,98671,1,2,0:0:0
250,318,98789,1,0,0:0:0
224,353,98906,2,0,P|109:370|4:243|50:124,1,329.999971389771,2|0,0:0|0:0,0:0:0
201,42,99375,6,0,P|214:156|130:232,1,219.999980926514,6|0,0:0|0:0,0:0:0
78,39,99726,1,0,0:0:0
0,157,99843,2,0,P|247:128,1,219.999980926514,2|0,0:0|0:0,0:0:0
455,101,100194,1,0,0:0:0
336,8,100312,2,0,P|331:66|357:135,1,109.999990463257,2|0,0:0|0:0,0:0:0
465,207,100546,2,0,P|470:149|444:80,1,109.999990463257
308,252,100781,1,2,0:0:0
458,329,100898,1,0,0:0:0
458,329,101015,1,2,0:0:0
376,179,101132,1,0,0:0:0
340,318,101250,22,0,P|240:369|141:335,1,219.999980926514,6|0,0:0|0:0,0:0:0
33,177,101601,1,0,0:0:0
76,379,101718,2,0,P|21:265|36:171,1,219.999980926514,2|0,0:0|0:0,0:0:0
112,26,102069,1,0,0:0:0
163,151,102187,2,0,P|211:115|218:44,1,109.999990463257,2|0,0:0|0:0,0:0:0
196,257,102421,2,0,P|95:210,1,109.999990463257
349,233,102656,2,0,P|301:269|294:340,1,109.999990463257,2|0,0:0|0:0,0:0:0
316,127,102890,2,0,P|417:174,1,109.999990463257
491,298,103125,6,0,P|440:374|318:376,1,219.999980926514,6|0,0:0|0:0,0:0:0
123,214,103476,1,0,0:0:0
21,298,103593,2,0,P|72:374|194:376,1,219.999980926514,2|0,0:0|0:0,0:0:0
389,214,103945,1,0,0:0:0
199,287,104062,2,0,P|146:255|119:202,1,109.999990463257,2|0,0:0|0:0,0:0:0
313,287,104296,2,0,P|366:255|393:202,1,109.999990463257
256,160,104531,2,0,P|256:288,2,109.999990463257,2|0|2,0:0|0:0|0:0,0:0:0
256,0,104882,1,0,0:0:0
154,50,105000,6,0,P|279:90|368:28,1,219.999980926514,6|0,0:0|0:0,0:0:0
416,192,105351,1,0,0:0:0
358,334,105468,2,0,P|233:294|144:356,1,219.999980926514,6|0,0:0|0:0,0:0:0
64,192,105820,1,0,0:0:0
327,237,105937,6,0,P|349:168|329:128,1,109.999990463257,2|0,0:0|0:0,0:0:0
185,147,106171,2,0,P|163:216|183:256,1,109.999990463257,2|0,0:0|0:0,0:0:0
357,335,106406,2,0,P|180:378|32:269,1,329.999971389771,6|0,0:0|0:0,0:0:0
239,302,106875,6,0,P|329:232|338:123,1,219.999980926514,6|0,0:0|0:0,0:0:0
333,12,107226,1,0,0:0:0
457,99,107343,2,0,P|370:131|239:112,1,219.999980926514,2|0,0:0|0:0,0:0:0
34,36,107694,1,0,0:0:0
20,140,107812,2,0,P|139:126,1,109.999990463257,2|0,0:0|0:0,0:0:0
253,27,108046,2,0,P|134:41,1,109.999990463257
161,237,108281,1,2,0:0:0
231,167,108398,1,0,0:0:0
271,257,108515,1,2,0:0:0
341,187,108632,1,0,0:0:0
380,278,108750,6,0,P|463:289|498:226|479:171|422:137,1,219.999980926514,6|0,0:0|0:0,0:0:0
166,39,109101,1,0,0:0:0
166,39,109218,2,0,P|83:28|48:91|67:146|124:180,1,219.999980926514,6|0,0:0|0:0,0:0:0
271,257,109569,1,4,0:0:0
171,382,109687,5,6,0:0:0
171,382,109804,1,0,0:0:0
268,144,109921,1,6,0:0:0
268,144,110039,1,0,0:0:0
410,209,110156,2,0,P|465:140|429:66,1,164.999985694885,6|0,0:0|0:0,0:0:0
440,75,110390,2,0,P|308:113,1,109.999990463257,2|0,0:0|0:0,0:0:0
246,233,110625,6,0,P|160:140|163:33,1,219.999980926514,6|0,0:0|0:0,0:0:0
73,244,110976,1,0,0:0:0
267,143,111093,2,0,P|353:236|350:343,1,219.999980926514,2|0,0:0|0:0,0:0:0
463,144,111444,1,0,0:0:0
92,347,111562,2,0,P|66:285|88:217,1,109.999990463257,2|0,0:0|0:0,0:0:0
420,347,111796,2,0,P|446:285|424:217,1,109.999990463257
256,384,112031,2,0,P|256:256,2,109.999990463257,2|0|2,0:0|0:0|0:0,0:0:0
175,103,112382,1,0,0:0:0
276,162,112500,6,0,P|163:213|57:152,1,219.999980926514,2|0,0:0|0:0,0:0:0
55,79,112851,1,0,0:0:0
8,236,112968,1,2,0:0:0
8,236,113085,1,0,0:0:0
163,285,113203,1,2,0:0:0
93,366,113320,2,0,P|158:382|233:362,1,109.999990463257,0|2,0:0|0:0,0:0:0
292,244,113554,1,0,0:0:0
374,337,113671,2,0,P|391:217,1,109.999990463257,2|0,0:0|0:0,0:0:0
500,45,113906,2,0,P|460:382,1,329.999971389771,2|2,0:0|0:0,0:0:0
383,273,114375,22,0,P|315:363|199:382,1,219.999980926514,6|0,0:0|0:0,0:0:0
8,234,114726,1,0,0:0:0
120,316,114843,2,0,P|96:80,1,219.999980926514,2|0,0:0|0:0,0:0:0
183,36,115194,1,0,0:0:0
200,140,115312,2,0,P|327:125,1,109.999990463257,2|0,0:0|0:0,0:0:0
472,197,115546,2,0,P|345:212,1,109.999990463257
234,229,115781,1,2,0:0:0
186,365,115898,1,0,0:0:0
331,335,116015,1,2,0:0:0
234,230,116132,1,0,0:0:0
80,321,116250,22,0,P|51:237|72:88,1,219.999980926514,6|0,0:0|0:0,0:0:0
191,22,116601,1,0,0:0:0
135,203,116718,2,0,P|385:180,1,219.999980926514,2|0,0:0|0:0,0:0:0
454,75,117069,1,0,0:0:0
512,277,117187,2,0,P|386:231,1,109.999990463257,2|0,0:0|0:0,0:0:0
359,29,117421,2,0,P|308:55|308:125,1,109.999990463257
136,203,117656,2,0,P|184:234|244:199,1,109.999990463257,2|0,0:0|0:0,0:0:0
443,331,117890,2,0,P|445:273|385:238,1,109.999990463257
328,145,118125,6,0,P|295:289|222:368,1,219.999980926514,6|0,0:0|0:0,0:0:0
136,203,118476,1,0,0:0:0
0,337,118593,2,0,P|125:383|214:355,1,219.999980926514,2|0,0:0|0:0,0:0:0
484,206,118944,1,0,0:0:0
336,317,119062,2,0,P|307:261|334:182,1,109.999990463257,2|0,0:0|0:0,0:0:0
242,105,119296,2,0,P|304:107|359:170,1,109.999990463257
464,144,119531,2,0,P|430:197|348:213,2,109.999990463257,2|0|2,0:0|0:0|0:0,0:0:0
494,58,119882,1,0,0:0:0
494,58,120000,21,6,0:0:0
64,192,120351,1,0,0:0:0
256,32,120703,1,0,0:0:0
352,128,120820,1,0,0:0:0
224,352,121054,5,0,0:0:0
128,288,121171,1,0,0:0:0
224,224,121289,1,0,0:0:0
320,288,121406,1,0,0:0:0
43,60,121875,6,0,P|78:120|165:163,1,164.999991989136,6|0,0:0|0:0,0:0:0
315,185,122226,1,0,0:0:0
201,291,122343,2,0,P|264:262|316:180,1,164.999991989136,2|0,0:0|0:0,0:0:0
418,51,122694,1,0,0:0:0
490,121,122812,1,0,0:0:0
416,182,122929,1,0,0:0:0
482,239,123046,2,0,P|466:307|409:353,1,123.749993991852
372,360,123281,6,0,P|280:345,1,82.4999959945678,2|0,0:0|0:0,0:0:0
286,230,123515,2,0,P|378:245,1,82.4999959945678
201,290,123750,1,2,0:0:0
170,198,123867,1,0,0:0:0
201,290,123984,2,0,P|152:315|120:314,1,82.4999959945678
5,286,124218,5,0,0:0:0
65,209,124335,1,0,0:0:0
23,113,124453,2,0,P|125:110,1,82.4999959945678
269,44,124687,2,0,P|215:66|209:148,1,123.749993991852,2|0,0:0|0:0,0:0:0
237,163,124921,2,0,P|331:181,1,82.4999959945678
512,149,125156,5,2,0:0:0
424,207,125273,2,0,P|416:160|434:96,1,82.4999959945678
426,40,125507,1,0,0:0:0
426,40,125625,2,0,P|346:65|264:40,1,164.999991989136,2|0,0:0|0:0,0:0:0
146,5,125976,5,0,0:0:0
212,129,126093,1,0,0:0:0
212,129,126210,1,0,0:0:0
112,94,126328,2,0,P|49:137|49:243,1,164.999991989136,2|0,0:0|0:0,0:0:0
82,371,126679,5,0,0:0:0
207,299,126796,1,0,0:0:0
207,299,126914,1,0,0:0:0
155,187,127031,1,2,0:0:0
48,284,127148,1,0,0:0:0
207,299,127265,2,0,P|290:254|318:192,1,164.999991989136,2|0,0:0|0:0,0:0:0
403,73,127617,5,0,0:0:0
403,73,127734,1,0,0:0:0
480,184,127851,2,0,P|440:191|399:186,1,82.4999959945678
289,297,128085,2,0,P|249:304|208:299,1,82.4999959945678
114,197,128320,1,0,0:0:0
15,259,128437,2,0,P|3:208|11:179,1,82.4999959945678,2|0,0:0|0:0,0:0:0
284,217,128671,2,0,P|296:268|288:297,1,82.4999959945678
323,382,128905,1,2,0:0:0
437,301,129023,1,2,0:0:0
323,381,129140,2,0,P|253:386|178:358,1,123.749993991852,2|0,0:0|0:0,0:0:0
166,345,129375,5,0,0:0:0
390,210,129550,1,0,0:0:0
180,90,129726,1,0,0:0:0
304,18,129843,2,0,P|314:81|289:145,2,123.749993991852
225,180,130312,5,0,0:0:0
318,266,130429,1,0,0:0:0
225,180,130546,2,0,P|187:210|175:248,1,82.4999959945678
395,147,130781,2,0,P|388:99|361:69,1,82.4999959945678
408,340,131015,2,0,P|452:357|491:349,1,82.4999959945678
318,266,131250,6,0,P|305:315|306:356,1,82.4999959945678,2|0,0:0|0:0,0:0:0
468,204,131484,1,0,0:0:0
468,204,131601,1,0,0:0:0
318,266,131718,2,0,P|225:261,1,82.4999959945678,2|0,0:0|0:0,0:0:0
60,164,131953,2,0,P|153:169,1,82.4999959945678
298,51,132187,5,2,0:0:0
237,179,132304,1,0,0:0:0
355,81,132421,5,0,0:0:0
272,196,132538,1,0,0:0:0
403,120,132656,5,2,0:0:0
302,220,132773,1,0,0:0:0
439,156,132890,5,2,0:0:0
338,256,133007,1,0,0:0:0
373,295,133125,2,0,P|409:318|451:312,1,82.4999959945678,2|0,0:0|0:0,0:0:0
373,295,133359,2,0,P|300:291|253:329|206:331,1,164.999991989136
31,242,133710,5,0,0:0:0
101,324,133828,1,0,0:0:0
101,324,133945,1,0,0:0:0
116,200,134062,1,0,0:0:0
189,256,134179,2,0,P|206:212|205:172,1,82.4999959945678,2|0,0:0|0:0,0:0:0
224,39,134414,1,0,0:0:0
374,122,134531,2,0,P|329:133|285:130,1,82.4999959945678,2|0,0:0|0:0,0:0:0
94,70,134765,1,0,0:0:0
94,70,134882,1,0,0:0:0
224,39,135000,6,0,P|226:89|213:128,1,82.4999959945678,2|0,0:0|0:0,0:0:0
189,256,135234,1,0,0:0:0
269,376,135351,1,0,0:0:0
339,321,135468,2,0,P|427:332,1,82.4999959945678,2|0,0:0|0:0,0:0:0
504,219,135703,1,0,0:0:0
504,219,135820,2,0,P|409:251,1,82.4999959945678,2|0,0:0|0:0,0:0:0
266,282,136054,1,2,0:0:0
138,191,136171,1,0,0:0:0
122,355,136289,1,2,0:0:0
251,317,136406,6,0,P|268:288|263:265,3,41.2499979972839
262,238,136640,6,0,P|292:230|314:250,3,41.2499979972839
345,216,136875,6,0,P|354:141|287:61,1,164.999991989136
248,53,137167,2,0,P|236:141,1,82.4999959945678
223,185,137343,2,0,P|40:171,1,164.999991989136
0,95,137695,1,0,0:0:0
58,172,137812,6,0,P|73:237|20:309,1,123.749993991852
35,342,138046,2,0,P|90:351|130:369,1,82.4999959945678
312,300,138281,1,0,0:0:0
400,366,138398,2,0,P|417:312|414:276,2,82.4999959945678
512,249,138750,6,0,P|465:201|408:192|352:216,1,164.999991989136,2|0,0:0|0:0,0:0:0
298,77,139101,1,0,0:0:0
122,197,139218,2,0,P|169:245|226:254|282:230,1,164.999991989136
124,58,139569,1,0,0:0:0
12,156,139687,2,0,P|2:60,1,82.4999959945678,2|0,0:0|0:0,0:0:0
123,198,139921,2,0,P|133:294,1,82.4999959945678
245,361,140156,2,0,P|221:248|242:192,1,164.999991989136,2|0,0:0|0:0,0:0:0
335,109,140507,1,0,0:0:0
348,231,140625,5,2,0:0:0
388,261,140742,1,0,0:0:0
437,269,140859,1,0,0:0:0
485,254,140976,1,0,0:0:0
329,34,141093,5,2,0:0:0
299,74,141210,1,0,0:0:0
291,123,141327,1,0,0:0:0
306,171,141444,1,0,0:0:0
210,138,141562,5,2,0:0:0
170,108,141679,1,0,0:0:0
121,100,141796,1,0,0:0:0
73,115,141913,1,0,0:0:0
52,7,142031,5,2,0:0:0
131,179,142148,1,0,0:0:0
14,215,142265,1,0,0:0:0
90,305,142382,1,0,0:0:0
208,265,142500,6,0,P|243:288|260:342|262:381,1,123.749993991852,2|0,0:0|0:0,0:0:0
308,377,142734,2,0,P|348:358|396:349,1,82.4999959945678
426,222,142968,2,0,P|386:203|338:194,1,82.4999959945678,0|0,0:0|0:0,0:0:0
306,170,143144,2,0,P|313:128|356:92|391:74,1,123.749993991852,2|0,0:0|0:0,0:0:0
496,7,143437,2,0,P|502:102,1,82.4999959945678
494,130,143671,6,0,P|445:126|403:104|374:67,1,123.749993991852,2|0,0:0|0:0,0:0:0
337,30,143906,2,0,P|291:12|243:13|201:34,1,123.749993991852
163,73,144140,2,0,P|99:7,1,82.4999959945678,2|0,0:0|0:0,0:0:0
307,170,144375,5,0,0:0:0
138,293,144550,1,0,0:0:0
355,353,144726,1,0,0:0:0
282,260,144843,1,0,0:0:0
222,358,144960,1,0,0:0:0
356,352,145078,1,0,0:0:0
356,352,145136,1,0,0:0:0
356,352,145195,1,0,0:0:0
400,243,145312,6,0,P|436:333,1,82.4999959945678
430,165,145546,2,0,P|394:255,1,82.4999959945678
400,88,145781,2,0,P|436:178,1,82.4999959945678
446,20,146015,2,0,P|397:93,1,82.4999959945678
308,181,146250,5,2,0:0:0
308,181,146367,1,0,0:0:0
400,88,146484,2,0,P|339:62|320:34,1,82.4999959945678
215,6,146718,1,0,0:0:0
180,131,146835,1,0,0:0:0
216,6,146953,2,0,P|175:17|136:60,1,82.4999959945678
63,99,147187,2,0,P|73:57|56:2,1,82.4999959945678,2|0,0:0|0:0,0:0:0
12,162,147421,2,0,P|1:203|18:258,1,82.4999959945678
141,274,147656,2,0,P|90:334|1:355,1,164.999991989136,2|0,0:0|0:0,0:0:0
93,196,148007,5,2,0:0:0
198,346,148125,1,2,0:0:0
304,364,148242,2,0,P|324:312|315:262,1,82.4999959945678
294,174,148476,2,0,P|389:185,2,82.4999959945678
508,118,148828,2,0,P|412:106,1,82.4999959945678
371,31,149062,1,2,0:0:0
476,273,149179,6,0,P|380:261,1,82.4999959945678,2|0,0:0|0:0,0:0:0
228,247,149414,2,0,P|214:294|225:328,2,82.4999959945678
162,384,149765,1,0,0:0:0
78,229,149882,1,0,0:0:0
10,335,150000,6,0,P|55:331|104:307,2,82.4999959945678,2|0|0,0:0|0:0|0:0,0:0:0
165,176,150351,1,2,0:0:0
29,110,150468,2,0,P|11:151|15:187,1,82.4999959945678,0|0,0:0|0:0,0:0:0
315,113,150703,2,0,P|333:154|329:190,1,82.4999959945678,2|0,0:0|0:0,0:0:0
207,362,150937,1,0,0:0:0
207,362,151054,2,0,P|240:377|349:348|402:361,1,164.999991989136,2|0,0:0|0:0,0:0:0
456,237,151406,1,2,0:0:0
499,360,151524,1,2,0:0:0
112,79,151875,5,0,0:0:0
256,192,165000,5,0,0:0:0
256,192,165468,1,0,0:0:0
256,192,165937,1,0,0:0:0
256,192,165996,12,0,166757,0:0:0
232,219,166875,6,0,P|145:251|14:232,1,219.999980926514,6|0,0:0|0:0,0:0:0
253,123,167226,1,0,0:0:0
172,318,167343,2,0,P|259:350|390:331,1,219.999980926514,2|0,0:0|0:0,0:0:0
479,242,167694,1,0,0:0:0
343,254,167812,2,0,P|319:201|334:145,1,109.999990463257,2|0,0:0|0:0,0:0:0
215,31,168046,2,0,P|239:84|224:140,1,109.999990463257
178,213,168281,1,2,0:0:0
56,179,168398,1,0,0:0:0
178,213,168515,1,2,0:0:0
56,179,168632,1,0,0:0:0
178,213,168750,6,0,P|131:329|22:361,1,219.999980926514,6|0,0:0|0:0,0:0:0
256,96,169101,1,0,0:0:0
334,213,169218,2,0,P|381:329|490:361,1,219.999980926514,2|0,0:0|0:0,0:0:0
256,96,169569,1,0,0:0:0
178,213,169687,6,0,P|64:192,1,109.999990463257,2|0,0:0|0:0,0:0:0
399,47,169921,2,0,P|370:97|317:128,1,109.999990463257
334,213,170156,2,0,P|448:192,1,109.999990463257,2|0,0:0|0:0,0:0:0
187,129,170390,2,0,P|158:79|105:48,1,109.999990463257
334,213,170625,6,0,P|362:299|454:345|520:340,1,219.999980926514,6|0,0:0|0:0,0:0:0
258,279,170976,1,0,0:0:0
258,279,171093,2,0,P|140:297|26:281,1,219.999980926514,2|0,0:0|0:0,0:0:0
2,137,171444,1,0,0:0:0
115,200,171562,2,0,P|234:165,1,109.999990463257,2|0,0:0|0:0,0:0:0
397,184,171796,2,0,P|278:219,1,109.999990463257
500,242,172031,2,0,P|508:176|487:120,2,109.999990463257,2|0|2,0:0|0:0|0:0,0:0:0
396,31,172382,5,0,0:0:0
396,31,172500,2,0,P|298:72|193:19,1,219.999980926514,2|0,0:0|0:0,0:0:0
15,101,172851,1,0,0:0:0
15,101,172969,2,0,P|56:199|3:304,1,219.999980926514,2|0,0:0|0:0,0:0:0
176,217,173319,1,0,0:0:0
179,379,173437,2,0,P|45:364,1,109.999990463257,2|0,0:0|0:0,0:0:0
245,278,173671,1,6,0:0:0
262,318,173789,1,2,0:0:0
288,353,173906,2,0,P|403:370|508:243|462:124,1,329.999971389771,2|0,0:0|0:0,0:0:0
311,42,174375,6,0,P|298:156|382:232,1,219.999980926514,6|0,0:0|0:0,0:0:0
434,39,174726,1,0,0:0:0
512,157,174843,2,0,P|265:128,1,219.999980926514,2|0,0:0|0:0,0:0:0
57,101,175194,1,0,0:0:0
176,8,175312,2,0,P|181:66|155:135,1,109.999990463257,2|0,0:0|0:0,0:0:0
47,207,175546,2,0,P|42:149|68:80,1,109.999990463257
204,252,175781,1,2,0:0:0
54,329,175898,1,0,0:0:0
54,329,176015,1,2,0:0:0
136,179,176132,1,0,0:0:0
172,318,176250,22,0,P|272:369|371:335,1,219.999980926514,6|0,0:0|0:0,0:0:0
479,177,176601,1,0,0:0:0
436,379,176718,2,0,P|491:265|476:171,1,219.999980926514,2|0,0:0|0:0,0:0:0
400,26,177069,1,0,0:0:0
349,151,177187,2,0,P|301:115|294:44,1,109.999990463257,2|0,0:0|0:0,0:0:0
316,257,177421,2,0,P|417:210,1,109.999990463257
163,233,177656,2,0,P|211:269|218:340,1,109.999990463257,2|0,0:0|0:0,0:0:0
196,127,177890,2,0,P|95:174,1,109.999990463257
21,298,178125,6,0,P|72:374|194:376,1,219.999980926514,6|0,0:0|0:0,0:0:0
389,214,178476,1,0,0:0:0
491,298,178593,2,0,P|440:374|318:376,1,219.999980926514,2|0,0:0|0:0,0:0:0
123,214,178945,1,0,0:0:0
313,287,179062,2,0,P|366:255|393:202,1,109.999990463257,2|0,0:0|0:0,0:0:0
199,287,179296,2,0,P|146:255|119:202,1,109.999990463257
256,160,179531,2,0,P|256:288,2,109.999990463257,0|0|2,0:0|0:0|0:0,0:0:0
256,0,179882,1,0,0:0:0
358,50,180000,6,0,P|233:90|144:28,1,219.999980926514,2|0,0:0|0:0,0:0:0
96,192,180351,1,0,0:0:0
154,334,180468,2,0,P|279:294|368:356,1,219.999980926514,2|0,0:0|0:0,0:0:0
448,192,180820,1,0,0:0:0
185,237,180937,6,0,P|163:168|183:128,1,109.999990463257,2|0,0:0|0:0,0:0:0
327,147,181171,2,0,P|349:216|329:256,1,109.999990463257
155,335,181406,2,0,P|332:378|480:269,1,329.999971389771,2|0,0:0|0:0,0:0:0
273,302,181875,6,0,P|183:232|174:123,1,219.999980926514,6|0,0:0|0:0,0:0:0
179,12,182226,1,0,0:0:0
55,99,182343,2,0,P|142:131|273:112,1,219.999980926514,2|0,0:0|0:0,0:0:0
478,36,182694,1,0,0:0:0
492,140,182812,2,0,P|373:126,1,109.999990463257,2|0,0:0|0:0,0:0:0
259,27,183046,2,0,P|378:41,1,109.999990463257
351,237,183281,1,2,0:0:0
281,167,183398,1,0,0:0:0
241,257,183515,1,2,0:0:0
171,187,183632,1,0,0:0:0
132,278,183750,6,0,P|49:289|14:226|33:171|90:137,1,219.999980926514,6|0,0:0|0:0,0:0:0
346,39,184101,1,0,0:0:0
346,39,184218,2,0,P|429:28|464:91|445:146|388:180,1,219.999980926514,2|0,0:0|0:0,0:0:0
241,257,184569,1,0,0:0:0
341,382,184687,5,6,0:0:0
341,382,184804,1,0,0:0:0
244,144,184921,1,6,0:0:0
244,144,185039,1,0,0:0:0
102,209,185156,2,0,P|47:140|83:66,1,164.999985694885,6|0,0:0|0:0,0:0:0
72,75,185390,2,0,P|204:113,1,109.999990463257,2|0,0:0|0:0,0:0:0
266,233,185625,6,0,P|352:140|349:33,1,219.999980926514,6|0,0:0|0:0,0:0:0
439,244,185976,1,0,0:0:0
245,143,186093,2,0,P|159:236|162:343,1,219.999980926514,2|0,0:0|0:0,0:0:0
49,144,186444,1,0,0:0:0
420,347,186562,2,0,P|446:285|424:217,1,109.999990463257,2|0,0:0|0:0,0:0:0
92,347,186796,2,0,P|66:285|88:217,1,109.999990463257
256,384,187031,2,0,P|256:256,2,109.999990463257,2|0|2,0:0|0:0|0:0,0:0:0
337,103,187382,1,0,0:0:0
236,162,187500,6,0,P|349:213|455:152,1,219.999980926514,2|0,0:0|0:0,0:0:0
457,79,187851,1,0,0:0:0
504,236,187968,1,2,0:0:0
504,236,188085,1,0,0:0:0
349,285,188203,1,0,0:0:0
419,366,188320,2,0,P|354:382|279:362,1,109.999990463257,0|2,0:0|0:0,0:0:0
220,244,188554,1,0,0:0:0
138,337,188671,2,0,P|121:217,1,109.999990463257,2|0,0:0|0:0,0:0:0
12,45,188906,2,0,P|52:382,1,329.999971389771,2|0,0:0|0:0,0:0:0
129,273,189375,22,0,P|197:363|313:382,1,219.999980926514,6|0,0:0|0:0,0:0:0
504,234,189726,1,0,0:0:0
392,316,189843,2,0,P|416:80,1,219.999980926514,2|0,0:0|0:0,0:0:0
329,36,190194,1,0,0:0:0
312,140,190312,2,0,P|185:125,1,109.999990463257,2|0,0:0|0:0,0:0:0
40,197,190546,2,0,P|167:212,1,109.999990463257
278,229,190781,1,2,0:0:0
326,365,190898,1,0,0:0:0
181,335,191015,1,2,0:0:0
278,230,191132,1,0,0:0:0
432,321,191250,22,0,P|461:237|440:88,1,219.999980926514,6|0,0:0|0:0,0:0:0
321,22,191601,1,0,0:0:0
377,203,191718,2,0,P|127:180,1,219.999980926514,2|0,0:0|0:0,0:0:0
58,75,192069,1,0,0:0:0
0,277,192187,2,0,P|126:231,1,109.999990463257,2|0,0:0|0:0,0:0:0
153,29,192421,2,0,P|204:55|204:125,1,109.999990463257
376,203,192656,2,0,P|328:234|268:199,1,109.999990463257,2|0,0:0|0:0,0:0:0
69,331,192890,2,0,P|67:273|127:238,1,109.999990463257
184,145,193125,6,0,P|217:289|290:368,1,219.999980926514,6|0,0:0|0:0,0:0:0
376,203,193476,1,0,0:0:0
512,337,193593,2,0,P|387:383|298:355,1,219.999980926514,2|0,0:0|0:0,0:0:0
28,206,193944,1,0,0:0:0
176,317,194062,2,0,P|205:261|178:182,1,109.999990463257,2|0,0:0|0:0,0:0:0
270,105,194296,2,0,P|208:107|153:170,1,109.999990463257
48,144,194531,2,0,P|82:197|164:213,2,109.999990463257,2|0|2,0:0|0:0|0:0,0:0:0
18,58,194882,1,0,0:0:0
18,58,195000,21,2,0:0:0
126,132,195117,2,2,P|181:79|186:20,1,109.999990463257
256,32,195351,1,0,0:0:0
256,160,195468,1,2,0:0:0
386,132,195585,2,0,P|331:79|326:20,1,109.999990463257,0|2,0:0|0:0,0:0:0
509,100,195819,1,0,0:0:0
444,190,195937,2,0,P|414:320,1,109.999990463257,2|0,0:0|0:0,0:0:0
231,268,196171,2,0,P|261:138,1,109.999990463257,2|0,0:0|0:0,0:0:0
423,73,196406,2,0,P|304:11|108:81,1,329.999971389771,2|0,0:0|0:0,0:0:0
0,222,196875,5,4,0:0:0
88,163,196992,2,0,P|106:211|100:252,1,82.4999959945678
44,348,197226,1,0,0:0:0
44,348,197343,2,0,P|132:335|218:342,1,164.999991989136,2|0,0:0|0:0,0:0:0
368,245,197695,1,0,0:0:0
305,331,197812,6,0,P|274:295|266:255,1,82.4999959945678,2|0,0:0|0:0,0:0:0
388,373,198046,1,0,0:0:0
388,373,198164,1,0,0:0:0
451,202,198281,2,0,P|482:238|490:278,1,82.4999959945678,2|0,0:0|0:0,0:0:0
489,271,198457,1,0,0:0:0
489,271,198515,1,2,0:0:0
416,117,198632,1,0,0:0:0
368,244,198750,6,0,P|337:208|329:168,1,82.4999959945678,0|0,0:0|0:0,0:0:0
271,30,198984,2,0,P|176:44,1,82.4999959945678,2|0,0:0|0:0,0:0:0
31,21,199218,2,0,P|62:57|70:97,1,82.4999959945678
128,235,199452,2,0,P|223:221,1,82.4999959945678,2|0,0:0|0:0,0:0:0
417,118,199687,6,0,P|227:143,1,164.999991989136,2|0,0:0|0:0,0:0:0
9,139,200039,1,0,0:0:0
9,139,200156,2,0,P|50:159|118:149,2,82.4999959945678,2|0|0,0:0|0:0|0:0,0:0:0
185,49,200507,1,0,0:0:0
256,140,200625,5,2,0:0:0
256,140,200742,1,0,0:0:0
369,84,200859,2,0,P|386:128|380:168,1,82.4999959945678
375,273,201093,1,2,0:0:0
496,210,201210,1,0,0:0:0
375,273,201328,2,0,P|332:288|287:280,1,82.4999959945678
206,371,201562,6,0,P|184:326|190:280,1,82.4999959945678,2|0,0:0|0:0,0:0:0
189,132,201796,1,2,0:0:0
189,132,201914,1,0,0:0:0
306,13,202031,2,0,P|328:58|322:104,1,82.4999959945678,2|0,0:0|0:0,0:0:0
323,252,202265,1,2,0:0:0
323,252,202383,1,0,0:0:0
450,150,202500,6,0,P|395:156|357:173,1,82.4999959945678,2|0,0:0|0:0,0:0:0
72,248,202734,2,0,P|46:165,1,82.4999959945678
323,251,202968,2,0,P|378:245|416:228,1,82.4999959945678,2|0,0:0|0:0,0:0:0
86,63,203202,2,0,P|112:146,1,82.4999959945678
265,358,203437,2,0,P|320:352|358:335,1,82.4999959945678,2|0,0:0|0:0,0:0:0
247,26,203671,2,0,P|192:32|154:49,1,82.4999959945678
24,101,203906,2,0,P|-2:18,2,82.4999959945678,2|0|2,0:0|0:0|0:0,0:0:0
71,246,204257,1,0,0:0:0
173,277,204375,6,0,P|204:236|207:201,1,82.4999959945678,2|0,0:0|0:0,0:0:0
245,25,204609,1,0,0:0:0
304,113,204726,2,0,P|352:112|397:102,1,82.4999959945678
438,86,204902,1,0,0:0:0
438,86,204960,2,0,P|480:183,1,82.4999959945678
404,259,205195,1,0,0:0:0
454,368,205312,6,0,P|404:360|375:334,1,82.4999959945678,2|0,0:0|0:0,0:0:0
288,256,205546,1,0,0:0:0
58,368,205664,2,0,P|108:360|137:334,1,82.4999959945678
224,256,205898,1,0,0:0:0
320,384,206015,1,0,0:0:0
346,208,206132,1,0,0:0:0
473,272,206250,6,0,P|486:215|471:166,1,82.4999959945678,2|0,0:0|0:0,0:0:0
502,75,206484,1,0,0:0:0
391,113,206601,2,0,P|293:102,1,82.4999959945678,0|2,0:0|0:0,0:0:0
171,26,206835,1,0,0:0:0
209,159,206953,1,0,0:0:0
129,271,207070,1,0,0:0:0
188,367,207187,6,0,P|286:378,1,82.4999959945678,2|0,0:0|0:0,0:0:0
412,343,207421,1,0,0:0:0
290,283,207539,2,0,P|394:265,1,82.4999959945678,0|2,0:0|0:0,0:0:0
469,184,207772,1,0,0:0:0
499,310,207890,1,2,0:0:0
469,183,208007,1,0,0:0:0
290,282,208125,6,0,P|267:239|267:185,1,82.4999959945678,2|0,0:0|0:0,0:0:0
259,35,208359,1,0,0:0:0
355,123,208476,2,0,P|470:120,2,82.4999959945678
196,182,208828,1,0,0:0:0
396,252,208945,1,0,0:0:0
269,373,209062,6,0,P|132:344|99:305,1,164.999991989136,2|0,0:0|0:0,0:0:0
50,187,209414,2,0,P|54:231|72:270,1,82.4999959945678,0|2,0:0|0:0,0:0:0
94,122,209648,2,0,P|49:113|3:123,1,82.4999959945678
158,200,209882,1,0,0:0:0
158,200,210000,2,0,P|184:135|186:106,1,82.4999959945678,2|0,0:0|0:0,0:0:0
272,40,210234,2,0,P|352:67,1,82.4999959945678
486,112,210468,1,0,0:0:0
486,112,210585,1,0,0:0:0
256,192,210703,12,0,211757,0:0:0
256,32,211875,5,2,0:0:0
359,134,211992,2,0,P|306:142|256:142,1,82.4999959945678
26,83,212226,1,0,0:0:0
134,47,212343,2,0,P|135:101|97:176,1,123.749993991852,2|0,0:0|0:0,0:0:0
76,216,212578,2,0,P|178:228,1,82.4999959945678
337,357,212812,1,2,0:0:0
391,201,212929,1,0,0:0:0
483,311,213046,1,0,0:0:0
512,196,213164,1,0,0:0:0
482,312,213281,2,0,P|398:306|326:255,1,164.999991989136,2|0,0:0|0:0,0:0:0
293,82,213632,1,0,0:0:0
293,82,213750,6,0,P|214:95|202:179,1,164.999991989136,2|0,0:0|0:0,0:0:0
128,325,214101,2,0,P|174:290|181:261,1,82.4999959945678,2|0,0:0|0:0,0:0:0
319,172,214335,2,0,P|359:181|402:186,1,82.4999959945678,2|0,0:0|0:0,0:0:0
293,82,214570,2,0,P|204:66|108:58,1,164.999991989136,2|0,0:0|0:0,0:0:0
0,58,214921,1,0,0:0:0
89,136,215039,1,0,0:0:0
12,194,215156,2,0,P|35:239|62:261,1,82.4999959945678,2|0,0:0|0:0,0:0:0
158,372,215390,2,0,P|185:329|191:295,1,82.4999959945678,2|0,0:0|0:0,0:0:0
165,190,215625,6,0,P|245:198|347:187,1,164.999991989136,2|0,0:0|0:0,0:0:0
329,190,215976,1,0,0:0:0
512,314,216093,2,0,P|520:234|509:132,1,164.999991989136,2|0,0:0|0:0,0:0:0
512,149,216444,1,0,0:0:0
432,56,216562,2,0,P|467:46|515:49,1,82.4999959945678,2|0,0:0|0:0,0:0:0
359,113,216796,1,0,0:0:0
297,20,216914,1,0,0:0:0
241,180,217031,2,0,P|206:190|158:187,1,82.4999959945678,2|0,0:0|0:0,0:0:0
2,132,217265,1,0,0:0:0
2,132,217382,1,0,0:0:0
2,132,217500,6,0,P|10:228,1,82.4999959945678,2|0,0:0|0:0,0:0:0
110,357,217734,2,0,P|208:350,1,82.4999959945678
447,258,217968,1,0,0:0:0
395,162,218085,1,0,0:0:0
238,273,218203,2,0,P|140:280,1,82.4999959945678
13,205,218437,2,0,P|81:213|152:198,1,123.749993991852,2|0,0:0|0:0,0:0:0
185,180,218671,2,0,P|189:128|183:96,1,82.4999959945678
255,13,218906,1,2,0:0:0
279,91,219023,1,0,0:0:0
324,159,219140,1,2,0:0:0
397,197,219257,1,0,0:0:0
479,190,219375,6,0,P|502:143|499:99,1,82.4999959945678,2|0,0:0|0:0,0:0:0
287,240,219609,2,0,P|278:293|291:323,1,82.4999959945678
407,365,219843,2,0,P|523:359,2,82.4999959945678,2|0|0,0:0|0:0|0:0,0:0:0
193,371,220195,1,0,0:0:0
193,371,220312,6,0,P|145:364|121:338,1,82.4999959945678,2|0,0:0|0:0,0:0:0
13,161,220546,2,0,P|20:209|46:233,1,82.4999959945678
0,348,220781,2,0,P|77:300|128:231,1,164.999991989136,2|0,0:0|0:0,0:0:0
215,71,221132,1,0,0:0:0
215,71,221250,6,0,P|319:81,1,82.4999959945678,2|0,0:0|0:0,0:0:0
475,145,221484,2,0,P|504:46,1,82.4999959945678
320,201,221718,1,2,0:0:0
320,201,221835,1,0,0:0:0
471,260,221953,1,2,0:0:0
471,260,222070,1,0,0:0:0
394,352,222187,6,0,P|337:367|252:350,1,123.749993991852,2|0,0:0|0:0,0:0:0
226,349,222421,2,0,P|219:256,1,82.4999959945678,2|0,0:0|0:0,0:0:0
224,35,222656,1,2,0:0:0
321,200,222773,1,0,0:0:0
109,138,222890,2,0,P|98:227,1,82.4999959945678,2|0,0:0|0:0,0:0:0
0,340,223125,6,0,P|88:336|163:290,1,164.999991989136,2|0,0:0|0:0,0:0:0
255,196,223476,1,0,0:0:0
479,328,223593,2,0,P|509:240|497:146,1,164.999991989136
456,20,223944,1,0,0:0:0
397,119,224062,6,0,P|348:112|311:87,1,82.4999959945678,2|0,0:0|0:0,0:0:0
222,17,224296,1,0,0:0:0
111,160,224414,1,0,0:0:0
23,108,224531,2,0,P|5:153|12:185,1,82.4999959945678
198,182,224765,2,0,P|216:227|209:259,1,82.4999959945678
118,365,225000,6,0,P|193:350|281:366,1,164.999991989136,2|0,0:0|0:0,0:0:0
401,351,225351,2,2,P|383:306|390:274,1,82.4999959945678
415,58,225585,1,2,0:0:0
473,147,225703,1,2,0:0:0
333,173,225820,1,2,0:0:0
484,288,225937,5,6,0:0:0
333,173,226054,2,6,P|291:208|284:244,1,82.4999959945678
230,358,226289,1,6,0:0:0
230,358,226406,1,6,0:0:0
56,202,226523,1,6,0:0:0
129,368,226640,2,6,P|171:305|142:260|157:186,1,164.999991989136
256,351,228750,6,0,P|256:63,1,252.999982891083,6|0,0:0|0:0,0:0:0
435,13,229101,2,0,P|394:64|337:89,1,126.499991445541,0|2,0:0|0:0,0:0:0
59,221,229335,2,0,P|206:188,1,126.499991445541,0|0,0:0|0:0,0:0:0
487,174,229570,2,0,P|436:215|411:272,1,126.499991445541,0|2,0:0|0:0,0:0:0
493,382,229804,2,0,P|446:325|316:315|246:358,1,252.999982891083
68,362,230156,2,0,P|139:383|190:365,1,126.499991445541,2|0,0:0|0:0,0:0:0
123,121,230390,2,0,P|69:171|59:225,1,126.499991445541,2|0,0:0|0:0,0:0:0
306,158,230625,6,2,P|240:52|116:23,1,252.999982891083,4|0,0:0|0:0,0:0:0
121,22,230976,1,0,0:0:0
238,262,231093,2,0,P|357:225|417:113,1,252.999982891083,2|0,0:0|0:0,0:0:0
416,119,231444,1,0,0:0:0
451,292,231562,2,0,P|372:261|350:218,1,126.499991445541,2|0,0:0|0:0,0:0:0
256,31,231796,2,0,P|210:174,1,126.499991445541
79,303,232031,2,0,P|144:280|180:229,1,126.499991445541,2|0,0:0|0:0,0:0:0
286,352,232265,2,0,P|125:395,1,126.499991445541
355,229,232500,6,0,P|373:289|364:357,2,126.499991445541,6|0|0,0:0|0:0|0:0,0:0:0
189,50,232851,2,0,P|129:32|61:41,2,126.499991445541,0|2|0,0:0|0:0|0:0,0:0:0
355,155,233203,2,0,P|373:95|364:27,1,126.499991445541
117,121,233437,2,0,P|99:181|108:249,1,126.499991445541,2|0,0:0|0:0,0:0:0
230,384,233671,2,0,P|248:324|239:256,1,126.499991445541
118,121,233906,2,0,P|237:172|358:154,1,252.999982891083,2|0,0:0|0:0,0:0:0
475,54,234257,1,0,0:0:0
475,54,234375,6,0,P|491:186,1,126.499991445541,2|0,0:0|0:0,0:0:0
435,374,234609,1,0,0:0:0
512,292,234726,2,0,P|385:262|228:301,1,252.999982891083,2|0,0:0|0:0,0:0:0
37,330,235078,1,0,0:0:0
37,330,235196,2,0,P|21:198,1,126.499991445541,2|0,0:0|0:0,0:0:0
258,126,235429,2,0,P|325:135|397:120,2,126.499991445541,0|2|0,0:0|0:0|0:0,0:0:0
175,245,235781,2,0,P|151:108|196:-17,1,252.999982891083,2|0,0:0|0:0,0:0:0
336,139,236132,1,0,0:0:0
175,245,236250,6,0,P|114:263|30:251,1,126.499991445541,6|0,0:0|0:0,0:0:0
337,139,236484,2,0,P|398:121|482:133,1,126.499991445541
161,172,236718,2,0,P|105:141|54:73,1,126.499991445541,2|0,0:0|0:0,0:0:0
350,211,236952,2,0,P|406:242|457:310,1,126.499991445541
277,333,237187,2,0,P|255:216|267:53,1,252.999982891083,2|0,0:0|0:0,0:0:0
461,40,237539,2,0,P|469:104|453:180,1,126.499991445541,2|0,0:0|0:0,0:0:0
278,333,237773,2,0,P|417:314,1,126.499991445541,2|0,0:0|0:0,0:0:0
160,353,238007,1,0,0:0:0
108,183,238125,6,0,P|7:252|4:383,1,252.999982891083,6|0,0:0|0:0,0:0:0
108,183,238476,2,0,P|79:116|14:111,1,126.499991445541,0|2,0:0|0:0,0:0:0
233,54,238710,2,0,P|211:195,1,126.499991445541,0|2,0:0|0:0,0:0:0
384,125,238945,2,0,P|528:113,1,126.499991445541,0|2,0:0|0:0,0:0:0
223,279,239179,2,0,P|79:291,1,126.499991445541,0|2,0:0|0:0,0:0:0
96,289,239414,1,2,0:0:0
96,289,239531,1,2,0:0:0
280,174,239648,2,0,P|343:277|281:383,1,252.999982891083,2|0,0:0|0:0,0:0:0
280,174,240000,6,0,P|251:112|276:40,1,126.499991445541,6|0,0:0|0:0,0:0:0
463,102,240234,2,0,P|492:164|467:236,1,126.499991445541
179,207,240468,2,0,P|150:145|175:73,1,126.499991445541,2|0,0:0|0:0,0:0:0
362,135,240702,2,0,P|391:197|366:269,1,126.499991445541
479,333,240937,2,0,P|350:359|217:302,1,252.999982891083,2|0,0:0|0:0,0:0:0
53,220,241289,2,0,P|7:270|1:334,1,126.499991445541
179,207,241523,2,0,P|158:142|106:104,1,126.499991445541,2|0,0:0|0:0,0:0:0
5,45,241757,6,0,P|134:19|267:76,1,252.999982891083,2|0,0:0|0:0,0:0:0
454,172,242109,1,0,0:0:0
402,20,242226,2,0,P|368:88|371:140,1,126.499991445541,2|0,0:0|0:0,0:0:0
423,289,242460,2,0,P|457:221|454:169,1,126.499991445541,2|0,0:0|0:0,0:0:0
402,20,242695,2,0,P|278:55|157:15,1,252.999982891083,2|0,0:0|0:0,0:0:0
0,161,243046,1,0,0:0:0
130,277,243164,1,0,0:0:0
0,321,243281,2,0,P|115:275|272:294,1,252.999982891083,2|0,0:0|0:0,0:0:0
419,364,243632,6,0,P|486:321|496:263,1,126.499991445541,6|0,0:0|0:0,0:0:0
379,176,243867,2,0,P|236:191,1,126.499991445541
184,92,244101,2,0,P|327:77,1,126.499991445541,0|2,0:0|0:0,0:0:0
93,20,244335,2,0,P|26:63|16:121,1,126.499991445541
0,270,244570,2,0,P|123:242|267:285,1,252.999982891083,2|0,0:0|0:0,0:0:0
432,342,244921,2,0,P|370:336|313:307,1,126.499991445541
151,125,245156,2,0,P|122:196|125:255,1,126.499991445541,2|0,0:0|0:0,0:0:0
178,35,245390,2,0,P|115:60|67:108,1,126.499991445541,2|0,0:0|0:0,0:0:0
200,189,245625,6,0,P|322:215|453:184,1,252.999982891083,6|0,0:0|0:0,0:0:0
201,188,245976,2,0,P|177:257|179:321,1,126.499991445541,0|2,0:0|0:0,0:0:0
422,310,246210,2,0,P|445:240|443:176,1,126.499991445541,0|2,0:0|0:0,0:0:0
68,262,246445,2,0,P|44:331|46:395,1,126.499991445541
289,384,246679,2,0,P|312:314|310:250,1,126.499991445541,2|0,0:0|0:0,0:0:0
73,118,246914,1,2,0:0:0
298,22,247031,2,0,P|340:139|307:271,1,252.999982891083,2|0,0:0|0:0,0:0:0
312,261,247382,1,0,0:0:0
219,160,247500,6,0,P|161:185|93:181,1,126.499991445541,6|0,0:0|0:0,0:0:0
0,85,247734,2,0,P|58:60|126:64,1,126.499991445541
290,160,247968,2,0,P|348:185|416:181,1,126.499991445541,2|0,0:0|0:0,0:0:0
512,85,248202,2,0,P|454:60|386:64,1,126.499991445541
151,187,248437,1,2,0:0:0
58,65,248554,1,0,0:0:0
151,187,248671,2,0,P|60:204|10:189,1,126.499991445541,2|0,0:0|0:0,0:0:0
118,367,248906,1,2,0:0:0
17,304,249023,2,0,P|124:272|279:300,1,252.999982891083,0|0,0:0|0:0,0:0:0
354,340,249375,6,0,P|361:198,1,126.499991445541,2|0,0:0|0:0,0:0:0
457,108,249609,1,0,0:0:0
457,108,249726,2,0,P|450:250,1,126.499991445541
195,171,249960,2,0,P|202:29,1,126.499991445541,0|2,0:0|0:0,0:0:0
219,279,250195,1,0,0:0:0
195,171,250312,2,0,P|112:194|67:235|35:291|38:363,1,252.999982891083,2|0,0:0|0:0,0:0:0
306,215,250664,2,0,P|251:175|178:176,1,126.499991445541,0|2,0:0|0:0,0:0:0
437,319,250898,2,0,P|451:187,1,126.499991445541,0|0,0:0|0:0,0:0:0
373,11,251132,1,0,0:0:0
470,95,251250,6,0,P|332:112,1,126.499991445541,6|0,0:0|0:0,0:0:0
47,57,251484,2,0,P|59:122|44:190,1,126.499991445541
42,289,251718,2,0,P|180:272,1,126.499991445541,2|0,0:0|0:0,0:0:0
465,327,251952,2,0,P|453:262|468:194,1,126.499991445541
373,12,252187,2,0,P|385:77|370:145,1,126.499991445541,2|0,0:0|0:0,0:0:0
329,365,252421,2,0,P|191:382,1,126.499991445541,0|0,0:0|0:0,0:0:0
179,90,252656,2,0,P|317:73,1,126.499991445541,2|0,0:0|0:0,0:0:0
497,132,252890,2,0,P|509:67|494:-1,1,126.499991445541
442,228,253125,6,0,P|379:248|379:248|308:234,1,126.499991445541,6|0,0:0|0:0,0:0:0
0,183,253359,2,0,P|63:163|63:163|134:177,1,126.499991445541
367,35,253593,2,0,P|387:98|387:98|373:169,1,126.499991445541,2|0,0:0|0:0,0:0:0
87,372,253828,2,0,P|67:309|67:309|81:238,1,126.499991445541
23,30,254062,2,0,P|150:92|280:57,1,252.999982891083,2|0,0:0|0:0,0:0:0
476,21,254414,2,0,P|503:88|485:145,1,126.499991445541,2|0,0:0|0:0,0:0:0
383,302,254648,2,0,P|401:225|443:181,1,126.499991445541,2|0,0:0|0:0,0:0:0
383,302,254882,6,0,P|270:360|151:311,1,252.999982891083,4|0,0:0|0:0,0:0:0
30,229,255234,2,0,P|174:214,1,126.499991445541,2|0,0:0|0:0,0:0:0
284,4,255468,2,0,P|299:148,1,126.499991445541,2|0,0:0|0:0,0:0:0
512,184,255703,2,0,P|368:199,1,126.499991445541
168,341,255937,2,0,P|153:197,1,126.499991445541,2|0,0:0|0:0,0:0:0
373,322,256171,2,0,P|388:178,1,126.499991445541,2|0,0:0|0:0,0:0:0
179,121,256406,2,2,P|111:95|50:107,1,126.499991445541
333,121,256640,2,2,P|401:95|462:107,1,126.499991445541
292,259,256875,6,0,P|257:128|290:-8,1,252.999982891083,6|0,0:0|0:0,0:0:0
292,259,257226,1,0,0:0:0
292,259,257343,2,0,P|213:303|165:302,1,126.499991445541
375,206,257578,2,0,P|454:162|502:163,1,126.499991445541
126,220,257812,2,0,P|98:70,1,126.499991445541,2|0,0:0|0:0,0:0:0
191,29,258046,2,0,P|219:179,1,126.499991445541
213,365,258281,6,2,P|364:262|556:331,1,379.499974336624,4|0,0:0|0:0,0:0:0
