osu file format v5

[General]
AudioFilename: Realize.mp3
AudioLeadIn: 0
PreviewTime: -1
Countdown: 1
SampleSet: Normal
StackLeniency: 0.7
Mode: 0
LetterboxInBreaks: 1
EditorDistanceSpacing: 0.800000011920929

[Metadata]
Title:Realize
Artist:Tamaki Nami
Creator:deepsea
Version:Normal
Source:
Tags:

[Difficulty]
HPDrainRate:4
CircleSize:5
OverallDifficulty:5
SliderMultiplier:1.4
SliderTickRate:1

[Events]
//Background and Video events
0,0,"gundam_seed_destiny_02_0960.sized.jpg"
//Break Periods
2,33260,34583
2,59250,62478
2,104211,118894
//Storyboard Layer 0 (Background)
//Storyboard Layer 1 (Fail)
//Storyboard Layer 2 (Pass)
//Storyboard Layer 3 (Foreground)
//Storyboard Sound Samples
//Background Colour Transformations
3,100,163,162,255

[TimingPoints]
219,440.690414983474,4,1,0,100,1,0

[Colours]
Combo1 : 255,255,0
Combo2 : 0,255,64
Combo3 : 255,128,0
Combo4 : 240,5,5

[HitObjects]
256,184,7270,2,0,B|384:184,2,105,8|0|0
328,264,8371,1,2
288,304,8592,1,2
256,184,9032,6,0,B|120:184,2,105,8|0|0
184,112,10134,1,2
224,72,10354,1,2
256,120,10575,5,0
256,176,10795,2,0,B|256:312,2,105
256,120,11676,1,4
256,288,12337,5,0
256,232,12558,2,0,B|152:168,2,105
256,176,13439,2,0,B|360:112,2,105
256,120,14321,1,4
176,40,14761,1,2
96,120,15202,1,2
216,120,15643,6,0,B|320:120,1,70
288,176,16083,2,0,B|368:176,1,70
360,232,16524,2,0,B|442:232,1,70
424,288,16965,5,0
376,312,17185,1,0
328,288,17405,1,0
280,312,17626,1,0
232,288,17846,2,0,B|56:288,1,140,0|0
80,240,18507,2,0,B|80:88,1,140
128,112,19168,1,0
176,128,19389,1,0
232,112,19609,6,0,B|320:112,1,70
360,112,20050,2,0,B|360:208,1,70
360,240,20490,2,0,B|256:240,1,70
232,240,20931,2,2,B|232:144,1,70
184,136,21372,6,0,B|128:136,10,35
240,136,22694,5,2
296,136,22914,1,2
336,176,23134,6,0,B|400:176,10,35
288,208,24456,5,2
232,208,24677,1,2
192,248,24897,6,0,B|136:248,10,35
256,192,26219,12,4,27982
224,40,28423,5,0
280,40,28643,1,0
312,80,28863,1,0
280,128,29084,1,0
224,128,29304,1,2
192,80,29524,1,6
120,312,30185,5,0
176,312,30406,1,0
208,272,30626,1,0
176,224,30846,1,0
120,224,31067,1,8
88,272,31287,1,12
392,312,31948,5,0
336,312,32169,1,0
304,272,32389,1,0
336,224,32609,1,0
392,224,32830,1,8
424,272,33050,1,12
256,88,35474,6,0,B|152:0,2,105
312,88,36355,2,0,B|312:184,1,70
272,192,36796,1,2
304,232,37016,1,2
272,272,37236,2,0,B|168:360,2,105
272,280,38779,5,0
232,328,38999,2,0,B|168:328|136:296|128:264,1,105
200,232,39660,1,8
240,104,40542,5,0
280,56,40762,2,0,B|344:56|376:88|384:120,1,105
312,152,41423,1,8
256,336,42525,5,0
296,264,42855,1,0
216,264,43186,1,0
256,40,44067,5,0
256,96,44288,1,0
216,168,44618,1,0
296,168,44949,1,0
256,40,45830,5,0
256,64,45940,1,0
256,88,46050,1,0
256,256,46711,1,4
200,160,47152,1,4
312,160,47593,1,4
256,192,47813,12,0,49135
200,48,49576,6,0,B|336:48,1,105
256,112,50237,1,0
256,168,50457,2,0,B|256:240,1,70
256,296,50898,2,0,B|256:368,2,70
304,224,51669,1,0
216,224,52000,1,0
104,200,52881,5,0
144,168,53101,2,0,B|184:200|200:232|208:264,2,105
408,200,54644,5,0
368,168,54864,2,0,B|328:200|312:232|304:264,2,105
96,88,56627,5,0
168,120,56957,2,0,B|144:152|112:176|72:168,1,105
272,288,58169,1,0
296,336,58390,1,0
344,264,58720,2,0,B|368:232|400:208|440:216,1,105
192,112,63678,5,0
128,168,64008,1,0
192,224,64339,1,2
320,112,65441,5,0
384,168,65771,1,0
320,224,66102,1,8
256,64,66763,5,0
256,120,66983,1,0
256,176,67203,1,2
344,264,68085,6,0,B|192:264,1,140
176,216,68746,2,0,B|344:216,1,140
368,216,69407,1,2
256,88,70068,5,0
216,120,70288,1,0
256,160,70509,1,0
216,200,70729,2,0,B|144:256,2,70
256,240,71390,2,0,B|312:296,3,70
256,320,72271,2,0,B|192:368,2,70
328,168,73373,6,0,B|176:168,1,140
184,224,74034,6,0,B|336:224,1,140
256,192,74695,12,0,75797
320,136,76017,5,0
320,248,76458,5,8
208,248,76899,5,0
208,136,77339,5,8
256,192,77780,5,4
256,192,78111,1,0
256,192,78441,1,0
224,296,78882,1,2
280,296,79102,1,2
256,192,79543,5,4
256,192,79873,1,0
256,192,80204,1,0
224,80,80645,1,2
280,80,80865,1,2
312,120,81085,5,0
344,168,81306,2,0,B|408:120,2,70
312,208,81967,1,0
344,248,82187,2,0,B|408:288,2,70
312,208,82848,5,0
256,208,83068,1,0
184,248,83399,1,0
184,160,83729,1,0
152,112,83950,2,0,B|224:64,1,70
210,73,84390,2,0,B|272:112,1,70
272,112,84831,2,0,B|344:64,1,70,0|0
328,72,85272,2,0,B|390:111,1,70,0|0
387,109,85712,1,4
256,192,86153,12,0,87035
96,184,87475,5,0
152,184,87696,1,0
208,184,87916,1,0
264,184,88136,1,0
320,184,88357,2,0,B|384:136,2,70
320,184,89018,2,0,B|384:232,2,70
320,184,89679,2,0,B|224:184,1,70
256,192,90119,12,4,91441
256,32,91882,5,4
192,88,92213,1,0
256,136,92543,1,0
256,248,92984,1,2
256,192,93204,1,2
256,32,93645,5,4
320,88,93975,1,0
256,136,94306,1,0
256,248,94747,1,2
288,296,94967,1,2
328,336,95187,5,0
376,304,95408,1,0
440,248,95738,1,0
376,200,96069,1,0
320,200,96289,1,6
136,304,96950,5,0
136,304,97170,1,0
72,248,97501,1,0
136,200,97831,1,0
136,144,98052,1,2
72,88,98382,1,0
136,40,98713,1,0
192,40,98933,2,0,B|248:48|312:56|336:112|336:176,1,210
336,216,99815,2,0,B|336:272|312:304|280:328|240:344,1,140,2|0
208,328,100476,1,0
256,192,100696,12,4,104001
256,48,120086,5,8
176,72,120417,1,0
120,136,120747,1,0
288,136,121408,6,0,B|192:136,1,70
216,192,121849,1,8
272,256,122180,1,0
328,192,122510,1,0
168,48,123391,5,0
168,72,123502,1,0
168,96,123612,1,8
104,152,123942,1,0
168,200,124273,1,0
352,72,125154,5,0
352,128,125375,2,0,B|352:256,2,105,8|0|0
144,264,127137,5,8
72,304,127468,1,0
144,264,127798,1,0
312,120,128680,5,0
368,120,128900,1,8
440,80,129231,1,0
368,120,129561,1,0
256,312,130443,5,0
256,256,130663,2,0,B|200:192,2,70,8|0|0
256,200,131324,2,0,B|304:128,2,70,0|8|0
256,144,131985,2,0,B|208:88,2,70,0|0|8
256,192,132646,12,4,133748
256,56,134188,6,0,B|152:56|136:96,1,105,8|0
96,136,134849,1,8
240,224,135510,5,0
248,280,135731,1,0
256,328,135951,2,0,B|152:328|136:288,1,105,8|0
96,248,136612,1,8
320,280,137494,5,0
320,280,137604,1,0
320,280,137714,1,8
320,192,138044,1,0
376,128,138375,1,0
192,104,139256,5,0
192,104,139477,1,8
136,168,139807,1,0
136,248,140138,1,0
408,304,141239,5,8
408,216,141570,1,0
408,128,141900,1,0
184,128,142782,5,0
128,128,143002,2,0,B|128:240,1,105,8|0
128,320,143663,1,0
256,136,144545,6,0,B|256:200,2,35,0|0|8
256,304,145426,1,8
312,208,145867,1,8
200,208,146307,1,8
256,192,146528,12,4,147850
40,192,148290,5,8
104,136,148621,1,0
168,192,148952,1,0
448,192,150053,5,8
376,144,150384,1,0
304,192,150714,1,0
256,352,151375,5,0
256,296,151596,1,0
256,240,151816,1,8
256,16,152697,6,0,B|256:184,1,140
256,208,153358,2,0,B|256:376,1,140
256,348,154019,1,8
368,216,154680,5,0
328,176,154901,1,0
288,216,155121,1,0
248,176,155342,2,2,B|88:176,1,140
104,120,156003,2,0,B|344:120,1,210
312,176,156884,2,2,B|152:176,1,140
256,24,157986,6,0,B|256:168,1,140
256,164,158647,1,0
256,192,158867,12,0,161952
256,56,162393,5,4
192,112,162723,1,0
256,168,163054,1,0
256,280,163494,1,2
256,336,163715,1,2
144,336,164155,6,0,B|88:336|40:320|32:280,2,105,4|0|0
144,224,165257,1,2
144,168,165477,1,2
144,112,165698,5,0
144,56,165918,2,0,B|216:56|248:112,1,105
232,176,166579,1,0
256,224,166799,1,2
256,56,167461,5,0
312,56,167681,2,0,B|360:56|416:72|432:104,1,105
408,168,168342,1,0
408,223,168562,2,0,B|412:234|356:250|308:250,1,105,2|0
304,168,169223,1,0
304,112,169444,1,0
256,192,169664,12,4,170545
256,192,170766,5,2
256,192,170986,1,2
256,192,171206,12,0,174512
256,112,174732,5,0
176,192,175173,1,8
256,272,175613,1,0
336,192,176054,1,8
256,112,176495,6,0,B|136:112,2,105
256,224,177596,1,2
256,224,177817,1,2
256,112,178257,6,0,B|376:112,2,105
256,224,179359,1,2
256,224,179579,1,2
256,280,179800,5,0
256,336,180020,2,0,B|192:320,1,105
168,200,180681,1,0
168,200,180902,1,2
256,56,181563,5,0
256,112,181783,2,0,B|368:112,2,105
256,168,182664,2,0,B|128:168,2,105,2|0|0
256,224,183546,2,0,B|384:224,2,105
256,280,184427,1,2
256,168,184868,1,0
256,112,185088,1,0
256,192,185970,12,4,188614
